#TITLE:Propane Nightmares;
#SUBTITLE:;
#ARTIST:Pendulum;
#TITLETRANSLIT:;
#SUBTITLETRANSLIT:;
#ARTISTTRANSLIT:;
#CREDIT:;
#BANNER:propanenightmaresbn.png;
#BACKGROUND:propanenightmaresbg.png;
#LYRICSPATH:;
#CDTITLE:;
#MUSIC:propanenightmares.ogg;
#OFFSET:0.009;
#SAMPLESTART:77.240;
#SAMPLELENGTH:22.070;
#SELECTABLE:YES;
#DISPLAYBPM:174.000;
#BPMS:0.000=87.000,64.000=174.000,512.000=87.000,544.000=174.000;
#STOPS:;
#BGCHANGES:;
// cache tags:
#FIRSTBEAT:30.000;
#LASTBEAT:802.500;
#SONGFILENAME:Songs/Pendulum/Propane Nightmares/propanenightmares.sm;
#HASMUSIC:1;
#HASBANNER:1;
#MUSICLENGTH:311.000;
// end cache tags

//---------------dance-single - I. Pyles----------------
#NOTES:
     dance-single:
     I. Pyles:
     Challenge:
     14:
     1.000,1.000,0.486,0.360,1.000,2141.000,151.000,112.000,452.000,1.000:




0000
0000
0000
0000
,
0000
0000
0000
0000
,
0000
0000
0000
0000
,
0000
0000
0000
0000
,
0000
0000
0000
0000
,
0000
0000
0000
0000
,
0000
0000
0000
0000
,
0000
0000
0000
0000
0000
0000
0000
0000
0000
0000
0000
0000
0000
0000
0000
0000
0000
0000
0000
0000
0000
0000
0000
0000
0000
0000
0000
0000
0000
0000
0000
0000
2100
0000
0000
0000
0000
0000
0000
3000
2100
0000
0000
0000
0000
0000
0000
3000
2100
0000
0000
0000
0000
0000
0000
3000
2100
0000
0000
0000
0000
0000
0000
3000
,
1002
0000
0000
0000
0000
0000
0000
0000
2003
0000
3000
0001
0020
0000
0032
0000
,
2003
0000
0000
0000
0000
0000
3000
0001
0200
0000
0000
0000
0000
0000
0000
0000
,
0302
0000
0000
0000
0000
0000
0000
0000
0023
0000
0000
0000
0000
0000
0130
1000
,
0002
0000
0003
0010
0200
0000
0300
1000
0002
0000
0103
0010
2000
0000
3200
0000
,
0320
0000
0000
0000
0000
0000
0000
0000
0032
0000
0003
1000
0200
0000
0320
0000
,
0032
0000
0000
0000
0000
0000
0003
0100
0020
0000
0000
0000
0000
0000
0000
0000
,
2030
0000
0000
0000
0000
0000
0000
0000
3020
0000
0000
0000
0000
0000
0130
0001
,
2000
0000
3000
0001
0200
0000
0300
0001
0020
0000
0000
0000
0000
0000
0000
0000
,
1130
0100
0010
0011
0001
1000
1001
1000
,
1010
0010
0100
0101
0001
1000
1001
0001
,
0101
0100
0010
1010
1000
0001
1001
0001
,
0011
0010
0100
1100
1000
0001
1001
1000
,
1010
0010
0100
0101
0001
1000
1001
1000
,
1100
0100
0010
0011
0001
1000
1001
0001
,
0011
0010
0100
1100
1000
0001
1001
0001
,
0011
0010
0100
1100
1000
0001
0101
0000
,
1010
0010
0100
0101
0001
1000
1001
1000
,
1100
0100
0010
0011
0001
1000
1001
0001
,
0011
0010
0100
1100
1000
0001
1001
0001
,
0101
0100
0010
1010
1000
0001
1001
1000
,
1100
0100
0010
0011
0001
1000
1001
1000
,
1010
0010
0100
0101
0001
1000
1010
0010
,
1001
1000
0100
0100
0100
1000
0001
0001
,
1000
0100
1000
0001
0010
0100
0010
0001
0100
0000
0100
0000
0100
0000
0100
0000
,
0010
1000
0010
1000
0001
0010
0001
0010
0100
1000
0001
1000
0100
1000
0001
0010
,
0001
0010
0100
1000
0100
1000
0010
0100
0001
0010
0100
0010
0001
0010
0100
0010
,
0001
0100
0001
0100
0010
1000
0010
1000
0100
0010
0001
0010
0100
0010
0001
1000
,
0001
1000
0100
0010
0100
0010
0001
0100
0010
1000
0001
1000
0100
0010
0001
0010
,
0100
1000
0100
1000
0001
0100
0001
0100
0010
1000
0001
1000
0010
1000
0001
0100
,
0001
0100
0010
1000
0010
1000
0100
0010
0001
0100
0010
0100
0001
0100
0010
1000
,
0001
0100
0002
0000
1003
0100
1000
0001
0010
0100
1000
0001
0100
0000
0020
0000
,
0000
0230
0000
0310
2000
0001
0001
3000
,
1000
0001
0010
0001
1000
0010
1000
0010
0100
0001
1000
0001
0100
0001
1000
0010
,
1000
0010
0100
0001
0100
0001
0010
0100
1000
0010
0100
0010
1000
0010
0100
0010
,
1000
0100
1000
0100
0010
0001
0010
0001
0100
0010
1000
0010
0100
0010
1000
0001
,
1000
0001
0100
0010
0100
0010
1000
0100
0010
0001
1000
0001
0100
0010
1000
0010
,
0100
0001
0100
0001
1000
0100
1000
0100
0010
0001
1000
0001
0010
0001
1000
0100
,
1000
0100
0010
0001
0010
0001
0100
0010
1000
0100
0010
0100
1000
0100
0010
0001
,
0100
0010
1010
0000
0000
0001
0101
0000
,
1000
1100
0100
0100
0110
0100
1100
1000
,
10M2
00M0
00M0
00M0
00M0
00M0
01M0
00M0
00M0
00M0
00M0
00M0
10M0
00M0
00M0
00M0
00M0
00M0
01M0
00M0
00M0
00M0
00M0
00M0
,
10M0
00M0
00M0
00M0
00M0
00M0
01M0
00M0
00M0
00M3
0000
0000
0001
0000
0000
1000
0000
0000
0010
0000
0000
1000
0000
0000
,
2M10
0M00
0M00
0M00
0M00
0M00
0M01
0M00
0M00
0M00
0M00
0M00
0M10
0M00
0M00
0M00
0M00
0M00
0M01
0M00
0M00
0M00
0M00
0M00
,
0M10
0M00
0M00
0M00
0M00
0M00
0M01
0M00
0M00
3M00
0000
0000
1000
0000
0000
0100
0000
0000
0100
0000
0000
0010
0000
0000
,
0M12
0M00
0M00
0M00
0M00
0M00
1M00
0M00
0M00
0M00
0M00
0M00
0M10
0M00
0M00
0M00
0M00
0M00
1M00
0M00
0M00
0M00
0M00
0M00
,
0M10
0M00
0M00
0M00
0M00
0M00
1M00
0M00
0M00
0M03
0000
0000
0001
0000
0000
0100
0000
0000
0001
0000
0000
0100
0000
0000
,
0102
0000
0000
0000
1003
0100
1000
0001
0010
0100
1000
0001
0100
0000
0020
0000
,
0000
0230
0000
0310
2000
0010
0010
3001
,
1M02
0M00
0M00
0M00
0M00
0M00
0M10
0M00
0M00
0M00
0M00
0M00
1M00
0M00
0M00
0M00
0M00
0M00
0M10
0M00
0M00
0M00
0M00
0M00
,
1M00
0M00
0M00
0M00
0M00
0M00
0M10
0M00
0M00
0M03
0000
0000
0001
0000
0000
1000
0000
0000
0010
0000
0000
1000
0000
0000
,
2M10
0M00
0M00
0M00
0M00
0M00
0M01
0M00
0M00
0M00
0M00
0M00
0M10
0M00
0M00
0M00
0M00
0M00
0M01
0M00
0M00
0M00
0M00
0M00
,
0M10
0M00
0M00
0M00
0M00
0M00
0M01
0M00
0M00
3M00
0000
0000
1000
0000
0000
0010
0000
0000
0010
0000
0000
0100
0000
0000
,
01M2
00M0
00M0
00M0
00M0
00M0
10M0
00M0
00M0
00M0
00M0
00M0
01M0
00M0
00M0
00M0
00M0
00M0
10M0
00M0
00M0
00M0
00M0
00M0
,
01M0
00M0
00M0
00M0
00M0
00M0
10M0
00M0
00M0
00M3
0000
0000
1000
0000
0000
0100
0000
0000
1000
0000
0000
0100
0000
0000
,
21M0
00M0
00M0
00M0
00M0
00M0
00M1
00M0
00M0
00M0
00M0
00M0
01M0
00M0
00M0
00M0
00M0
00M0
00M1
00M0
00M0
30M0
0000
0000
,
1000
1100
0100
0100
0110
0100
1100
1000
,
0100
0010
0001
1000
0010
0100
0001
1000
0100
1000
0010
1000
0100
0010
0001
1000
,
0010
0100
0001
1000
0100
0010
0001
1000
0010
1000
0100
1000
0010
0100
0001
1000
,
0100
0010
0001
1000
0010
1000
0001
0100
0010
1000
0100
1000
0010
0100
0001
1000
,
0010
0100
0001
1000
0100
1000
0001
0010
0100
1000
0010
1000
0100
0010
0001
1000
,
0100
0010
0001
1000
0010
0100
0001
1000
0100
1000
0010
1000
0100
0010
0001
1000
,
0010
0100
0001
1000
0100
0010
0001
1000
0010
1000
0100
1000
0010
0100
0001
1000
,
0100
0010
0001
1000
0010
1000
0001
0100
0010
1000
0100
1000
0010
0100
0001
1000
,
0010
0100
0001
1000
0100
1000
0001
0010
0100
1000
0010
1000
0100
0010
0001
1000
,
0100
0010
0001
1000
0010
0100
0001
1000
0100
1000
0010
1000
0100
0010
0001
1000
,
0010
0100
0001
1000
0100
0010
0001
1000
0010
1000
0100
1000
0010
0100
0001
1000
,
0100
0010
0001
1000
0010
1000
0001
0100
0010
1000
0100
1000
0010
0100
0001
1000
,
0010
0100
0001
1000
0100
1000
0001
0010
0100
1000
0010
1000
0100
0010
0001
1000
,
0100
0010
0001
1000
0010
0100
0001
1000
0100
1000
0010
1000
0100
0010
0001
1000
,
0010
0100
0001
1000
0100
0010
0001
1000
0010
1000
0100
1000
0010
0100
0001
1000
,
0100
0010
0001
1000
0010
1000
0001
0100
0010
1000
0100
1000
0010
0100
0001
1000
,
0020
0100
0100
0100
0100
0100
0100
0130
,
0010
1000
0010
1000
0001
0010
0001
0010
0100
1000
0001
1000
0100
1000
0001
0010
,
0001
0010
0100
1000
0100
1000
0010
0100
0001
0010
0100
0010
0001
0010
0100
0010
,
0001
0100
0001
0100
0010
1000
0010
1000
0100
0010
0001
0010
0100
0010
0001
1000
,
0001
1000
0100
0010
0100
0010
0001
0100
0010
1000
0001
1000
0100
0010
0001
0010
,
0100
1000
0100
1000
0001
0100
0001
0100
0010
1000
0001
1000
0010
1000
0001
0100
,
0001
0100
0010
1000
0010
1000
0100
0010
0001
0100
0010
0100
0001
0100
0010
1000
,
0001
0100
0002
0000
1003
0100
1000
0001
0010
0100
1000
0001
0100
0000
0020
0000
,
0000
0230
0000
0310
2000
0001
0001
3000
,
1000
0001
0010
0001
1000
0010
1000
0010
0100
0001
1000
0001
0100
0001
1000
0010
,
1000
0010
0100
0001
0100
0001
0010
0100
1000
0010
0100
0010
1000
0010
0100
0010
,
1000
0100
1000
0100
0010
0001
0010
0001
0100
0010
1000
0010
0100
0010
1000
0001
,
1000
0001
0100
0010
0100
0010
1000
0100
0010
0001
1000
0001
0100
0010
1000
0010
,
0100
0001
0100
0001
1000
0100
1000
0100
0010
0001
1000
0001
0010
0001
1000
0100
,
1000
0100
0010
0001
0010
0001
0100
0010
1000
0100
0010
0100
1000
0100
0010
0001
,
0100
0010
1010
0000
0000
0001
0101
0000
,
1000
1100
0100
0100
0110
0100
1100
1000
,
20M1
00M0
00M0
00M0
00M0
00M0
01M0
00M0
00M0
00M0
00M0
00M0
00M1
00M0
00M0
00M0
00M0
00M0
01M0
00M0
00M0
00M0
00M0
00M0
,
00M1
00M0
00M0
00M0
00M0
00M0
01M0
00M0
00M0
30M0
0000
0000
1000
0000
0000
0001
0000
0000
0010
0000
0000
0001
0000
0000
,
0M12
0M00
0M00
0M00
0M00
0M00
1M00
0M00
0M00
0M00
0M00
0M00
0M10
0M00
0M00
0M00
0M00
0M00
1M00
0M00
0M00
0M00
0M00
0M00
,
0M10
0M00
0M00
0M00
0M00
0M00
1M00
0M00
0M00
0M03
0000
0000
0001
0000
0000
0100
0000
0000
0100
0000
0000
0010
0000
0000
,
2M10
0M00
0M00
0M00
0M00
0M00
0M01
0M00
0M00
0M00
0M00
0M00
0M10
0M00
0M00
0M00
0M00
0M00
0M01
0M00
0M00
0M00
0M00
0M00
,
0M10
0M00
0M00
0M00
0M00
0M00
0M01
0M00
0M00
3M00
0000
0000
1000
0000
0000
0010
0000
0000
1000
0000
0000
0010
0000
0000
,
2010
0000
0000
0000
3001
0010
0001
1000
0100
0010
0001
1000
0010
0000
0200
0000
,
0000
0320
0000
0130
0002
0100
0100
1003
,
2M01
0M00
0M00
0M00
0M00
0M00
0M10
0M00
0M00
0M00
0M00
0M00
0M01
0M00
0M00
0M00
0M00
0M00
0M10
0M00
0M00
0M00
0M00
0M00
,
0M01
0M00
0M00
0M00
0M00
0M00
0M10
0M00
0M00
3M00
0000
0000
1000
0000
0000
0001
0000
0000
0010
0000
0000
0001
0000
0000
,
0M12
0M00
0M00
0M00
0M00
0M00
1M00
0M00
0M00
0M00
0M00
0M00
0M10
0M00
0M00
0M00
0M00
0M00
1M00
0M00
0M00
0M00
0M00
0M00
,
0M10
0M00
0M00
0M00
0M00
0M00
1M00
0M00
0M00
0M03
0000
0000
0001
0000
0000
0010
0000
0000
0010
0000
0000
0100
0000
0000
,
21M0
00M0
00M0
00M0
00M0
00M0
00M1
00M0
00M0
00M0
00M0
00M0
01M0
00M0
00M0
00M0
00M0
00M0
00M1
00M0
00M0
00M0
00M0
00M0
,
01M0
00M0
00M0
00M0
00M0
00M0
00M1
00M0
00M0
30M0
0000
0000
0001
0000
0000
0100
0000
0000
0001
0000
0000
0100
0000
0000
,
01M2
00M0
00M0
00M0
00M0
00M0
10M0
00M0
00M0
00M0
00M0
00M0
01M0
00M0
00M0
00M0
00M0
00M0
10M0
00M0
00M0
00M3
0000
0000
,
0001
0101
0100
0100
0110
0100
0101
0001
,
0100
0010
0100
0001
1000
0001
0100
0001
0010
0001
0100
0010
1000
0010
0100
0001
,
0010
0100
1000
0100
0010
0001
0010
0001
0100
0010
1000
0001
1000
0010
1000
0001
,
0010
0100
0010
0001
1000
0001
0010
0001
0100
0001
0010
0100
1000
0100
0010
0001
,
0100
0010
1000
0010
0100
0001
0100
0001
0010
0100
1000
0100
0010
0001
0010
0001
,
0100
0010
1000
0001
1000
0001
0010
0001
0100
0001
0010
0100
1000
0100
0010
0001
,
0100
0010
1000
0010
0100
0001
0100
0001
0010
0100
1000
0001
1000
0100
1000
0001
,
0100
0010
0100
0001
1000
0001
0100
0001
0010
0001
0100
0010
1000
0010
0100
0001
,
0010
0100
1000
0100
0010
0001
0010
0001
0100
0010
1000
0010
0100
0001
0100
0001
,
0010
0100
1000
0001
1000
0010
0100
0001
0010
0001
0100
0010
1000
0010
0100
0001
,
0010
0100
1000
0100
0010
0001
0010
0001
0100
0010
1000
0001
1000
0001
1000
0001
,
0010
0100
0010
0001
1000
0001
0010
0001
0100
0001
0010
0100
1000
0100
0010
0001
,
0100
0010
1000
0010
0100
0001
0100
0001
0010
0100
1000
0100
0010
0001
0010
0001
,
0100
0010
1000
0001
1000
0100
0010
0001
0100
0001
0010
0100
1000
0100
0010
0001
,
0100
0010
1000
0010
0100
0001
0100
0001
0010
0100
1000
0001
1000
0001
1000
0001
,
0100
0010
0100
0001
1000
0001
0100
0001
0010
0001
0100
0010
1000
0001
0010
0001
,
0200
0000
0000
0300
,
0002
0010
0023
0100
,
0100
0100
0100
0100
,
0230
0000
0000
0000
0000
0000
0000
0000
0000
0000
0000
0000
0000
0000
0000
0000
1000
0000
0000
0000
0000
0000
0000
0000
0000
0000
0000
0000
0000
0000
0000
0000
2300
0000
0000
0000
0000
0000
0000
0000
0000
0000
0000
0000
0000
0000
0000
0000
0010
0000
0000
0000
0000
0000
0000
0000
3020
0000
0000
0000
0000
0000
0000
0030
,
0020
1000
1000
1000
,
1030
0010
0100
0010
1000
0100
0010
0001
1000
0100
0010
0001
1000
0100
0010
0100
1000
0010
0100
0001
1000
0010
0100
0001
,
1000
0010
0100
0001
0010
0100
1000
0100
0010
0100
0010
0001
1000
0100
0010
0001
0100
0010
1000
0010
0100
0010
0100
0001
,
1000
0100
0010
0100
1000
0010
0100
0001
0010
0100
1000
0001
1000
0010
0100
0010
1000
0100
0010
0001
0100
0010
1000
0001
,
0020
0000
0000
0000
0100
0000
0000
0000
0100
0000
0000
0000
0100
0000
0000
0030
,
0011
0010
0100
1100
1000
0001
1001
0001
,
0101
0100
0010
1010
1000
0001
1001
1000
,
1010
0010
0100
0101
0001
1000
1001
1000
,
1100
0100
0010
0011
0001
1000
1001
0001
,
0101
0100
0010
1010
1000
0001
1001
0001
,
0011
0010
0100
1100
1000
0001
1001
1000
,
1100
0100
0010
0011
0001
1000
1001
1000
,
1100
0100
0010
0011
0001
1000
1010
0000
,
0101
0100
0010
1010
1000
0001
1001
0001
,
0011
0010
0100
1100
1000
0001
1001
1000
,
1100
0100
0010
0011
0001
1000
1001
1000
,
1010
0010
0100
0101
0001
1000
1001
0001
,
0011
0010
0100
1100
1000
0001
1001
0001
,
0101
0100
0010
1010
1000
0001
0101
0100
,
1001
0001
0100
0100
0100
0001
1000
1000
,
0001
0100
0001
1000
0010
0100
0010
1000
0100
0000
0100
0000
0100
0000
0100
0000
,
1001
0000
0000
0000
0001
0010
0100
1000
0001
1000
0100
1000
0001
0000
2000
0000
,
0000
3002
0000
2003
3002
1003
0100
0010
,
0021
0031
1000
2100
0000
3002
0000
1003
,
1200
1300
1002
1003
1200
1300
1002
0003
,
1001
0000
0000
0000
1000
0001
0010
0001
1000
0100
0010
0001
1000
0000
0002
0000
,
0000
2003
0000
3002
2003
3001
0100
0010
,
1020
1030
0001
0102
0000
2003
0000
3001
,
0201
0301
2001
3001
0201
0301
2001
3000
,
1001
0000
0000
0000
0001
0100
0010
1000
0001
1000
0010
1000
0001
0000
2000
0000
,
0000
3002
0000
2003
3002
1003
0100
0010
,
0021
0031
1000
2100
0000
3002
0000
1003
,
1200
1300
1002
1003
1200
1300
1002
0003
,
1001
0000
0000
0000
1000
0001
0100
0001
1000
0010
0100
0001
1000
0000
0002
0000
,
0000
2003
0000
3002
2003
3001
0100
0010
,
1020
1030
0001
0102
0000
2003
0000
3001
,
0201
0301
2001
3000
0021
0030
2001
3000
,
1000
0100
1000
0001
1000
0010
1000
0001
0100
0010
0100
0001
1000
0100
0010
0001
,
1000
0010
1000
0001
1000
0100
1000
0001
0010
0100
1000
0001
0010
0001
1000
0001
,
0100
0010
1000
0001
1000
0100
1000
0001
0100
0010
1000
0001
1000
0100
1000
0001
,
0100
0010
1000
0001
1000
0100
1000
0001
0100
0010
1000
0001
1000
0100
1000
0001
,
1000
0001
0010
0001
1000
0001
0100
0001
1000
0100
0010
0100
1000
0001
0010
0100
,
1000
0001
0100
0001
1000
0001
0100
0001
1000
0100
0010
0001
0010
0100
0010
0001
,
1000
0010
0100
0001
1000
0001
0010
0001
1000
0010
0100
0001
1000
0001
0010
0001
,
1000
0010
0100
0001
1000
0001
0010
0001
1000
0010
0100
0001
1000
0001
0010
0001
,
1000
0010
1000
0001
1000
0100
1000
0001
0010
0100
0010
0001
1000
0010
0100
0001
,
1000
0100
1000
0001
1000
0010
1000
0001
0100
0010
1000
0001
0100
0001
1000
0001
,
0010
0100
1000
0001
1000
0010
1000
0001
0010
0100
1000
0001
1000
0010
1000
0001
,
0010
0100
1000
0001
1000
0010
1000
0001
0010
0100
1000
0001
1000
0010
1000
0001
,
1000
0001
0100
0001
1000
0001
0010
0001
1000
0010
0100
0010
1000
0001
0100
0010
,
1000
0001
0010
0001
1000
0001
0010
0001
1000
0010
0100
0001
0100
0010
0100
0001
,
1000
0100
0010
0001
1000
0001
0100
0001
0010
0001
1000
0100
1000
0010
1000
0001
,
0010
0001
0100
0010
1000
0100
1000
0001
0100
0001
0010
0100
1000
0001
1000
0010
,
0100
0001
0100
0001
1000
0100
1000
0100
0010
0001
1000
0001
0010
0001
1000
0100
,
1000
0100
0010
0001
0010
0001
0100
0010
1000
0100
0010
0100
1000
0100
0010
0100
,
1000
0010
1000
0010
0100
0001
0100
0001
0010
0100
1000
0100
0010
0100
1000
0001
,
1000
0001
0010
0100
0010
0100
1000
0010
0100
0001
1000
0001
0010
0100
1000
0100
,
0010
0001
0010
0001
1000
0010
1000
0010
0100
0001
1000
0001
0100
0001
1000
0010
,
1000
0010
0100
0001
0100
0001
0010
0100
1000
0010
0100
0010
1000
0010
0100
0010
,
1000
0100
1000
0100
0010
0001
0010
0001
0100
0010
1000
0010
0100
0010
1000
0001
,
1000
0001
0100
0010
0100
0010
1000
0100
0010
0001
1000
0001
0100
0010
1000
0010
,
0100
0001
0100
0001
1000
0100
1000
0100
0010
0001
1000
0001
0010
0001
1000
0100
,
1000
0100
0010
0001
0010
0001
0100
0010
1000
0100
0010
0100
1000
0100
0010
0100
,
1000
0010
1000
0010
0100
0001
0100
0001
0010
0100
1000
0100
0010
0100
1000
0001
,
1000
0001
0010
0100
0010
0100
1000
0010
0100
0001
1000
0001
0010
0100
1000
0100
,
0010
0001
0010
0001
1000
0010
1000
0010
0100
0001
1000
0001
0100
0001
1000
0010
,
1000
0010
0100
0001
0100
0001
0010
0100
1000
0010
0100
0010
1000
0010
0100
0010
,
1000
0100
1000
0100
0010
0001
0010
0001
0100
0010
1000
0010
0100
0010
1000
0001
,
1000
0001
0100
0010
0100
0010
1000
0100
0010
0001
1000
0010
1000
0100
0010
0001
,
0200
0000
0000
0000
0000
0300
0000
0000
;

//---------------dance-single - I. Pyles----------------
#NOTES:
     dance-single:
     I. Pyles:
     Hard:
     13:
     0.982,1.000,0.129,0.592,1.000,1905.000,40.000,184.000,452.000,0.000:



0000
0000
0000
0000
,
0000
0000
0000
0000
,
0000
0000
0000
0000
,
0000
0000
0000
0000
,
0000
0000
0000
0000
,
0000
0000
0000
0000
,
0000
0000
0000
0000
,
0000
0000
0000
0000
0000
0000
0000
0000
0000
0000
0000
0000
0000
0000
0000
0000
0000
0000
0000
0000
0000
0000
0000
0000
0000
0000
0000
0000
0000
0000
0000
0000
0012
0000
0000
0000
0000
0000
0000
0003
0012
0000
0000
0000
0000
0000
0000
0003
0012
0000
0000
0000
0000
0000
0000
0003
0012
0000
0000
0000
0000
0000
0000
0003
,
2001
0000
0000
0000
0000
0000
0000
0000
3002
0000
0003
1000
0200
0000
2300
0000
,
3002
0000
0000
0000
0000
0000
0003
1000
0020
0000
0000
0000
0000
0000
0000
0000
,
2030
0000
0000
0000
0000
0000
0000
0000
3200
0000
0000
0000
0000
0000
0310
0001
,
2000
0000
3000
0100
0020
0000
0030
0001
2000
0000
3010
0100
0002
0000
0023
0000
,
0230
0000
0000
0000
0000
0000
0000
0000
2300
0000
3000
0001
0020
0000
0230
0000
,
2300
0000
0000
0000
0000
0000
3000
0010
0200
0000
0000
0000
0000
0000
0000
0000
,
0302
0000
0000
0000
0000
0000
0000
0000
0203
0000
0000
0000
0000
0000
0310
1000
,
0002
0000
0003
1000
0020
0000
0030
1000
0200
0000
0000
0000
0000
0000
0000
0000
,
1300
0100
0100
1000
0100
0100
0010
0100
,
1000
0001
0001
1000
0001
0001
0100
0001
,
1000
0010
0010
1000
0010
0010
0100
0001
,
0010
0100
0100
0010
0100
0100
1000
0001
,
1000
0100
0100
1000
0100
0100
0010
0100
,
1000
0001
0001
1000
0001
0001
0100
0001
,
1000
0010
0010
1000
0010
0010
0100
0001
,
1000
0010
0010
1000
0010
0010
0100
0000
,
0001
0010
0010
0001
0010
0010
0100
0010
,
0001
1000
1000
0001
1000
1000
0010
1000
,
0001
0100
0100
0001
0100
0100
0010
1000
,
0100
0010
0010
0100
0010
0010
0001
1000
,
0001
0010
0010
0001
0010
0010
0100
0010
,
0001
1000
1000
0001
1000
1000
0010
1000
,
0001
1000
0100
0100
0100
1000
0001
0001
,
1000
0100
1000
0001
0010
0100
0010
0001
0100
0000
0100
0000
0100
0000
0100
0000
,
0020
0000
1000
0030
0002
0000
1000
0003
0020
0000
0100
0000
0130
0000
0002
0000
,
1000
0003
0020
0000
1000
0030
0200
0000
0040
0000
0000
0000
0330
0000
0000
0000
,
0200
0000
1000
0300
0002
0000
1000
0003
0200
0000
0010
0000
0310
0000
0002
0000
,
1000
0003
0200
0000
1000
0300
0002
0000
0400
0000
0003
0000
0310
0000
0000
0000
,
0020
0000
1000
0030
0002
0000
1000
0003
0020
0000
0100
0000
0130
0000
0002
0000
,
1000
0003
0020
0000
1000
0030
0200
0000
0040
0000
0000
0000
0330
0000
0000
0000
,
0001
0100
0002
0000
1003
0100
1000
0001
0010
0100
1000
0001
0100
0000
0020
0000
,
0000
0230
0000
0310
2000
0001
0001
3000
,
0200
0000
0001
0300
2000
0000
0001
3000
0200
0000
0010
0000
0310
0000
2000
0000
,
0001
3000
0200
0000
0001
0300
0020
0000
0400
0000
0000
0000
0330
0000
0000
0000
,
0020
0000
0001
0030
2000
0000
0001
3000
0020
0000
0100
0000
0130
0000
2000
0000
,
0001
3000
0020
0000
0001
0030
2000
0000
0040
0000
3000
0000
0130
0000
0000
0000
,
0200
0000
0001
0300
2000
0000
0001
3000
0200
0000
0010
0000
0310
0000
2000
0000
,
0001
3000
0200
0000
0001
0300
0020
0000
0400
0000
0000
0000
0330
0000
0000
0000
,
1000
0001
0100
0000
0000
0001
0100
0000
,
1000
0100
0010
0010
0100
1000
0001
1000
,
10M2
00M0
00M0
00M0
00M0
00M0
01M0
00M0
00M0
00M0
00M0
00M0
10M0
00M0
00M0
00M0
00M0
00M0
01M0
00M0
00M0
00M0
00M0
00M0
,
10M0
00M0
00M0
00M0
00M0
00M0
01M0
00M0
00M0
00M3
0000
0000
0001
0000
0000
1000
0000
0000
0010
0000
0000
1000
0000
0000
,
2M10
0M00
0M00
0M00
0M00
0M00
0M01
0M00
0M00
0M00
0M00
0M00
0M10
0M00
0M00
0M00
0M00
0M00
0M01
0M00
0M00
0M00
0M00
0M00
,
0M10
0M00
0M00
0M00
0M00
0M00
0M01
0M00
0M00
3M00
0000
0000
1000
0000
0000
0100
0000
0000
0100
0000
0000
0010
0000
0000
,
0M12
0M00
0M00
0M00
0M00
0M00
1M00
0M00
0M00
0M00
0M00
0M00
0M10
0M00
0M00
0M00
0M00
0M00
1M00
0M00
0M00
0M00
0M00
0M00
,
0M10
0M00
0M00
0M00
0M00
0M00
1M00
0M00
0M00
0M03
0000
0000
0001
0000
0000
0100
0000
0000
0001
0000
0000
0100
0000
0000
,
0102
0000
0000
0000
1003
0100
1000
0001
0010
0100
1000
0001
0100
0000
0020
0000
,
0000
0230
0000
0310
2000
0010
0010
3001
,
1M02
0M00
0M00
0M00
0M00
0M00
0M10
0M00
0M00
0M00
0M00
0M00
1M00
0M00
0M00
0M00
0M00
0M00
0M10
0M00
0M00
0M00
0M00
0M00
,
1M00
0M00
0M00
0M00
0M00
0M00
0M10
0M00
0M00
0M03
0000
0000
0001
0000
0000
1000
0000
0000
0010
0000
0000
1000
0000
0000
,
2M10
0M00
0M00
0M00
0M00
0M00
0M01
0M00
0M00
0M00
0M00
0M00
0M10
0M00
0M00
0M00
0M00
0M00
0M01
0M00
0M00
0M00
0M00
0M00
,
0M10
0M00
0M00
0M00
0M00
0M00
0M01
0M00
0M00
3M00
0000
0000
1000
0000
0000
0010
0000
0000
0010
0000
0000
0100
0000
0000
,
01M2
00M0
00M0
00M0
00M0
00M0
10M0
00M0
00M0
00M0
00M0
00M0
01M0
00M0
00M0
00M0
00M0
00M0
10M0
00M0
00M0
00M0
00M0
00M0
,
01M0
00M0
00M0
00M0
00M0
00M0
10M0
00M0
00M0
00M3
0000
0000
1000
0000
0000
0100
0000
0000
1000
0000
0000
0100
0000
0000
,
21M0
00M0
00M0
00M0
00M0
00M0
00M1
00M0
00M0
00M0
00M0
00M0
01M0
00M0
00M0
00M0
00M0
00M0
00M1
00M0
00M0
30M0
0000
0000
,
1000
0100
0010
0010
0100
1000
0001
1000
,
0100
0010
0001
1000
0010
0100
0001
1000
0100
1000
0010
1000
0100
0010
0001
1000
,
0010
0100
0001
1000
0100
0010
0001
1000
0010
1000
0100
1000
0010
0100
0001
1000
,
0100
0010
0001
1000
0010
1000
0001
0100
0010
1000
0100
1000
0010
0100
0001
1000
,
0010
0100
0001
1000
0100
1000
0001
0010
0100
1000
0010
1000
0100
0010
0001
1000
,
0100
0010
0001
1000
0010
0100
0001
1000
0100
1000
0010
1000
0100
0010
0001
1000
,
0010
0100
0001
1000
0100
0010
0001
1000
0010
1000
0100
1000
0010
0100
0001
1000
,
0100
0010
0001
1000
0010
1000
0001
0100
0010
1000
0100
1000
0010
0100
0001
1000
,
0010
0100
0001
1000
0100
1000
0001
0010
0100
1000
0010
1000
0100
0010
0001
1000
,
0100
0010
0001
1000
0010
0100
0001
1000
0100
1000
0010
1000
0100
0010
0001
1000
,
0010
0100
0001
1000
0100
0010
0001
1000
0010
1000
0100
1000
0010
0100
0001
1000
,
0100
0010
0001
1000
0010
1000
0001
0100
0010
1000
0100
1000
0010
0100
0001
1000
,
0010
0100
0001
1000
0100
1000
0001
0010
0100
1000
0010
1000
0100
0010
0001
1000
,
0100
0010
0001
1000
0010
0100
0001
1000
0100
1000
0010
1000
0100
0010
0001
1000
,
0010
0100
0001
1000
0100
0010
0001
1000
0010
1000
0100
1000
0010
0100
0001
1000
,
0100
0010
0001
1000
0010
1000
0001
0100
0010
1000
0100
1000
0010
0100
0001
1000
,
0020
0100
0100
0100
0100
0100
0100
0130
,
0020
0000
1000
0030
0002
0000
1000
0003
0020
0000
0100
0000
0130
0000
0002
0000
,
1000
0003
0020
0000
1000
0030
0200
0000
0040
0000
0000
0000
0330
0000
0000
0000
,
0200
0000
1000
0300
0002
0000
1000
0003
0200
0000
0010
0000
0310
0000
0002
0000
,
1000
0003
0200
0000
1000
0300
0002
0000
0400
0000
0003
0000
0310
0000
0000
0000
,
0020
0000
1000
0030
0002
0000
1000
0003
0020
0000
0100
0000
0130
0000
0002
0000
,
1000
0003
0020
0000
1000
0030
0200
0000
0040
0000
0000
0000
0330
0000
0000
0000
,
0001
0100
0002
0000
1003
0100
1000
0001
0010
0100
1000
0001
0100
0000
0020
0000
,
0000
0230
0000
0310
2000
0001
0001
3000
,
0200
0000
0001
0300
2000
0000
0001
3000
0200
0000
0010
0000
0310
0000
2000
0000
,
0001
3000
0200
0000
0001
0300
0020
0000
0400
0000
0000
0000
0330
0000
0000
0000
,
0020
0000
0001
0030
2000
0000
0001
3000
0020
0000
0100
0000
0130
0000
2000
0000
,
0001
3000
0020
0000
0001
0030
2000
0000
0040
0000
3000
0000
0130
0000
0000
0000
,
0200
0000
0001
0300
2000
0000
0001
3000
0200
0000
0010
0000
0310
0000
2000
0000
,
0001
3000
0200
0000
0001
0300
0020
0000
0400
0000
0000
0000
0330
0000
0000
0000
,
1000
0001
0100
0000
0000
0001
0100
0000
,
1000
0100
0010
0010
0100
1000
0001
1000
,
20M1
00M0
00M0
00M0
00M0
00M0
01M0
00M0
00M0
00M0
00M0
00M0
00M1
00M0
00M0
00M0
00M0
00M0
01M0
00M0
00M0
00M0
00M0
00M0
,
00M1
00M0
00M0
00M0
00M0
00M0
01M0
00M0
00M0
30M0
0000
0000
1000
0000
0000
0001
0000
0000
0010
0000
0000
0001
0000
0000
,
0M12
0M00
0M00
0M00
0M00
0M00
1M00
0M00
0M00
0M00
0M00
0M00
0M10
0M00
0M00
0M00
0M00
0M00
1M00
0M00
0M00
0M00
0M00
0M00
,
0M10
0M00
0M00
0M00
0M00
0M00
1M00
0M00
0M00
0M03
0000
0000
0001
0000
0000
0100
0000
0000
0100
0000
0000
0010
0000
0000
,
2M10
0M00
0M00
0M00
0M00
0M00
0M01
0M00
0M00
0M00
0M00
0M00
0M10
0M00
0M00
0M00
0M00
0M00
0M01
0M00
0M00
0M00
0M00
0M00
,
0M10
0M00
0M00
0M00
0M00
0M00
0M01
0M00
0M00
3M00
0000
0000
1000
0000
0000
0010
0000
0000
1000
0000
0000
0010
0000
0000
,
2010
0000
0000
0000
3001
0100
0001
1000
0010
0100
0001
1000
0100
0000
0020
0000
,
0000
0230
0000
0310
0002
0010
0010
1003
,
2M01
0M00
0M00
0M00
0M00
0M00
0M10
0M00
0M00
0M00
0M00
0M00
0M01
0M00
0M00
0M00
0M00
0M00
0M10
0M00
0M00
0M00
0M00
0M00
,
0M01
0M00
0M00
0M00
0M00
0M00
0M10
0M00
0M00
3M00
0000
0000
1000
0000
0000
0001
0000
0000
0010
0000
0000
0001
0000
0000
,
0M12
0M00
0M00
0M00
0M00
0M00
1M00
0M00
0M00
0M00
0M00
0M00
0M10
0M00
0M00
0M00
0M00
0M00
1M00
0M00
0M00
0M00
0M00
0M00
,
0M10
0M00
0M00
0M00
0M00
0M00
1M00
0M00
0M00
0M03
0000
0000
0001
0000
0000
0010
0000
0000
0010
0000
0000
0100
0000
0000
,
21M0
00M0
00M0
00M0
00M0
00M0
00M1
00M0
00M0
00M0
00M0
00M0
01M0
00M0
00M0
00M0
00M0
00M0
00M1
00M0
00M0
00M0
00M0
00M0
,
01M0
00M0
00M0
00M0
00M0
00M0
00M1
00M0
00M0
30M0
0000
0000
0001
0000
0000
0100
0000
0000
0001
0000
0000
0100
0000
0000
,
01M2
00M0
00M0
00M0
00M0
00M0
10M0
00M0
00M0
00M0
00M0
00M0
01M0
00M0
00M0
00M0
00M0
00M0
10M0
00M0
00M0
00M3
0000
0000
,
0001
0100
0010
0010
0100
0001
1000
0001
,
0100
0010
0100
0001
1000
0001
0100
0001
0010
0001
0100
0010
1000
0010
0100
0001
,
0010
0100
1000
0100
0010
0001
0010
0001
0100
0010
1000
0001
1000
0010
1000
0001
,
0010
0100
0010
0001
1000
0001
0010
0001
0100
0001
0010
0100
1000
0100
0010
0001
,
0100
0010
1000
0010
0100
0001
0100
0001
0010
0100
1000
0100
0010
0001
0010
0001
,
0100
0010
1000
0001
1000
0001
0010
0001
0100
0001
0010
0100
1000
0100
0010
0001
,
0100
0010
1000
0010
0100
0001
0100
0001
0010
0100
1000
0001
1000
0100
1000
0001
,
0100
0010
0100
0001
1000
0001
0100
0001
0010
0001
0100
0010
1000
0010
0100
0001
,
0010
0100
1000
0100
0010
0001
0010
0001
0100
0010
1000
0010
0100
0001
0100
0001
,
0010
0100
1000
0001
1000
0010
0100
0001
0010
0001
0100
0010
1000
0010
0100
0001
,
0010
0100
1000
0100
0010
0001
0010
0001
0100
0010
1000
0001
1000
0001
1000
0001
,
0010
0100
0010
0001
1000
0001
0010
0001
0100
0001
0010
0100
1000
0100
0010
0001
,
0100
0010
1000
0010
0100
0001
0100
0001
0010
0100
1000
0100
0010
0001
0010
0001
,
0100
0010
1000
0001
1000
0100
0010
0001
0100
0001
0010
0100
1000
0100
0010
0001
,
0100
0010
1000
0010
0100
0001
0100
0001
0010
0100
1000
0001
1000
0001
1000
0001
,
0100
0010
0100
0001
1000
0001
0100
0001
0010
0001
0100
0010
1000
0001
0010
0001
,
0200
0000
0000
0300
,
0002
0010
0023
0100
,
0100
0100
0100
0100
,
0230
0000
0000
0000
0000
0000
0000
0000
0000
0000
0000
0000
0000
0000
0000
0000
1000
0000
0000
0000
0000
0000
0000
0000
0000
0000
0000
0000
0000
0000
0000
0000
2300
0000
0000
0000
0000
0000
0000
0000
0000
0000
0000
0000
0000
0000
0000
0000
0010
0000
0000
0000
0000
0000
0000
0000
3020
0000
0000
0000
0000
0000
0000
0030
,
0020
1000
1000
1000
,
1030
0010
0100
0010
1000
0100
0010
0001
1000
0100
0010
0001
1000
0100
0010
0100
1000
0010
0100
0001
1000
0010
0100
0001
,
1000
0010
0100
0001
0010
0100
1000
0100
0010
0100
0010
0001
1000
0100
0010
0001
0100
0010
1000
0010
0100
0010
0100
0001
,
1000
0100
0010
0100
1000
0010
0100
0001
0010
0100
1000
0001
1000
0010
0100
0010
1000
0100
0010
0001
0100
0010
1000
0001
,
0020
0000
0000
0000
0100
0000
0000
0000
0100
0000
0000
0000
0100
0000
0000
0030
,
0001
0010
0010
0001
0010
0010
0100
0010
,
0001
1000
1000
0001
1000
1000
0010
1000
,
0001
0100
0100
0001
0100
0100
0010
1000
,
0100
0010
0010
0100
0010
0010
0001
1000
,
0001
0010
0010
0001
0010
0010
0100
0010
,
0001
1000
1000
0001
1000
1000
0010
1000
,
0001
0100
0100
0001
0100
0100
0010
1000
,
0001
0100
0100
0001
0100
0100
0010
0000
,
1000
0100
0100
1000
0100
0100
0010
0100
,
1000
0001
0001
1000
0001
0001
0100
0001
,
1000
0010
0010
1000
0010
0010
0100
0001
,
0010
0100
0100
0010
0100
0100
1000
0001
,
1000
0100
0100
1000
0100
0100
0010
0100
,
1000
0001
0001
1000
0001
0001
0100
0001
,
1000
0001
0010
0010
0010
0001
1000
1000
,
0001
0100
0001
1000
0010
0100
0010
1000
0100
0000
0100
0000
0100
0000
0100
0000
,
1001
0000
0000
0000
0001
0010
0100
1000
0001
1000
0100
1000
0001
0000
2000
0000
,
0000
3002
0000
2003
3002
1003
0100
0010
,
0021
0031
1000
2100
0000
3002
0000
1003
,
0200
1300
0002
1003
0200
1300
0002
0003
,
1001
0000
0000
0000
1000
0001
0010
0001
1000
0100
0010
0001
1000
0000
0002
0000
,
0000
2003
0000
3002
2003
3001
0100
0010
,
1020
1030
0001
0102
0000
2003
0000
3001
,
0200
0301
2000
3001
0200
0301
2000
3000
,
1001
0000
0000
0000
0001
0100
0010
1000
0001
1000
0010
1000
0001
0000
2000
0000
,
0000
3002
0000
2003
3002
1003
0100
0010
,
0021
0031
1000
2100
0000
3002
0000
1003
,
0200
1300
0002
1003
0200
1300
0002
0003
,
1001
0000
0000
0000
1000
0001
0100
0001
1000
0010
0100
0001
1000
0000
0002
0000
,
0000
2003
0000
3002
2003
3001
0100
0010
,
1020
1030
0001
0102
0000
2003
0000
3001
,
0200
0301
2001
3000
0021
0030
2001
3000
,
1000
0100
1000
0001
1000
0010
1000
0001
0100
0010
0100
0001
1000
0100
0010
0001
,
1000
0010
1000
0001
1000
0100
1000
0001
0010
0100
1000
0001
0010
0001
1000
0001
,
0100
0010
1000
0001
1000
0100
1000
0001
0100
0010
1000
0001
1000
0100
1000
0001
,
0100
0010
1000
0001
1000
0100
1000
0001
0100
0010
1000
0001
1000
0100
1000
0001
,
1000
0001
0010
0001
1000
0001
0100
0001
1000
0100
0010
0100
1000
0001
0010
0100
,
1000
0001
0100
0001
1000
0001
0100
0001
1000
0100
0010
0001
0010
0100
0010
0001
,
1000
0010
0100
0001
1000
0001
0010
0001
1000
0010
0100
0001
1000
0001
0010
0001
,
1000
0010
0100
0001
1000
0001
0010
0001
1000
0010
0100
0001
1000
0001
0010
0001
,
1000
0010
1000
0001
1000
0100
1000
0001
0010
0100
0010
0001
1000
0010
0100
0001
,
1000
0100
1000
0001
1000
0010
1000
0001
0100
0010
1000
0001
0100
0001
1000
0001
,
0010
0100
1000
0001
1000
0010
1000
0001
0010
0100
1000
0001
1000
0010
1000
0001
,
0010
0100
1000
0001
1000
0010
1000
0001
0010
0100
1000
0001
1000
0010
1000
0001
,
1000
0001
0100
0001
1000
0001
0010
0001
1000
0010
0100
0010
1000
0001
0100
0010
,
1000
0001
0010
0001
1000
0001
0010
0001
1000
0010
0100
0001
0100
0010
0100
0001
,
1000
0100
0010
0001
1000
0001
0100
0001
0010
0001
1000
0100
1000
0010
1000
0001
,
0010
0001
0100
0010
1000
0100
1000
0001
0100
0001
0010
0100
1000
0001
1000
0010
,
0100
0001
0100
0001
1000
0100
1000
0100
0010
0001
1000
0001
0010
0001
1000
0100
,
1000
0100
0010
0001
0010
0001
0100
0010
1000
0100
0010
0100
1000
0100
0010
0100
,
1000
0010
1000
0010
0100
0001
0100
0001
0010
0100
1000
0100
0010
0100
1000
0001
,
1000
0001
0010
0100
0010
0100
1000
0010
0100
0001
1000
0001
0010
0100
1000
0100
,
0010
0001
0010
0001
1000
0010
1000
0010
0100
0001
1000
0001
0100
0001
1000
0010
,
1000
0010
0100
0001
0100
0001
0010
0100
1000
0010
0100
0010
1000
0010
0100
0010
,
1000
0100
1000
0100
0010
0001
0010
0001
0100
0010
1000
0010
0100
0010
1000
0001
,
1000
0001
0100
0010
0100
0010
1000
0100
0010
0001
1000
0001
0100
0010
1000
0010
,
0100
0001
0100
0001
1000
0100
1000
0100
0010
0001
1000
0001
0010
0001
1000
0100
,
1000
0100
0010
0001
0010
0001
0100
0010
1000
0100
0010
0100
1000
0100
0010
0100
,
1000
0010
1000
0010
0100
0001
0100
0001
0010
0100
1000
0100
0010
0100
1000
0001
,
1000
0001
0010
0100
0010
0100
1000
0010
0100
0001
1000
0001
0010
0100
1000
0100
,
0010
0001
0010
0001
1000
0010
1000
0010
0100
0001
1000
0001
0100
0001
1000
0010
,
1000
0010
0100
0001
0100
0001
0010
0100
1000
0010
0100
0010
1000
0010
0100
0010
,
1000
0100
1000
0100
0010
0001
0010
0001
0100
0010
1000
0010
0100
0010
1000
0001
,
1000
0001
0100
0010
0100
0010
1000
0100
0010
0001
1000
0010
1000
0100
0010
0001
,
0200
0000
0000
0000
0000
0300
0000
0000
;

//---------------dance-single - I. Pyles----------------
#NOTES:
     dance-single:
     I. Pyles:
     Medium:
     10:
     0.720,1.000,0.125,0.868,0.613,1246.000,39.000,270.000,452.000,0.000:







0000
0000
0000
0000
,
0000
0000
0000
0000
,
0000
0000
0000
0000
,
0000
0000
0000
0000
,
0000
0000
0000
0000
,
0000
0000
0000
0000
,
0000
0000
0000
0000
,
0000
0000
0000
0000
0000
0000
0000
0000
0000
0000
0000
0000
0000
0000
0000
0000
0000
0000
0000
0000
0000
0000
0000
0000
0000
0000
0000
0000
0000
0000
0000
0000
0012
0000
0000
0000
0000
0000
0000
0003
0012
0000
0000
0000
0000
0000
0000
0003
0012
0000
0000
0000
0000
0000
0000
0003
0012
0000
0000
0000
0000
0000
0000
0003
,
2001
0000
0000
0000
0000
0000
0000
0000
3002
0000
0003
1000
0200
0000
2300
0000
,
3002
0000
0000
0000
0000
0000
0003
1000
0020
0000
0000
0000
0000
0000
0000
0000
,
2030
0000
0000
0000
0000
0000
0000
0000
3200
0000
0000
0000
0000
0000
0310
0001
,
2000
0000
3000
0100
0020
0000
0030
0001
2000
0000
3010
0100
0002
0000
0023
0000
,
0230
0000
0000
0000
0000
0000
0000
0000
2300
0000
3000
0001
0020
0000
0230
0000
,
2300
0000
0000
0000
0000
0000
3000
0010
0200
0000
0000
0000
0000
0000
0000
0000
,
0302
0000
0000
0000
0000
0000
0000
0000
0203
0000
0000
0000
0000
0000
0310
1000
,
0002
0000
0003
1000
0020
0000
0030
1000
0200
0000
0000
0000
0000
0000
0000
0000
,
1300
0100
0100
1000
0100
0100
0010
0100
,
1000
0001
0001
1000
0001
0001
0100
0001
,
1000
0010
0010
1000
0010
0010
0100
0001
,
0010
0100
0100
0010
0100
0100
1000
0001
,
1000
0100
0100
1000
0100
0100
0010
0100
,
1000
0001
0001
1000
0001
0001
0100
0001
,
1000
0010
0010
1000
0010
0010
0100
0001
,
1000
0010
0010
1000
0010
0010
0100
0000
,
0001
0010
0010
0001
0010
0010
0100
0010
,
0001
1000
1000
0001
1000
1000
0010
1000
,
0001
0100
0100
0001
0100
0100
0010
1000
,
0100
0010
0010
0100
0010
0010
0001
1000
,
0001
0010
0010
0001
0010
0010
0100
0010
,
0001
1000
1000
0001
1000
1000
0010
1000
,
0001
1000
0100
0100
0100
1000
0001
0001
,
1000
0001
1000
0001
1000
0001
1000
0001
0100
0000
0010
0000
0010
0000
0100
0000
,
0020
0000
1000
0030
0002
0000
1000
0003
0020
0000
0000
0000
0030
0000
2000
0000
,
0001
3000
0200
0000
0001
0300
0020
0000
0400
0000
0000
0000
0330
0000
0000
0000
,
0200
0000
1000
0300
0002
0000
1000
0003
0200
0000
0000
0000
0300
0000
2000
0000
,
0001
3000
0020
0000
0001
0030
2000
0000
0040
0000
3000
0000
0130
0000
0000
0000
,
0020
0000
1000
0030
0002
0000
1000
0003
0020
0000
0000
0000
0030
0000
2000
0000
,
0001
3000
0200
0000
0001
0300
0020
0000
0400
0000
0000
0000
0330
0000
0000
0000
,
1000
0010
1000
0000
0001
0010
0001
0000
1000
0000
0010
0000
0100
0000
0200
0000
,
0000
0320
0000
0130
0002
1000
1000
0003
,
0020
0000
1000
0030
0002
0000
1000
0003
0020
0000
0000
0000
0030
0000
2000
0000
,
0001
3000
0200
0000
0001
0300
0020
0000
0400
0000
0000
0000
0330
0000
0000
0000
,
0200
0000
1000
0300
0002
0000
1000
0003
0200
0000
0000
0000
0300
0000
2000
0000
,
0001
3000
0020
0000
0001
0030
2000
0000
0040
0000
3000
0000
0130
0000
0000
0000
,
0020
0000
1000
0030
0002
0000
1000
0003
0020
0000
0000
0000
0030
0000
2000
0000
,
0001
3000
0200
0000
0001
0300
0020
0000
0400
0000
0000
0000
0330
0000
0000
0000
,
1000
0001
0100
0000
0000
0001
0100
0000
,
1000
0100
0010
0010
0100
1000
0001
1000
,
10M2
00M0
00M0
00M0
00M0
00M0
01M0
00M0
00M0
00M0
00M0
00M0
10M0
00M0
00M0
00M0
00M0
00M0
01M0
00M0
00M0
00M0
00M0
00M0
,
10M0
00M0
00M0
00M0
00M0
00M0
01M0
00M0
00M0
00M3
0000
0000
0001
0000
0000
1000
0000
0000
0010
0000
0000
1000
0000
0000
,
2M10
0M00
0M00
0M00
0M00
0M00
0M01
0M00
0M00
0M00
0M00
0M00
0M10
0M00
0M00
0M00
0M00
0M00
0M01
0M00
0M00
0M00
0M00
0M00
,
0M10
0M00
0M00
0M00
0M00
0M00
0M01
0M00
0M00
3M00
0000
0000
1000
0000
0000
0100
0000
0000
0100
0000
0000
0010
0000
0000
,
0M12
0M00
0M00
0M00
0M00
0M00
1M00
0M00
0M00
0M00
0M00
0M00
0M10
0M00
0M00
0M00
0M00
0M00
1M00
0M00
0M00
0M00
0M00
0M00
,
0M10
0M00
0M00
0M00
0M00
0M00
1M00
0M00
0M00
0M03
0000
0000
0001
0000
0000
0100
0000
0000
0001
0000
0000
0100
0000
0000
,
0102
0000
0000
0000
1003
0100
1000
0000
0001
0000
0100
0000
0010
0000
0020
0000
,
0000
0230
0000
0310
2000
0010
0010
3001
,
1M02
0M00
0M00
0M00
0M00
0M00
0M10
0M00
0M00
0M00
0M00
0M00
1M00
0M00
0M00
0M00
0M00
0M00
0M10
0M00
0M00
0M00
0M00
0M00
,
1M00
0M00
0M00
0M00
0M00
0M00
0M10
0M00
0M00
0M03
0000
0000
0001
0000
0000
1000
0000
0000
0010
0000
0000
1000
0000
0000
,
2M10
0M00
0M00
0M00
0M00
0M00
0M01
0M00
0M00
0M00
0M00
0M00
0M10
0M00
0M00
0M00
0M00
0M00
0M01
0M00
0M00
0M00
0M00
0M00
,
0M10
0M00
0M00
0M00
0M00
0M00
0M01
0M00
0M00
3M00
0000
0000
1000
0000
0000
0010
0000
0000
0010
0000
0000
0100
0000
0000
,
01M2
00M0
00M0
00M0
00M0
00M0
10M0
00M0
00M0
00M0
00M0
00M0
01M0
00M0
00M0
00M0
00M0
00M0
10M0
00M0
00M0
00M0
00M0
00M0
,
01M0
00M0
00M0
00M0
00M0
00M0
10M0
00M0
00M0
00M3
0000
0000
1000
0000
0000
0100
0000
0000
1000
0000
0000
0100
0000
0000
,
21M0
00M0
00M0
00M0
00M0
00M0
00M1
00M0
00M0
00M0
00M0
00M0
01M0
00M0
00M0
00M0
00M0
00M0
00M1
00M0
00M0
30M0
0000
0000
,
1000
0100
0010
0010
0100
1000
0001
1000
,
0001
0010
0100
1000
0001
0010
0100
1000
,
0001
0100
0010
1000
0001
0100
0010
1000
,
0001
0010
0001
1000
0001
0010
0001
1000
,
0200
0000
0000
0000
1000
1000
1000
0300
,
0001
0100
0010
1000
0001
0100
0010
1000
,
0001
0010
0100
1000
0001
0010
0100
1000
,
0001
0100
0001
1000
0001
0100
0001
1000
,
0020
0000
0000
0000
0100
0100
0100
0030
,
0001
0010
0100
1000
0001
0010
0100
1000
,
0001
0100
0010
1000
0001
0100
0010
1000
,
0001
0010
0001
1000
0001
0010
0001
1000
,
0200
0000
0000
0000
1000
1000
1000
0300
,
0001
0100
0010
1000
0001
0100
0010
1000
,
0001
0010
0100
1000
0001
0010
0100
1000
,
0001
0100
0001
1000
0001
0100
0001
1000
,
0020
0100
0100
0100
0100
0100
0100
0130
,
0020
0000
1000
0030
0002
0000
1000
0003
0020
0000
0000
0000
0030
0000
2000
0000
,
0001
3000
0200
0000
0001
0300
0020
0000
0400
0000
0000
0000
0330
0000
0000
0000
,
0200
0000
1000
0300
0002
0000
1000
0003
0200
0000
0000
0000
0300
0000
2000
0000
,
0001
3000
0020
0000
0001
0030
2000
0000
0040
0000
3000
0000
0130
0000
0000
0000
,
0020
0000
1000
0030
0002
0000
1000
0003
0020
0000
0000
0000
0030
0000
2000
0000
,
0001
3000
0200
0000
0001
0300
0020
0000
0400
0000
0000
0000
0330
0000
0000
0000
,
1000
0010
1000
0000
0001
0010
0001
0000
0100
0000
0010
0000
0100
0000
0200
0000
,
0000
0320
0000
0130
0002
1000
1000
0003
,
0020
0000
1000
0030
0002
0000
1000
0003
0020
0000
0000
0000
0030
0000
2000
0000
,
0001
3000
0200
0000
0001
0300
0020
0000
0400
0000
0000
0000
0330
0000
0000
0000
,
0200
0000
1000
0300
0002
0000
1000
0003
0200
0000
0000
0000
0300
0000
2000
0000
,
0001
3000
0020
0000
0001
0030
2000
0000
0040
0000
3000
0000
0130
0000
0000
0000
,
0020
0000
1000
0030
0002
0000
1000
0003
0020
0000
0000
0000
0030
0000
2000
0000
,
0001
3000
0200
0000
0001
0300
0020
0000
0400
0000
0000
0000
0330
0000
0000
0000
,
1000
0001
0100
0000
0000
0001
0100
0000
,
1000
0100
0010
0010
0100
1000
0001
1000
,
20M1
00M0
00M0
00M0
00M0
00M0
01M0
00M0
00M0
00M0
00M0
00M0
00M1
00M0
00M0
00M0
00M0
00M0
01M0
00M0
00M0
00M0
00M0
00M0
,
00M1
00M0
00M0
00M0
00M0
00M0
01M0
00M0
00M0
30M0
0000
0000
1000
0000
0000
0001
0000
0000
0010
0000
0000
0001
0000
0000
,
0M12
0M00
0M00
0M00
0M00
0M00
1M00
0M00
0M00
0M00
0M00
0M00
0M10
0M00
0M00
0M00
0M00
0M00
1M00
0M00
0M00
0M00
0M00
0M00
,
0M10
0M00
0M00
0M00
0M00
0M00
1M00
0M00
0M00
0M03
0000
0000
0001
0000
0000
0100
0000
0000
0100
0000
0000
0010
0000
0000
,
2M10
0M00
0M00
0M00
0M00
0M00
0M01
0M00
0M00
0M00
0M00
0M00
0M10
0M00
0M00
0M00
0M00
0M00
0M01
0M00
0M00
0M00
0M00
0M00
,
0M10
0M00
0M00
0M00
0M00
0M00
0M01
0M00
0M00
3M00
0000
0000
1000
0000
0000
0010
0000
0000
1000
0000
0000
0010
0000
0000
,
2010
0000
0000
0000
3001
0100
0001
0000
1000
0000
0100
0000
0010
0000
0020
0000
,
0000
0230
0000
0310
0002
0010
0010
1003
,
2M01
0M00
0M00
0M00
0M00
0M00
0M10
0M00
0M00
0M00
0M00
0M00
0M01
0M00
0M00
0M00
0M00
0M00
0M10
0M00
0M00
0M00
0M00
0M00
,
0M01
0M00
0M00
0M00
0M00
0M00
0M10
0M00
0M00
3M00
0000
0000
1000
0000
0000
0001
0000
0000
0010
0000
0000
0001
0000
0000
,
0M12
0M00
0M00
0M00
0M00
0M00
1M00
0M00
0M00
0M00
0M00
0M00
0M10
0M00
0M00
0M00
0M00
0M00
1M00
0M00
0M00
0M00
0M00
0M00
,
0M10
0M00
0M00
0M00
0M00
0M00
1M00
0M00
0M00
0M03
0000
0000
0001
0000
0000
0010
0000
0000
0010
0000
0000
0100
0000
0000
,
21M0
00M0
00M0
00M0
00M0
00M0
00M1
00M0
00M0
00M0
00M0
00M0
01M0
00M0
00M0
00M0
00M0
00M0
00M1
00M0
00M0
00M0
00M0
00M0
,
01M0
00M0
00M0
00M0
00M0
00M0
00M1
00M0
00M0
30M0
0000
0000
0001
0000
0000
0100
0000
0000
0001
0000
0000
0100
0000
0000
,
01M2
00M0
00M0
00M0
00M0
00M0
10M0
00M0
00M0
00M0
00M0
00M0
01M0
00M0
00M0
00M0
00M0
00M0
10M0
00M0
00M0
00M3
0000
0000
,
0001
0100
0010
0010
0100
0001
1000
0001
,
1000
0000
0000
1000
0100
0010
0000
0100
,
0010
0000
0010
0010
0001
1000
0000
0000
,
0001
0000
0000
0001
0100
0010
0000
0100
,
0010
0000
0010
0010
1000
0000
1000
1000
,
0001
0000
0000
0001
0010
0100
0000
0010
,
0100
0000
0100
0100
1000
0001
0000
0000
,
1000
0000
0000
1000
0010
0100
0000
0010
,
0100
0000
0100
0100
0001
0000
0001
0001
,
1000
0000
0000
1000
0100
0010
0000
0100
,
0010
0000
0010
0010
0001
1000
0000
0000
,
0001
0000
0000
0001
0100
0010
0000
0100
,
0010
0000
0010
0010
1000
0000
1000
1000
,
0001
0000
0000
0001
0010
0100
0000
0010
,
0100
0000
0100
0100
1000
0001
0000
0000
,
1000
0000
0000
1000
0010
0100
0000
0010
,
0200
0000
0000
0300
,
0002
0010
0023
0100
,
0100
0100
0100
0100
,
0230
0000
0000
0000
0000
0000
0000
0000
0000
0000
0000
0000
0000
0000
0000
0000
1000
0000
0000
0000
0000
0000
0000
0000
0000
0000
0000
0000
0000
0000
0000
0000
2300
0000
0000
0000
0000
0000
0000
0000
0000
0000
0000
0000
0000
0000
0000
0000
0010
0000
0000
0000
0000
0000
0000
0000
3020
0000
0000
0000
0000
0000
0000
0030
,
0020
1000
1000
1000
,
1030
0010
0100
0010
1000
0100
0010
0001
1000
0100
0010
0001
1000
0100
0010
0100
1000
0010
0100
0001
1000
0010
0100
0001
,
1000
0010
0100
0001
0010
0100
1000
0100
0010
0100
0010
0001
1000
0100
0010
0001
0100
0010
1000
0010
0100
0010
0100
0001
,
1000
0100
0010
0100
1000
0010
0100
0001
0010
0100
1000
0001
1000
0010
0100
0010
1000
0100
0010
0001
0100
0010
1000
0001
,
0020
0000
0000
0000
0100
0000
0000
0000
0100
0000
0000
0000
0100
0000
0000
0030
,
0001
0010
0010
0001
0010
0010
0100
0010
,
0001
1000
1000
0001
1000
1000
0010
1000
,
0001
0100
0100
0001
0100
0100
0010
1000
,
0100
0010
0010
0100
0010
0010
0001
1000
,
0001
0010
0010
0001
0010
0010
0100
0010
,
0001
1000
1000
0001
1000
1000
0010
1000
,
0001
0100
0100
0001
0100
0100
0010
1000
,
0001
0100
0100
0001
0100
0100
0010
0000
,
1000
0100
0100
1000
0100
0100
0010
0100
,
1000
0001
0001
1000
0001
0001
0100
0001
,
1000
0010
0010
1000
0010
0010
0100
0001
,
0010
0100
0100
0010
0100
0100
1000
0001
,
1000
0100
0100
1000
0100
0100
0010
0100
,
1000
0001
0001
1000
0001
0001
0100
0001
,
1000
0001
0010
0010
0010
0001
1000
1000
,
0001
1000
0001
1000
0001
1000
0001
1000
0100
0000
0010
0000
0010
0000
0100
0000
,
1001
0000
0000
0000
0001
0010
0100
1000
0001
0000
0010
0000
0100
0000
2000
0000
,
0000
3002
0000
2003
3002
1003
0100
0010
,
0002
0003
1000
0200
0000
0320
0000
0031
,
0020
0031
2000
3001
0020
0031
2000
3000
,
1001
0000
0000
0000
1000
0100
0010
0001
1000
0000
0100
0000
0010
0000
0002
0000
,
0000
2003
0000
3002
2003
3001
0010
0100
,
2000
3000
0001
0020
0000
0230
0000
1300
,
0200
1300
0002
1003
0200
1300
0002
0003
,
1001
0000
0000
0000
0001
0010
0100
1000
0001
0000
0010
0000
0100
0000
2000
0000
,
0000
3002
0000
2003
3002
1003
0100
0010
,
0002
0003
1000
0200
0000
0320
0000
0031
,
0020
0031
2000
3001
0020
0031
2000
3000
,
1001
0000
0000
0000
1000
0100
0010
0001
1000
0000
0100
0000
0010
0000
0002
0000
,
0000
2003
0000
3002
2003
3001
0100
0010
,
2000
3000
0001
0200
0000
0301
0000
1000
,
0020
1030
0002
0003
0021
0030
2001
3000
,
1001
0000
0000
0000
0001
0010
0100
1000
0001
0000
0010
0000
0100
0000
2000
0000
,
0000
3002
0000
2003
3002
1003
0100
0010
,
0002
0003
1000
0200
0000
0320
0000
0031
,
0020
0031
2000
3001
0020
0031
2000
3000
,
1001
0000
0000
0000
1000
0100
0010
0001
1000
0000
0100
0000
0010
0000
0002
0000
,
0000
2003
0000
3002
2003
3001
0010
0100
,
2000
3000
0001
0020
0000
0230
0000
1300
,
0200
1300
0002
1003
0200
1300
0002
0003
,
1001
0000
0000
0000
0001
0100
0010
1000
0001
0000
0010
0000
0100
0000
2000
0000
,
0000
3002
0000
2003
3002
1003
0100
0010
,
0002
0003
1000
0200
0000
0320
0000
0031
,
0020
0031
2000
3001
0020
0031
2000
3000
,
1001
0000
0000
0000
1000
0010
0100
0001
1000
0000
0100
0000
0010
0000
0002
0000
,
0000
2003
0000
3002
2003
3001
0010
0100
,
2000
3000
0001
0100
0010
0100
0010
0100
,
0010
1000
0010
1000
0001
1000
0001
1000
,
0020
0000
1000
0030
0002
0000
1000
0003
0020
0000
0000
0000
0030
0000
2000
0000
,
0001
3000
0200
0000
0001
0300
0020
0000
0400
0000
0000
0000
0330
0000
0000
0000
,
0200
0000
1000
0300
0002
0000
1000
0003
0200
0000
0000
0000
0300
0000
2000
0000
,
0001
3000
0020
0000
0001
0030
2000
0000
0040
0000
3000
0000
0130
0000
0000
0000
,
0020
0000
1000
0030
0002
0000
1000
0003
0020
0000
0000
0000
0030
0000
2000
0000
,
0001
3000
0200
0000
0001
0300
0020
0000
0400
0000
0000
0000
0330
0000
0000
0000
,
0200
0000
1000
0300
0002
0000
1000
0003
0200
0000
0000
0000
0300
0000
2000
0000
,
0001
3000
0020
0000
0001
0030
2000
0000
0040
0000
3000
0000
0130
0000
0000
0000
,
0020
0000
1000
0030
0002
0000
1000
0003
0020
0000
0000
0000
0030
0000
2000
0000
,
0001
3000
0200
0000
0001
0300
0020
0000
0400
0000
0000
0000
0330
0000
0000
0000
,
0200
0000
1000
0300
0002
0000
1000
0003
0200
0000
0000
0000
0300
0000
2000
0000
,
0001
3000
0020
0000
0001
0030
2000
0000
0040
0000
3000
0000
0130
0000
0000
0000
,
0020
0000
1000
0030
0002
0000
1000
0003
0020
0000
0000
0000
0030
0000
2000
0000
,
0001
3000
0200
0000
0001
0300
0020
0000
0400
0000
0000
0000
0330
0000
0000
0000
,
0200
0000
1000
0300
0002
0000
1000
0003
0200
0000
0000
0000
0300
0000
2000
0000
,
0001
3000
0020
0000
0001
0030
2000
0000
0040
0000
3000
0000
0130
0000
0000
0000
,
0002
0000
0000
0000
0000
0003
0000
0000
;

//---------------dance-single - I. Pyles----------------
#NOTES:
     dance-single:
     I. Pyles:
     Easy:
     9:
     0.642,0.677,0.080,0.884,0.523,1086.000,25.000,275.000,452.000,1.000:






0000
0000
0000
0000
,
0000
0000
0000
0000
,
0000
0000
0000
0000
,
0000
0000
0000
0000
,
0000
0000
0000
0000
,
0000
0000
0000
0000
,
0000
0000
0000
0000
,
0000
0000
0000
0000
0000
0000
0000
0000
0000
0000
0000
0000
0000
0000
0000
0000
0000
0000
0000
0000
0000
0000
0000
0000
0000
0000
0000
0000
0000
0000
0000
0000
2100
0000
0000
0000
0000
0000
0000
3000
2100
0000
0000
0000
0000
0000
0000
3000
2100
0000
0000
0000
0000
0000
0000
3000
2100
0000
0000
0000
0000
0000
0000
3000
,
1002
0000
0000
0000
0000
0000
0000
0000
2003
0000
3000
0001
0020
0000
0032
0000
,
2003
0000
0000
0000
0000
0000
3000
0001
0200
0000
0000
0000
0000
0000
0000
0000
,
0302
0000
0000
0000
0000
0000
0000
0000
0023
0000
0000
0000
0000
0000
0130
1000
,
0002
0000
0003
0010
0200
0000
0300
1000
0002
0000
0103
0010
2000
0000
3200
0000
,
0320
0000
0000
0000
0000
0000
0000
0000
0032
0000
0003
1000
0200
0000
0320
0000
,
0032
0000
0000
0000
0000
0000
0003
0100
0020
0000
0000
0000
0000
0000
0000
0000
,
2030
0000
0000
0000
0000
0000
0000
0000
3020
0000
0000
0000
0000
0000
0130
0001
,
2000
0000
3000
0001
0200
0000
0300
0001
0020
0000
0000
0000
0000
0000
0000
0000
,
1031
0000
0001
0100
0000
0010
1000
0001
,
1000
0000
0001
0100
0000
0010
1000
0001
,
1000
0000
0001
0010
0000
0100
1000
0001
,
1000
0000
0001
0010
0000
0100
1000
0001
,
1000
0000
0001
0100
0000
0010
1000
0001
,
1000
0000
0001
0100
0000
0010
1000
0001
,
1000
0000
0001
0010
0000
0100
1000
0001
,
1000
0000
0001
0010
0000
0100
1000
0000
,
0001
0000
1000
0010
0000
0100
0001
1000
,
0001
0000
1000
0010
0000
0100
0001
1000
,
0001
0000
1000
0100
0000
0010
0001
1000
,
0001
0000
1000
0100
0000
0010
0001
1000
,
0001
0000
1000
0010
0000
0100
0001
1000
,
0001
0000
1000
0010
0000
0100
0001
1000
,
0001
0000
1000
0010
1000
0000
0001
0010
,
0001
1000
0001
1000
0001
1000
0001
1000
0001
0000
0100
0000
0010
0000
0100
0000
,
0020
0000
1000
0030
0002
0000
1000
0003
0020
0000
0000
0000
0030
0000
2000
0000
,
0001
3000
0200
0000
0001
0300
0020
0000
0400
0000
0000
0000
0330
0000
0000
0000
,
0200
0000
1000
0300
0002
0000
1000
0003
0200
0000
0000
0000
0300
0000
2000
0000
,
0001
3000
0020
0000
0001
0030
2000
0000
0040
0000
3000
0000
0130
0000
0000
0000
,
0020
0000
1000
0030
0002
0000
1000
0003
0020
0000
0000
0000
0030
0000
2000
0000
,
0001
3000
0200
0000
0001
0300
0020
0000
0400
0000
0000
0000
0330
0000
0000
0000
,
1000
0010
1000
0000
0001
0010
0001
0000
1000
0000
0010
0000
0100
0000
0200
0000
,
0000
0320
0000
0130
0002
1000
1000
0003
,
0020
0000
1000
0030
0002
0000
1000
0003
0020
0000
0000
0000
0030
0000
2000
0000
,
0001
3000
0200
0000
0001
0300
0020
0000
0400
0000
0000
0000
0330
0000
0000
0000
,
0200
0000
1000
0300
0002
0000
1000
0003
0200
0000
0000
0000
0300
0000
2000
0000
,
0001
3000
0020
0000
0001
0030
2000
0000
0040
0000
3000
0000
0130
0000
0000
0000
,
0020
0000
1000
0030
0002
0000
1000
0003
0020
0000
0000
0000
0030
0000
2000
0000
,
0001
3000
0200
0000
0001
0300
0020
0000
0400
0000
0000
0000
0330
0000
0000
0000
,
1000
0001
0100
0000
0000
0001
0100
0000
,
1000
0100
0010
0010
0100
1000
0001
1000
,
00M2
00M0
00M0
00M0
00M0
00M0
01M0
00M0
00M0
00M0
00M0
00M0
10M0
00M0
00M0
00M0
00M0
00M0
01M0
00M0
00M0
00M0
00M0
00M0
,
10M0
00M0
00M0
00M0
00M0
00M0
01M0
00M0
00M0
00M3
0000
0000
0001
0000
0000
1000
0000
0000
0010
0000
0000
1000
0000
0000
,
00M2
00M0
00M0
00M0
00M0
00M0
10M0
00M0
00M0
00M0
00M0
00M0
01M0
00M0
00M0
00M0
00M0
00M0
10M0
00M0
00M0
00M0
00M0
00M0
,
01M0
00M0
00M0
00M0
00M0
00M0
10M0
00M0
00M0
00M3
0000
0000
1000
0000
0000
0100
0000
0000
0100
0000
0000
0010
0000
0000
,
0M02
0M00
0M00
0M00
0M00
0M00
1M00
0M00
0M00
0M00
0M00
0M00
0M10
0M00
0M00
0M00
0M00
0M00
1M00
0M00
0M00
0M00
0M00
0M00
,
0M10
0M00
0M00
0M00
0M00
0M00
1M00
0M00
0M00
0M03
0000
0000
0001
0000
0000
0100
0000
0000
0001
0000
0000
0100
0000
0000
,
0002
0000
0000
0000
1003
0100
1000
0000
0001
0000
0100
0000
0010
0000
0020
0000
,
0000
0230
0000
0310
2000
0010
0010
3001
,
20M0
00M0
00M0
00M0
00M0
00M0
01M0
00M0
00M0
00M0
00M0
00M0
00M1
00M0
00M0
00M0
00M0
00M0
01M0
00M0
00M0
00M0
00M0
00M0
,
00M1
00M0
00M0
00M0
00M0
00M0
01M0
00M0
00M0
30M0
0000
0000
1000
0000
0000
0001
0000
0000
0100
0000
0000
0001
0000
0000
,
2M00
0M00
0M00
0M00
0M00
0M00
0M01
0M00
0M00
0M00
0M00
0M00
0M10
0M00
0M00
0M00
0M00
0M00
0M01
0M00
0M00
0M00
0M00
0M00
,
0M10
0M00
0M00
0M00
0M00
0M00
0M01
0M00
0M00
3M00
0000
0000
1000
0000
0000
0010
0000
0000
0010
0000
0000
0100
0000
0000
,
00M2
00M0
00M0
00M0
00M0
00M0
10M0
00M0
00M0
00M0
00M0
00M0
01M0
00M0
00M0
00M0
00M0
00M0
10M0
00M0
00M0
00M0
00M0
00M0
,
01M0
00M0
00M0
00M0
00M0
00M0
10M0
00M0
00M0
00M3
0000
0000
1000
0000
0000
0100
0000
0000
1000
0000
0000
0100
0000
0000
,
20M0
00M0
00M0
00M0
00M0
00M0
00M1
00M0
00M0
00M0
00M0
00M0
01M0
00M0
00M0
00M0
00M0
00M0
00M1
00M0
00M0
30M0
0000
0000
,
1000
0100
0010
0010
0100
1000
0001
1000
,
0001
0010
0100
1000
0001
0010
0100
1000
,
0001
0100
0010
1000
0001
0100
0010
1000
,
0001
0010
0001
1000
0001
0010
0001
1000
,
0200
0000
0000
0000
1000
1000
1000
0300
,
0001
0100
0010
1000
0001
0100
0010
1000
,
0001
0010
0100
1000
0001
0010
0100
1000
,
0001
0100
0001
1000
0001
0100
0001
1000
,
0020
0000
0000
0000
0100
0100
0100
0030
,
0001
0010
0100
1000
0001
0010
0100
1000
,
0001
0100
0010
1000
0001
0100
0010
1000
,
0001
0010
0001
1000
0001
0010
0001
1000
,
0200
0000
0000
0000
1000
1000
1000
0300
,
0001
0100
0010
1000
0001
0100
0010
1000
,
0001
0010
0100
1000
0001
0010
0100
1000
,
0001
0100
0001
1000
0001
0100
0001
1000
,
0020
0000
0000
0000
0000
0000
0000
0030
,
0020
0000
1000
0030
0002
0000
1000
0003
0020
0000
0000
0000
0030
0000
2000
0000
,
0001
3000
0200
0000
0001
0300
0020
0000
0400
0000
0000
0000
0330
0000
0000
0000
,
0200
0000
1000
0300
0002
0000
1000
0003
0200
0000
0000
0000
0300
0000
2000
0000
,
0001
3000
0020
0000
0001
0030
2000
0000
0040
0000
3000
0000
0130
0000
0000
0000
,
0020
0000
1000
0030
0002
0000
1000
0003
0020
0000
0000
0000
0030
0000
2000
0000
,
0001
3000
0200
0000
0001
0300
0020
0000
0400
0000
0000
0000
0330
0000
0000
0000
,
1000
0010
1000
0000
0001
0010
0001
0000
0100
0000
0010
0000
0100
0000
0200
0000
,
0000
0320
0000
0130
0002
1000
1000
0003
,
0020
0000
1000
0030
0002
0000
1000
0003
0020
0000
0000
0000
0030
0000
2000
0000
,
0001
3000
0200
0000
0001
0300
0020
0000
0400
0000
0000
0000
0330
0000
0000
0000
,
0200
0000
1000
0300
0002
0000
1000
0003
0200
0000
0000
0000
0300
0000
2000
0000
,
0001
3000
0020
0000
0001
0030
2000
0000
0040
0000
3000
0000
0130
0000
0000
0000
,
0020
0000
1000
0030
0002
0000
1000
0003
0020
0000
0000
0000
0030
0000
2000
0000
,
0001
3000
0200
0000
0001
0300
0020
0000
0400
0000
0000
0000
0330
0000
0000
0000
,
1000
0001
0100
0000
0000
0001
0100
0000
,
1000
0100
0010
0010
0100
1000
0001
1000
,
0M02
0M00
0M00
0M00
0M00
0M00
0M10
0M00
0M00
0M00
0M00
0M00
1M00
0M00
0M00
0M00
0M00
0M00
0M10
0M00
0M00
0M00
0M00
0M00
,
1M00
0M00
0M00
0M00
0M00
0M00
0M10
0M00
0M00
0M03
0000
0000
1000
0000
0000
0001
0000
0000
0010
0000
0000
0001
0000
0000
,
20M0
00M0
00M0
00M0
00M0
00M0
00M1
00M0
00M0
00M0
00M0
00M0
01M0
00M0
00M0
00M0
00M0
00M0
00M1
00M0
00M0
00M0
00M0
00M0
,
01M0
00M0
00M0
00M0
00M0
00M0
00M1
00M0
00M0
30M0
0000
0000
0001
0000
0000
0100
0000
0000
0100
0000
0000
0010
0000
0000
,
2M00
0M00
0M00
0M00
0M00
0M00
0M01
0M00
0M00
0M00
0M00
0M00
0M10
0M00
0M00
0M00
0M00
0M00
0M01
0M00
0M00
0M00
0M00
0M00
,
0M10
0M00
0M00
0M00
0M00
0M00
0M01
0M00
0M00
3M00
0000
0000
1000
0000
0000
0010
0000
0000
1000
0000
0000
0010
0000
0000
,
2000
0000
0000
0000
3001
0100
0001
0000
1000
0000
0100
0000
0010
0000
0020
0000
,
0000
0230
0000
0310
0002
0010
0010
1003
,
00M2
00M0
00M0
00M0
00M0
00M0
01M0
00M0
00M0
00M0
00M0
00M0
10M0
00M0
00M0
00M0
00M0
00M0
01M0
00M0
00M0
00M0
00M0
00M0
,
10M0
00M0
00M0
00M0
00M0
00M0
01M0
00M0
00M0
00M3
0000
0000
1000
0000
0000
0001
0000
0000
0010
0000
0000
0001
0000
0000
,
20M0
00M0
00M0
00M0
00M0
00M0
00M1
00M0
00M0
00M0
00M0
00M0
01M0
00M0
00M0
00M0
00M0
00M0
00M1
00M0
00M0
00M0
00M0
00M0
,
01M0
00M0
00M0
00M0
00M0
00M0
00M1
00M0
00M0
30M0
0000
0000
0001
0000
0000
0010
0000
0000
0010
0000
0000
0100
0000
0000
,
20M0
00M0
00M0
00M0
00M0
00M0
00M1
00M0
00M0
00M0
00M0
00M0
01M0
00M0
00M0
00M0
00M0
00M0
00M1
00M0
00M0
00M0
00M0
00M0
,
01M0
00M0
00M0
00M0
00M0
00M0
00M1
00M0
00M0
30M0
0000
0000
0001
0000
0000
0100
0000
0000
0001
0000
0000
0100
0000
0000
,
00M2
00M0
00M0
00M0
00M0
00M0
10M0
00M0
00M0
00M0
00M0
00M0
01M0
00M0
00M0
00M0
00M0
00M0
10M0
00M0
00M0
00M3
0000
0000
,
0001
0100
0010
0010
0100
0001
1000
0001
,
1000
0000
0000
1000
0100
0010
0000
0100
,
0010
0000
0010
0010
0001
1000
0000
0000
,
0001
0000
0000
0001
0100
0010
0000
0100
,
0010
0000
0010
0010
1000
0000
1000
1000
,
0001
0000
0000
0001
0010
0100
0000
0010
,
0100
0000
0100
0100
1000
0001
0000
0000
,
1000
0000
0000
1000
0010
0100
0000
0010
,
0100
0000
0100
0100
0001
0000
0001
0001
,
1000
0000
0000
1000
0100
0010
0000
0100
,
0010
0000
0010
0010
0001
1000
0000
0000
,
0001
0000
0000
0001
0100
0010
0000
0100
,
0010
0000
0010
0010
1000
0000
1000
1000
,
0001
0000
0000
0001
0010
0100
0000
0010
,
0100
0000
0100
0100
1000
0001
0000
0000
,
1000
0000
0000
1000
0010
0100
0000
0010
,
0200
0000
0000
0300
,
0002
0010
0023
0100
,
0100
0100
0100
0100
,
0230
0000
0000
0000
0000
0000
0000
0000
0000
0000
0000
0000
0000
0000
0000
0000
1000
0000
0000
0000
0000
0000
0000
0000
0000
0000
0000
0000
0000
0000
0000
0000
2300
0000
0000
0000
0000
0000
0000
0000
0000
0000
0000
0000
0000
0000
0000
0000
0010
0000
0000
0000
0000
0000
0000
0000
3020
0000
0000
0000
0000
0000
0000
0030
,
0020
1000
1000
1000
,
2030
0000
3200
0000
,
0320
0000
0000
0000
,
0032
0000
0203
0000
,
0320
0000
0000
0100
0000
0000
0100
0000
0000
0100
0000
0030
,
1001
0000
1000
0010
0000
0100
0001
1000
,
0001
0000
1000
0010
0000
0100
0001
1000
,
0001
0000
1000
0100
0000
0010
0001
1000
,
0001
0000
1000
0100
0000
0010
0001
1000
,
0001
0000
1000
0010
0000
0100
0001
1000
,
0001
0000
1000
0010
0000
0100
0001
1000
,
0001
0000
1000
0100
0000
0010
0001
1000
,
0001
0000
1000
0100
0000
0010
0001
0000
,
1000
0000
0001
0100
0000
0010
1000
0001
,
1000
0000
0001
0100
0000
0010
1000
0001
,
1000
0000
0001
0010
0000
0100
1000
0001
,
1000
0000
0001
0010
0000
0100
1000
0001
,
1000
0000
0001
0100
0000
0010
1000
0001
,
1000
0000
0001
0100
0000
0010
1000
0001
,
1000
0000
0001
0100
0001
0000
1000
0100
,
1000
0001
1000
0001
1000
0001
1000
0001
1000
0000
0010
0000
0100
0000
0010
0000
,
1001
0000
0000
0000
0001
0100
0001
0000
1000
0000
0100
0000
0010
0000
0002
0000
,
0000
2003
0000
3002
2003
3001
0010
0100
,
2000
3000
0001
0020
0000
0230
0000
1300
,
0200
0300
2000
3000
0020
0030
2000
3000
,
1001
0000
0000
0000
1000
0010
1000
0000
0001
0000
0010
0000
0100
0000
2000
0000
,
0000
3002
0000
2003
3002
1003
0100
0010
,
0002
0003
1000
0200
0000
0320
0000
0031
,
0020
0030
0002
0003
0200
0300
0002
0003
,
1001
0000
0000
0000
0001
0100
0001
0000
1000
0000
0100
0000
0010
0000
0002
0000
,
0000
2003
0000
3002
2003
3001
0010
0100
,
2000
3000
0001
0020
0000
0230
0000
1300
,
0200
0300
2000
3000
0020
0030
2000
3000
,
1001
0000
0000
0000
1000
0010
1000
0000
0001
0000
0010
0000
0100
0000
2000
0000
,
0000
3002
0000
2003
3002
1003
0010
0100
,
0002
0003
1000
0020
0000
1030
0000
0001
,
0200
0301
2000
3000
1200
0300
1002
0003
,
1001
0000
0000
0000
0001
0100
0001
0000
1000
0000
0100
0000
0010
0000
0002
0000
,
0000
2003
0000
3002
2003
3001
0010
0100
,
2000
3000
0001
0020
0000
0230
0000
1300
,
0200
0300
2000
3000
0020
0030
2000
3000
,
1001
0000
0000
0000
1000
0010
1000
0000
0001
0000
0010
0000
0100
0000
2000
0000
,
0000
3002
0000
2003
3002
1003
0100
0010
,
0002
0003
1000
0200
0000
0320
0000
0031
,
0020
0030
0002
0003
0200
0300
0002
0003
,
1001
0000
0000
0000
0001
0010
0001
0000
1000
0000
0010
0000
0100
0000
0002
0000
,
0000
2003
0000
3002
2003
3001
0100
0010
,
2000
3000
0001
0200
0000
0320
0000
1030
,
0020
0030
2000
3000
0200
0300
2000
3000
,
1001
0000
0000
0000
1000
0100
1000
0000
0001
0000
0100
0000
0010
0000
2000
0000
,
0000
3002
0000
2003
3002
1003
0010
0100
,
0002
0003
1000
0010
0100
0010
0100
0010
,
0100
0001
0100
0001
1000
0001
1000
0001
,
0200
0000
0001
0300
2000
0000
0001
3000
0200
0000
0000
0000
0300
0000
0002
0000
,
1000
0003
0020
0000
1000
0030
0200
0000
0040
0000
0000
0000
0330
0000
0000
0000
,
0020
0000
0001
0030
2000
0000
0001
3000
0020
0000
0000
0000
0030
0000
0002
0000
,
1000
0003
0200
0000
1000
0300
0002
0000
0400
0000
0003
0000
0310
0000
0000
0000
,
0200
0000
0001
0300
2000
0000
0001
3000
0200
0000
0000
0000
0300
0000
0002
0000
,
1000
0003
0020
0000
1000
0030
0200
0000
0040
0000
0000
0000
0330
0000
0000
0000
,
0020
0000
0001
0030
2000
0000
0001
3000
0020
0000
0000
0000
0030
0000
0002
0000
,
1000
0003
0200
0000
1000
0300
0002
0000
0400
0000
0003
0000
0310
0000
0000
0000
,
0200
0000
0001
0300
2000
0000
0001
3000
0200
0000
0000
0000
0300
0000
0002
0000
,
1000
0003
0020
0000
1000
0030
0200
0000
0040
0000
0000
0000
0330
0000
0000
0000
,
0020
0000
0001
0030
2000
0000
0001
3000
0020
0000
0000
0000
0030
0000
0002
0000
,
1000
0003
0200
0000
1000
0300
0002
0000
0400
0000
0003
0000
0310
0000
0000
0000
,
0200
0000
0001
0300
2000
0000
0001
3000
0200
0000
0000
0000
0300
0000
0002
0000
,
1000
0003
0020
0000
1000
0030
0200
0000
0040
0000
0000
0000
0330
0000
0000
0000
,
0020
0000
0001
0030
2000
0000
0001
3000
0020
0000
0000
0000
0030
0000
0002
0000
,
1000
0003
0200
0000
1000
0300
0002
0000
0400
0000
0003
0000
0310
0000
0000
0000
,
2000
0000
0000
0000
0000
3000
0000
0000
;

//---------------dance-single - I. Pyles----------------
#NOTES:
     dance-single:
     I. Pyles:
     Beginner:
     1:
     0.024,0.064,0.000,0.000,0.000,53.000,0.000,0.000,0.000,0.000:

0000
0000
0000
0000
,
0000
0000
0000
0000
,
0000
0000
0000
0000
,
0000
0000
0000
0000
,
0000
0000
0000
0000
,
0000
0000
0000
0000
,
0000
0000
0000
0000
,
0000
0000
0000
0000
,
1000
0000
0000
0000
,
0000
0000
0000
0000
,
0001
0000
0000
0000
,
0000
0000
0000
0000
,
0100
0000
0000
0000
,
0000
0000
0000
0000
,
0010
0000
0000
0000
,
0000
0000
0000
0000
,
1000
0000
0000
0000
,
0000
0000
0000
0000
,
0000
0000
0000
0000
,
0000
0000
0000
0000
,
0010
0000
0000
0000
,
0000
0000
0000
0000
,
0000
0000
0000
0000
,
0000
0000
0000
0000
,
0100
0000
0000
0000
,
0000
0000
0000
0000
,
0000
0000
0000
0000
,
0000
0000
0000
0000
,
0001
0000
0000
0000
,
0000
0000
0000
0000
,
0000
0000
0000
0000
,
0000
0000
0000
0000
,
1000
0000
0000
0000
,
0000
0000
0000
0000
,
0000
0000
0000
0000
,
0000
0000
0000
0000
,
0001
0000
0000
0000
,
0000
0000
0000
0000
,
0000
0000
0000
0000
,
0000
0000
0000
0000
,
0010
0000
0000
0000
,
0000
0000
0000
0000
,
0000
0000
0000
0000
,
0000
0000
0000
0000
,
1000
0000
0000
0000
,
0000
0000
0000
0000
,
0000
0000
0000
0000
,
0000
0000
0000
0000
,
0001
0000
0000
0000
,
0000
0000
0000
0000
,
0000
0000
0000
0000
,
0000
0000
0000
0000
,
0001
0000
0000
0000
,
0000
0000
0000
0000
,
0000
0000
0000
0000
,
0000
0000
0000
0000
,
1000
0000
0000
0000
,
0000
0000
0000
0000
,
0000
0000
0000
0000
,
0000
0000
0000
0000
,
0010
0000
0000
0000
,
0000
0000
0000
0000
,
0000
0000
0000
0000
,
0000
0000
0000
0000
,
1000
0000
0000
0000
,
0000
0000
0000
0000
,
0000
0000
0000
0000
,
0000
0000
0000
0000
,
0010
0000
0000
0000
,
0000
0000
0000
0000
,
0000
0000
0000
0000
,
0000
0000
0000
0000
,
0010
0000
0000
0000
,
0000
0000
0000
0000
,
0000
0000
0000
0000
,
0000
0000
0000
0000
,
0010
0000
0000
0000
,
0000
0000
0000
0000
,
0000
0000
0000
0000
,
0000
0000
0000
0000
,
0010
0000
0000
0000
,
0000
0000
0000
0000
,
0000
0000
0000
0000
,
0000
0000
0000
0000
,
0001
0000
0000
0000
,
0000
0000
0000
0000
,
0000
0000
0000
0000
,
0000
0000
0000
0000
,
0100
0000
0000
0000
,
0000
0000
0000
0000
,
0000
0000
0000
0000
,
0000
0000
0000
0000
,
0010
0000
0000
0000
,
0000
0000
0000
0000
,
0000
0000
0000
0000
,
0000
0000
0000
0000
,
0100
0000
0000
0000
,
0000
0000
0000
0000
,
0000
0000
0000
0000
,
0000
0000
0000
0000
,
0001
0000
0000
0000
,
0000
0000
0000
0000
,
0000
0000
0000
0000
,
0000
0000
0000
0000
,
0100
0000
0000
0000
,
0000
0000
0000
0000
,
0000
0000
0000
0000
,
0000
0000
0000
0000
,
0100
0000
0000
0000
,
0000
0000
0000
0000
,
0000
0000
0000
0000
,
0000
0000
0000
0000
,
0100
0000
0000
0000
,
0000
0000
0000
0000
,
0000
0000
0000
0000
,
0000
0000
0000
0000
,
0010
0000
0000
0000
,
0000
0000
0000
0000
,
0000
0000
0000
0000
,
0000
0000
0000
0000
,
0010
0000
0000
0000
,
0000
0000
0000
0000
,
0000
0000
0000
0000
,
0000
0000
0000
0000
,
0010
0000
0000
0000
,
0000
0000
0000
0000
,
0000
0000
0000
0000
,
0000
0000
0000
0000
,
0100
0000
0000
0000
,
0000
0000
0000
0000
,
1000
0000
0000
0000
,
0000
0000
0000
0000
,
0100
0000
0000
0000
,
0000
0000
0000
0000
,
0100
0000
0000
0000
,
0000
0000
0000
0000
,
0001
0000
0000
0000
,
0000
0000
0000
0000
,
0000
0000
0000
0000
,
0000
0000
0000
0000
,
0001
0000
0000
0000
,
0000
0000
0000
0000
,
0000
0000
0000
0000
,
0000
0000
0000
0000
,
0001
0000
0000
0000
,
0000
0000
0000
0000
,
0000
0000
0000
0000
,
0000
0000
0000
0000
,
0001
0000
0000
0000
,
0000
0000
0000
0000
,
0000
0000
0000
0000
,
0000
0000
0000
0000
,
1000
0000
0000
0000
,
0000
0000
0000
0000
,
0000
0000
0000
0000
,
0000
0000
0000
0000
,
0001
0000
0000
0000
,
0000
0000
0000
0000
,
0000
0000
0000
0000
,
0000
0000
0000
0000
,
0010
0000
0000
0000
,
0000
0000
0000
0000
,
0000
0000
0000
0000
,
0000
0000
0000
0000
,
0100
0000
0000
0000
,
0000
0000
0000
0000
,
0000
0000
0000
0000
,
0000
0000
0000
0000
,
0010
0000
0000
0000
,
0000
0000
0000
0000
,
0000
0000
0000
0000
,
0000
0000
0000
0000
,
0100
0000
0000
0000
,
0000
0000
0000
0000
,
0000
0000
0000
0000
,
0000
0000
0000
0000
,
0100
0000
0000
0000
,
0000
0000
0000
0000
,
0000
0000
0000
0000
,
0000
0000
0000
0000
,
0001
0000
0000
0000
,
0000
0000
0000
0000
,
0000
0000
0000
0000
,
0000
0000
0000
0000
,
1000
0000
0000
0000
,
0000
0000
0000
0000
,
0000
0000
0000
0000
,
0000
0000
0000
0000
,
0100
0000
0000
0000
,
0000
0000
0000
0000
,
0000
0000
0000
0000
,
0000
0000
0000
0000
,
1000
0000
0000
0000
,
0000
0000
0000
0000
,
0000
0000
0000
0000
,
0000
0000
0000
0000
,
1000
0000
0000
0000
,
0000
0000
0000
0000
,
0000
0000
0000
0000
,
0000
0000
0000
0000
,
0010
0000
0000
0000
;
