#TITLE:smooooch・∀・;
#SUBTITLE:;
#ARTIST:kors k;
#TITLETRANSLIT:;
#SUBTITLETRANSLIT:;
#ARTISTTRANSLIT:;
#CREDIT:;
#BANNER:smooooch.png;
#BACKGROUND:smooooch-bg.png;
#LYRICSPATH:;
#CDTITLE:Type MARS.png;
#MUSIC:smooooch ^^.mp3;
#OFFSET:-1.430;
#SAMPLESTART:23.080;
#SAMPLELENGTH:21.300;
#SELECTABLE:YES;
#BPMS:0.000=177.000,64.000=177.000;
#STOPS:;
#BGCHANGES:;
// cache tags:
#FIRSTBEAT:0.000;
#LASTBEAT:320.000;
#SONGFILENAME:Songs/Definitive Keyboard Megapack/smooooch ^^(typeMARS)/smooooch ^^.sm;
#HASMUSIC:1;
#HASBANNER:1;
#MUSICLENGTH:113.928;
// end cache tags

//---------------dance-single - ----------------
#NOTES:
     dance-single:
     :
     Hard:
     13:
     1.000,1.000,1.000,1.000,0.799,816.000,219.000,154.000,0.000,1.000:

2001
0010
0100
0010
0001
0100
0010
0100
,
3002
0100
0010
1000
0100
0010
0100
1000
,
0203
0010
0001
0010
1000
0001
0010
1000
,
0320
0001
1000
0100
1000
0001
0100
0001
,
2030
0100
0010
0001
0100
0001
0100
0010
,
3002
0100
0010
1000
0100
1000
0010
0100
,
2003
0010
0100
0001
0100
0010
0001
0100
,
3002
0010
0100
1000
0010
0100
1000
1003
,
1001
0000
0010
0000
1001
0000
0100
0000
0010
0000
1000
0001
0000
1000
0001
0000
,
0100
0000
0110
0000
0110
0000
1000
0001
0100
0000
1000
0001
0110
0000
1100
0000
,
1001
0000
1001
0000
1001
0000
0010
1000
0001
0000
0100
0001
0000
1000
0001
0000
,
0100
0000
1001
0000
1001
0000
0010
0001
1000
0000
0010
1000
0010
0001
0100
0010
,
1001
0000
0100
0000
0010
0000
1000
0000
0001
0000
0100
0010
0000
0010
1000
0000
,
0001
0000
1100
0000
1100
0000
0010
0001
0100
0000
0010
1000
0100
0000
0010
0000
,
1000
0001
1000
0001
1000
0001
1000
0001
0100
0010
0100
0010
1100
0011
1100
0011
,
2100
0010
0100
0010
0100
0010
0100
0010
3002
0100
0010
0100
0010
0100
0010
0100
,
1003
0100
0011
0110
0011
1000
0100
1010
,
0001
0000
0101
0000
0010
0000
0110
0000
0110
0000
1000
0010
0101
0000
1100
0000
,
0101
0010
1001
0100
0110
0101
1100
0110
,
0001
0000
1000
0010
1001
0000
0101
0000
1001
0000
1001
0000
0110
0000
0001
0100
,
1010
0000
0100
0000
0011
0000
1100
0000
0011
0000
1000
0000
0010
1000
0101
0000
,
0010
1100
0010
0101
1100
0010
0101
1010
,
0101
1001
0110
1001
0101
0110
1100
0110
,
1001
0000
0010
0000
1001
0000
0110
0000
0101
0000
0010
0000
1000
0100
0010
0100
,
2001
3000
0201
0300
0010
0000
2100
3000
0010
0000
0120
0030
0100
0000
1002
0003
,
0010
0001
0100
0010
1000
0100
0010
0001
,
2100
3000
0010
0000
0102
0003
2100
3000
0010
0000
1002
0003
0100
0000
0210
0300
,
0010
0001
0100
0010
1000
0100
0001
0100
,
2010
3000
0012
0003
0100
0000
2100
3000
0010
0000
1020
0030
0100
0000
0201
0300
,
0010
0001
0100
0010
1000
0001
0100
0010
,
2100
3000
0010
0000
0120
0030
0102
0003
0010
0000
2100
3000
0010
0000
1002
0003
,
0100
0110
0001
1100
0011
1100
0110
0110
,
1001
0000
1001
0000
0110
0000
1001
0000
1001
0000
0110
0000
0010
1000
0010
0000
,
1001
0000
1000
0101
0000
1000
0101
0000
0100
0000
0010
0000
1100
0000
0001
0000
,
0101
0000
0011
1000
0101
0000
0011
1000
0101
0000
1000
0001
0110
0000
1100
0001
,
0100
0010
1000
0001
0100
0000
0010
1000
0001
0000
0100
0010
2002
3003
0100
0000
,
1010
0100
1000
0000
1010
0100
1000
0000
1001
0000
1100
0000
1001
0100
0011
0000
,
0110
0000
1010
0101
0000
1100
0011
0000
0110
0000
1010
0000
1000
0001
0100
0000
,
1100
0000
0110
0001
1100
0000
0110
0001
1000
0010
0100
0001
1010
0000
0110
0000
,
0002
0003
2000
3000
0002
0003
2000
3000
0002
0003
2000
3000
0002
0003
2000
3000
0002
0003
2000
3000
0002
0003
2000
3000
0202
0000
0303
0000
0220
0000
0330
0000
,
2002
3003
0100
0000
2002
3003
0010
0000
0101
0000
0100
0000
1010
0000
1000
0000
,
0101
0000
0000
0000
1000
0000
0101
0000
0000
0000
1000
0000
0011
0000
0000
0000
0100
0000
0010
0000
1000
0100
0010
0001
2000
0000
3000
0000
0220
0000
0330
0000
,
0202
0303
2000
3000
0220
0330
0002
0003
0200
0300
0020
0030
2000
3000
0002
0003
,
0010
0000
1000
0000
0001
0000
0010
0000
0100
0000
1000
0000
0010
0000
0000
0000
1000
0000
0000
0000
0100
0000
0001
0000
1000
0100
0010
0001
1000
0100
0010
0001
,
1000
0000
0200
0300
0011
0000
0200
0300
0100
0000
0002
0103
1000
0000
0020
0030
,
0100
0000
0101
1010
0000
0011
1100
0000
0010
0000
0100
0000
0010
1000
0100
0000
,
0001
0000
0010
1000
0100
0000
1000
0010
0100
0001
0010
0100
1000
0100
0010
0001
,
0020
0030
0200
0300
0020
0030
0200
0300
0020
0030
0200
0300
0020
0030
0200
0300
0020
0030
0200
0300
0020
0030
0200
0300
0020
0030
0100
0000
0010
0000
0000
0000
,
0100
0000
0001
0010
0100
1000
0100
0000
0010
0001
0100
0000
0010
0000
1000
0100
,
0001
0000
0010
0000
0010
0000
1000
0100
0001
0000
1000
0100
0001
0100
1000
0000
,
0010
0000
0010
0000
0100
0000
1000
0100
1000
0100
0010
0000
0001
0000
0100
0000
,
1000
0100
0010
0001
0010
0100
1000
0000
0001
0000
0100
1000
0001
0100
1000
0001
,
0100
0000
0010
1000
0100
0010
0001
0000
0100
0010
1000
0100
0001
0000
0100
0010
,
0001
0000
1000
0100
0010
0000
0001
0100
1000
0100
0010
0000
0001
0100
1000
0000
,
0010
0000
0010
0000
0100
0000
0001
0100
1000
0100
0001
0000
0010
0000
1000
0100
,
1002
0010
0100
1000
0100
0010
1000
0000
1203
0010
0001
0010
0001
1000
0310
0001
,
0020
0030
1000
0100
0020
0031
0020
0030
0200
1300
0010
0000
0100
0000
0002
0013
,
1000
0000
0200
0300
0100
0000
0002
0013
2000
3000
0001
0010
2000
3010
0002
0003
,
0200
0300
0100
0000
0020
0030
0001
0010
0002
0013
0200
0300
2000
3000
0020
0030
,
0001
0010
0200
1300
0200
0310
0002
0003
2000
3000
0020
0031
2000
3010
0002
1003
,
0020
0030
0100
0001
0020
0130
2000
3000
0020
0130
0001
0010
2000
3000
0020
0130
,
1000
0000
0002
0013
0100
0000
2000
3010
0002
0013
0100
0000
2000
3010
0002
0003
,
0200
0300
0200
0300
0020
0030
2000
3010
0002
0013
2000
3000
0200
0300
0002
0013
,
2002
3003
0010
0100
2002
3003
0100
0010
2002
3003
0010
0100
2002
3003
0100
0010
,
1001
0001
0110
0101
1100
0010
0001
1100
,
0010
0000
0110
0000
0100
0000
0101
0000
1001
0000
0010
0001
1100
0000
0110
0000
,
1001
0010
0101
0010
1100
0101
1100
0101
,
0010
0000
0001
0100
1010
0000
0101
0000
0110
0000
0110
0000
1100
0000
0101
0000
,
1001
0000
0010
0000
0101
0000
1100
0000
1001
0000
0010
0000
0001
0100
1010
0000
,
0100
1001
0100
1001
1001
0010
0101
1100
,
0110
1001
1100
0010
0101
1001
0110
0101
,
1001
0000
0110
0000
0101
0000
1100
0000
1001
0010
0100
1000
0001
0010
0100
1000
,
0012
0003
2100
3000
0010
0000
2001
3000
0100
0000
0120
0030
0001
0000
2100
0000
,
0010
0001
3100
0010
1000
0100
1000
0010
,
2001
3000
0100
0000
0012
0003
1200
0300
0010
0000
1002
0003
0100
0000
2001
0000
,
0010
0001
0100
0010
3001
0100
0010
1000
,
0102
0003
1200
0300
0010
0000
1002
0003
0100
0000
0120
0030
1001
0000
2100
0000
,
0010
0000
0001
0000
0100
0000
0010
3000
1001
0000
0001
0000
1100
0011
1100
0011
,
2100
0000
3000
0000
0010
0000
0000
0000
0120
0000
0030
0000
0102
0000
0003
0000
0010
0000
0000
0000
2100
0000
3000
0000
0010
0000
0000
0000
0012
0100
1000
0010
,
0100
0010
0100
0010
0100
0010
0100
0010
0100
0010
0100
0010
0103
0010
0100
0010
,
1001
0000
0000
0000
;
