#TITLE:Collection of Butchery;
#SUBTITLE:Collection of Butchery (2003);
#ARTIST:Putrid Pile;
#TITLETRANSLIT:;
#SUBTITLETRANSLIT:;
#ARTISTTRANSLIT:;
#CREDIT:;
#BANNER:Collectionofbutchery-banner.png;
#BACKGROUND:Collectionofbutchery-bg.png;
#LYRICSPATH:;
#CDTITLE:CDTitle.gif;
#MUSIC:04. Collection Of Butchery.mp3;
#OFFSET:-6.345;
#SAMPLESTART:39.500;
#SAMPLELENGTH:16.000;
#SELECTABLE:YES;
#BPMS:0.000=124.000,80.000=186.000,176.000=186.000,368.000=117.000,400.000=123.000,432.000=122.500,496.000=122.000;
#STOPS:;
#BGCHANGES:;
// cache tags:
#FIRSTBEAT:0.000;
#LASTBEAT:527.667;
#SONGFILENAME:Songs/Astronomic Metal Collection 2/(Charlo) Collection of Butchery/Collection of Butchery.sm;
#HASMUSIC:1;
#HASBANNER:1;
#MUSICLENGTH:218.935;
// end cache tags

//---------------dance-single - Blank----------------
#NOTES:
     dance-single:
     Blank:
     Hard:
     12:
     1.000,1.000,1.000,1.000,1.000,1428.000,396.000,264.000,0.000,0.000:
0001
1000
0001
1000
0001
1000
0010
0100
0010
0100
0010
0100
0002
0000
2003
0000
3020
0000
0230
0000
0320
0000
2030
0000
,
3100
1000
0100
1000
0100
1000
0100
1000
0100
1000
0100
1000
0020
0000
0230
0000
0302
0000
0023
0000
0000
0000
0000
0030
,
0001
0100
0001
0100
0001
0100
0010
1000
0010
1000
0010
1000
0200
0000
2300
0000
3020
0000
0230
0000
0320
0000
2030
0000
,
3001
0010
0001
0010
0001
0010
0001
0010
0001
0010
0001
0010
0200
0000
2300
0000
3002
0000
0023
0000
0000
0000
0000
0030
,
0100
1000
0100
1000
0100
1000
0001
1000
0001
1000
0001
1000
0020
0000
0230
0000
0302
0000
0203
0000
0320
0000
2030
0000
,
3100
0010
0100
0010
0100
0010
0100
0010
0100
0010
0100
0010
0200
0000
2300
0000
3002
0000
0203
0000
0000
0000
0000
0300
,
0001
0100
0001
0100
0001
0100
0010
0100
0010
0100
0010
0100
0002
0000
2003
0000
3020
0000
2030
0000
3002
0000
0203
0000
,
0301
1000
0001
1000
0001
1000
0001
1000
0001
1000
0001
1000
0020
0000
0230
0000
0320
0000
2030
0000
0000
0000
0000
3000
,
0110
0101
1010
0110
0000
1001
1100
0000
0011
0110
1100
0101
,
0110
1100
1010
0110
0000
0101
1010
0110
1100
0101
0110
1010
,
1001
0101
1100
0011
0000
0101
0011
0000
1010
0110
1001
1010
,
0110
1010
1100
1001
0000
0101
0011
1001
0101
0011
0110
1100
,
1001
0100
0010
0100
1000
0001
0100
0010
0100
0001
0010
0100
2000
0000
3020
0000
0230
0000
0320
0000
2030
0000
3200
0000
,
0310
0001
1000
0010
1000
0001
0010
0100
0010
0001
1000
0010
0200
0000
0302
0000
0023
0000
0032
0000
0000
0000
0000
0000
,
1003
0010
0100
0010
1000
0100
1000
0001
0100
0001
0010
0100
2000
0000
3020
0000
0230
0000
0320
0000
2030
0000
3002
0000
,
0103
0010
1000
0010
0100
0001
0010
0100
0010
0001
1000
0010
0200
0000
0320
0000
2030
0000
3002
0000
0000
0000
0000
0000
,
1003
0100
0010
0001
1000
0001
0010
0100
1000
0010
1000
0100
0020
0000
0032
0000
0023
0000
0230
0000
2300
0000
3002
0000
,
0103
0010
1000
0100
1000
0010
0100
0001
0010
0001
1000
0010
2000
0000
3200
0000
0320
0000
0230
0000
0000
0000
0000
0000
,
1300
0001
0010
0100
0010
0001
1000
0100
0010
0100
1000
0001
0200
0000
0320
0000
2030
0000
3020
0000
0230
0000
0302
0000
,
0103
0010
1000
0100
1000
0010
0100
0001
0010
0100
1000
0001
0020
0000
0230
0000
0320
0000
0230
0000
0000
0000
0000
0300
,
1001
0101
1010
0110
1001
0011
1100
0000
,
0000
0110
1001
0101
1100
0000
0011
1001
,
0101
1100
1010
0110
0101
1010
0110
0000
,
1001
0000
1001
0000
2020
0000
0000
3030
,
0011
1100
1010
0101
1001
0110
1100
0000
,
0000
0101
0011
1100
1010
0000
0110
1100
,
1010
0110
1010
0101
0011
0110
0011
0000
,
0101
0000
0101
0000
0210
2000
0000
3300
,
1010
0110
0101
1010
0110
1010
0011
0000
,
0000
0101
1010
0110
1001
0000
0101
1010
,
0110
1100
0011
0110
1001
0101
1100
0000
,
0110
0000
0110
0000
0022
0000
0000
0033
,
1001
0110
1100
1010
0101
0011
0110
0000
,
0000
1010
0110
0011
1001
0000
1010
0110
,
0011
1010
0110
1001
0101
1010
0110
0000
,
1001
0000
1001
0000
2100
0020
0000
3030
,
0102
0000
0000
1000
0100
0000
0203
1000
,
0320
0000
2030
0100
3002
0000
0203
0000
,
0320
0000
0000
1000
0032
0000
2003
0100
,
3020
0100
0000
0100
0001
0100
0001
0130
,
2001
0000
0000
0001
0010
0000
3020
0001
,
0230
0000
0302
0010
2003
0000
3020
0000
,
0230
0000
0000
0010
2300
3020
0032
1000
,
0023
1000
0000
0001
0230
0001
1000
0300
,
1010
0001
0100
0010
0100
0001
0010
0100
1000
0010
0100
0001
1010
0000
0000
0000
,
0000
0000
0110
0001
1000
0010
0100
0010
1000
0100
0010
0100
1000
0001
0100
0010
,
0100
0001
0010
0100
1000
0010
0100
0001
0010
0100
0010
0001
0110
0000
0000
0000
,
1010
0000
1010
0000
0220
0000
0000
0330
,
1100
0010
0001
0100
0010
0100
0001
0010
0100
1000
0001
1000
0110
0000
0000
0000
,
0000
0000
1010
0100
0010
0001
0100
0010
0100
0001
0010
0100
0010
0001
1000
0001
,
0100
0010
0100
0001
1000
0100
0010
0001
1000
0001
0010
0100
1001
0000
0000
0000
,
0011
0000
0011
0000
2010
0002
0000
3003
,
0110
0001
1000
0010
0100
0010
1000
0100
1000
0001
0100
0001
0110
0000
0000
0000
,
0000
0000
0011
0100
1000
0010
0100
0010
1000
0100
0010
0100
1000
0001
0100
0010
,
0100
0001
0010
0100
0010
0001
1000
0100
0010
0100
1000
0001
1010
0000
0000
0000
,
0110
0000
0110
0000
2002
0000
0000
3003
,
0101
0010
0100
1000
0010
0100
0010
1000
0100
1000
0001
0100
0011
0000
0000
0000
,
0000
0000
0110
0001
1000
0010
0100
0010
1000
0001
0010
0001
1000
0100
1000
0001
,
0100
0001
1000
0010
1000
0001
0010
0100
1000
0001
0010
0001
1100
0000
0000
0000
,
0101
0000
0101
0000
0120
2000
0000
3030
,
1002
0000
0000
0010
0100
0000
2003
0100
,
3020
0000
0032
0100
2003
0000
3020
0000
,
0230
0000
0000
0001
0320
0000
2030
0100
,
3002
0100
0000
0100
0010
0100
0010
1003
,
0210
0000
0000
0001
1000
0000
0320
0001
,
2030
0000
3002
1000
0203
0000
0320
0000
,
2030
0000
0000
0100
3002
0023
0230
1000
,
0302
1000
0000
0010
2003
0010
0001
3010
,
0201
0000
0000
0010
1000
0000
0320
0001
,
2030
0000
3002
0010
0203
0000
0320
0000
,
0032
0000
0000
0100
2003
0000
3020
0001
,
0230
0001
0000
0010
1000
0010
1000
0301
,
2100
0000
0000
0100
0010
0000
3002
0010
,
0203
0000
0320
0001
2030
0000
3200
0000
,
2300
0000
0000
0010
3002
0203
2300
0001
,
3020
0001
0000
0100
0032
0100
1000
0103
,
1100
0010
0001
0100
0010
0100
0001
0010
0100
1000
0010
0100
0011
0000
0000
0000
,
0000
0000
0110
1000
0001
0100
0010
1000
0100
0010
0100
1000
0001
0100
0010
0100
,
0001
0010
0001
1000
0010
1000
0001
0100
0010
1000
0010
0100
1001
0000
0000
0000
,
0101
0000
0101
0000
2200
0000
0000
3300
,
0011
0100
1000
0010
0100
0010
1000
0100
1000
0001
0010
0100
1010
0000
0000
0000
,
0000
0000
0011
1000
0010
0100
0010
1000
0100
0010
0001
0100
0001
0010
0100
1000
,
0001
0010
0001
1000
0100
0010
0001
0100
0010
1000
0100
0010
1100
0000
0000
0000
,
1001
0000
1001
0000
0201
0020
0000
0330
,
1001
0010
0100
0010
0001
0100
0010
0100
0001
0010
0100
0010
0101
0000
0000
0000
,
0000
0000
1100
0010
0001
0100
0010
0100
0001
0010
0100
0010
0001
1000
0010
0100
,
0010
1000
0001
0010
0100
1000
0100
0010
0001
1000
0010
0100
1001
0000
0000
0000
,
1100
0000
1100
0000
2020
0000
0000
3030
,
0110
1000
0001
0100
0001
0010
0100
1000
0010
0100
0001
1000
0110
0000
0000
0000
,
0000
0000
1100
0010
0001
0100
0010
0100
0001
0010
0100
1000
0001
1000
0010
1000
,
0100
0010
0100
1000
0001
0100
0010
0100
0001
0010
0100
1000
0110
0000
0000
0000
,
0101
0000
0101
0000
0120
2000
0000
3030
,
1001
0000
0010
0100
1001
0000
0100
0010
0001
1000
0010
1000
0200
2300
3020
0230
,
0302
0013
2002
3003
0100
0010
0001
0100
0010
0100
0001
0010
0100
0100
0100
1000
,
0001
0010
0002
0003
1000
0010
1000
0100
0010
0100
1000
0001
0200
0320
2030
3200
,
0320
0130
1001
0000
0100
0010
0001
0010
0200
0000
2300
0000
3002
0000
0203
0300
,
0011
0000
1000
0010
1100
0000
0001
0100
0010
1000
0100
1000
0020
0230
0302
0023
,
0230
0310
1100
0000
0001
0100
0010
1000
0001
0100
0010
0100
0001
0001
0001
0100
,
0010
1000
0020
0030
0100
0001
0100
0010
1000
0100
0010
0001
0020
0230
2300
3200
,
0320
0031
1010
0000
0001
0010
0100
1000
0020
0000
0230
0000
0302
0000
0023
0030
,
1100
0011
1001
0110
0000
0000
0011
0000
0000
1100
0000
0000
1001
0110
0011
1100
0000
0000
1100
0000
0000
0110
0000
0000
,
1010
1100
1010
0101
0000
0000
1010
0000
0000
0110
0000
0000
1001
1010
0110
0011
0000
0000
0110
0000
0000
1100
0000
0000
,
0102
0000
0000
0003
0000
0000
1010
0000
0000
0000
0000
0000
0110
0000
0000
0000
0000
0000
0011
0000
0000
0000
0000
0000
1010
0000
0110
0000
1100
0000
1001
0000
0000
0000
0000
0000
0101
0000
0000
0000
0000
0000
1001
0000
0000
0000
0000
0000
,
0101
0110
1100
0011
0000
0000
1100
0000
0000
1010
0000
0000
1001
1010
1001
1100
0000
0000
0101
0000
0000
0110
0000
0000
,
2100
0000
0000
3000
0000
0000
0110
0000
0000
0000
0000
0000
1001
0000
0000
0000
0000
0000
1010
0000
0000
0000
0000
0000
0110
0000
0011
0000
0110
0000
1100
0000
0000
0000
0000
0000
0110
0000
0000
0000
0000
0000
1001
0000
0000
0000
0000
0000
,
0101
1010
0011
1001
0000
0000
0110
0000
0000
1100
0000
0000
0110
1100
0110
0101
0000
0000
1001
0000
0000
1010
0000
0000
,
0201
0000
0000
0300
0000
0000
0110
0000
0000
0000
0000
0000
1001
0000
0000
0000
0000
0000
0101
0000
0000
0000
0000
0000
0011
0000
1100
0000
1010
0000
1001
0000
0000
0000
0000
0000
0101
0000
0000
0000
0000
0000
1100
0000
0000
0000
0000
0000
,
0110
0011
0110
1010
0000
0000
0101
0000
0000
1010
0000
0000
0011
0110
1001
0110
0000
0000
1010
0000
0000
1001
0000
0000
,
1020
0000
0000
0000
0000
0030
0001
1000
0001
1000
0001
1000
0120
0000
0000
0000
0000
0030
1000
0100
1000
0100
1000
0100
,
1001
0101
0011
0110
1001
0110
1100
1001
0101
0011
0110
1001
,
1020
0000
0000
0000
0000
0030
0001
0100
0001
0100
0001
0100
2010
0000
0000
0000
0000
3000
0010
0100
0010
0100
0010
0100
,
0011
0110
1001
0101
0011
1100
0110
1100
1001
0110
1010
1001
,
0120
0000
0000
0000
0000
0030
1000
0001
1000
0001
1000
0001
1200
0000
0000
0000
0000
0300
0010
0001
0010
0001
0010
0001
,
1010
1100
1010
0110
1001
0101
0011
0110
1100
1001
0110
1001
,
2010
0000
0000
0000
0000
3000
0100
0001
0100
0001
0100
0001
1200
0000
0000
0000
0000
0300
0010
1000
0010
1000
0010
1000
,
0011
0101
0011
1100
0110
1001
0101
1100
0110
1001
0101
0110
,
0012
0100
1000
0100
0010
0103
2010
0001
0100
0010
0100
3001
,
0210
0001
1000
0010
1000
0301
1010
0101
1010
0101
0110
1100
,
1020
0100
1000
0001
0100
0031
1100
0210
0001
0010
0001
1300
,
0011
1002
0010
0100
0010
1003
0110
0101
1100
0110
1100
0011
,
2010
0001
0100
0010
0100
3001
0110
1200
0010
1000
0001
0310
,
1001
0021
0100
1000
0001
1030
0110
1010
0101
1100
1001
0101
,
2100
0010
0001
0010
0100
3001
0110
0201
0010
0001
0010
1300
,
1010
0012
0100
0010
0100
1003
0110
1001
0101
0011
1100
0110
,
0001
1000
0001
1000
0001
1000
0010
0100
0010
0100
0010
0100
0002
0000
0203
0000
0320
0000
2030
0000
3200
0000
2300
0000
,
3001
0100
0001
0100
0001
0100
0001
0100
0001
0100
0001
0100
0020
0000
0230
0000
0302
0000
0023
0000
0000
0000
0000
0030
,
1000
0100
1000
0100
1000
0100
1000
0010
1000
0010
1000
0010
2000
0000
3200
0000
0320
0000
0230
0000
0320
0000
0032
0003
,
0100
0010
0100
0010
0100
0010
0100
0010
0100
0010
0100
0010
2000
0000
3002
0000
0203
0000
0302
0000
0000
0000
0000
0003
,
0010
0100
0010
0100
0010
0100
1000
0100
1000
0100
1000
0100
2000
0000
3020
0000
0230
0000
0320
0000
2030
0000
3200
0300
,
0010
0001
0010
0001
0010
0001
0010
0001
0010
0001
0010
0001
0020
0000
0230
0000
2300
0000
3002
0000
0000
0000
0000
0003
,
0100
0010
0100
0010
0100
0010
1000
0001
1000
0001
1000
0001
2000
0000
3200
0000
0320
0000
0032
0000
0203
0000
0320
0030
,
1000
0001
1000
0001
1000
0001
1000
0001
1000
0001
1000
0001
2000
0000
3020
0000
0230
0300
1001
0000
1001
0000
1001
0000
;
