#TITLE:Koopa Bros. Battle;
#SUBTITLE:(From Paper Mario);
#ARTIST:Yuka Tsujiyoko;
#TITLETRANSLIT:;
#SUBTITLETRANSLIT:;
#ARTISTTRANSLIT:;
#CREDIT:Nintendo(Intelligent Systems);
#BANNER:Koopa Bros. Battle-banner.JPG;
#BACKGROUND:Koopa Bros. Battle-bg.JPG;
#LYRICSPATH:;
#CDTITLE:PhoenixW-cdtitle.JPG;
#MUSIC:21 Track 21.mp3;
#OFFSET:-0.692;
#SAMPLESTART:38.451;
#SAMPLELENGTH:12.000;
#SELECTABLE:YES;
#BPMS:0.000=158.901;
#STOPS:;
#BGCHANGES:;
// cache tags:
#FIRSTBEAT:0.500;
#LASTBEAT:336.000;
#SONGFILENAME:Songs/dragon force/Koopa Bros. Battle(Paper Mario)/21 Track 21.sm;
#HASMUSIC:1;
#HASBANNER:1;
#MUSICLENGTH:135.910;
// end cache tags

//---------------dance-single - ----------------
#NOTES:
     dance-single:
     :
     Challenge:
     9:
     0.753,0.803,0.721,0.059,0.265,610.000,98.000,8.000,0.000,2.000:
0000
1000
0100
0010
0001
1000
0100
0010
,
0001
0010
1000
0100
0010
0001
0100
0010
,
1000
0001
1000
0001
0010
0001
0100
0010
,
0100
1000
0100
0010
0001
1000
0010
0001
,
0010
1000
0010
0100
1000
0001
0010
0100
,
0010
0001
1000
0100
0001
0010
0001
0100
,
1000
0100
0010
0100
0001
0100
0010
1000
,
0100
0010
0001
1000
0010
0100
0010
1000
,
0001
0100
0010
0100
0001
0010
1000
0010
,
0001
1000
0001
1000
0001
0010
0100
0010
,
0100
1001
0000
0110
0000
1100
1100
0000
,
1000
0110
0000
1001
0000
0011
0011
0000
,
0000
0220
0000
0000
0000
0000
0000
0000
,
0001
0000
0330
0000
1000
0100
1000
0010
0100
0001
0010
0100
1000
0001
0010
0001
,
1000
0010
1001
0000
0001
0000
0010
0000
0001
0000
0100
0000
0010
0000
1000
0000
,
0100
0000
0001
0000
0100
0000
1000
0000
0010
0000
1000
0000
0100
0000
0010
0001
,
1000
0000
0001
0100
0001
0010
0100
1000
,
0100
0000
0001
0000
0100
0000
1000
0000
0001
0000
1000
0000
0010
0000
0100
0001
,
0010
0000
0100
0010
0100
1000
0010
0100
,
1000
0000
0100
0000
0001
0000
0010
0000
0100
0000
0010
0000
0001
0000
0100
0010
,
1000
0000
0000
0001
1000
0010
1000
0000
0100
0000
0010
0000
0001
0000
1000
0000
,
0001
0000
0100
0000
1000
0000
0100
0000
0001
0000
0010
0000
0100
0000
1000
0010
,
0100
0000
0000
0001
0000
1000
0010
0000
0100
0000
0001
0000
1000
0000
0000
0000
,
0001
0000
1000
0000
0100
0000
0010
0000
0100
0000
0000
0000
1000
0010
0100
0010
,
0000
0000
1000
0010
0100
0000
0001
0000
1000
0000
0010
0000
0001
0000
0010
0000
,
1000
1010
0000
0101
0000
0110
0000
1001
,
0000
1000
0010
0100
0001
0010
0100
1000
,
0100
0000
0000
0000
1001
0000
0011
0000
0101
0000
1001
0000
0110
0000
1001
0001
,
0010
0100
0010
0000
0001
0000
0000
0000
0000
0000
1000
0000
0000
0000
0000
0000
,
1100
0000
0110
0000
0011
0000
1001
1000
0100
0000
0010
0001
1000
0100
1000
0000
,
0000
0000
0000
0000
0000
0000
0101
0000
0011
0000
0001
1000
0010
0100
0010
1000
,
0001
0000
1001
0100
1000
0010
0000
0000
0000
0000
0000
0000
0000
0000
0000
0000
,
0000
1010
0110
1001
0011
0110
0101
1001
,
1100
0110
1001
1001
1001
0100
0100
0000
,
0000
1000
0010
1000
0001
0010
0100
0000
,
0010
0001
0000
1000
0010
0000
0100
0000
0001
0000
0000
0000
1000
0010
0000
1000
,
0000
0001
0100
0001
1000
0100
0001
0100
,
1000
0010
1100
1010
1100
1001
0011
0101
,
0011
2002
0000
3003
0000
0000
1000
0000
,
0001
0010
0000
0000
0000
0000
0000
0000
0001
0000
0000
0000
1000
0000
0000
0000
,
0000
0000
0000
0000
1000
0000
0000
0000
0010
0000
0000
0000
0000
0100
0010
0000
,
0100
0000
0000
0000
0010
0100
0000
0010
0000
0000
0000
0000
0110
0000
0000
0000
,
1001
0001
0010
0100
1000
0001
0010
0100
,
1000
0100
0001
0010
0100
1000
0010
0100
,
0001
1000
0001
1000
0100
1000
0010
0100
,
0010
0001
0010
0100
1000
0001
0100
1000
,
0100
0001
0100
0010
0001
1000
0100
0010
,
0100
1000
0001
0010
1000
0100
1000
0010
,
0001
0010
0100
0010
1000
0010
0100
0001
,
0010
0100
1000
0001
0100
0010
0100
0001
,
1000
0010
0100
0010
1000
0100
0001
0100
,
1000
0001
1000
0001
1000
0100
0010
0100
,
0010
1001
0000
0110
0000
0011
0011
0000
,
0001
0110
0000
1001
0000
1100
1100
0000
,
0000
2002
0000
0000
0000
0000
0000
0000
,
0100
0000
3003
0000
0001
0010
0001
0100
0010
1000
0100
0010
0001
1000
0100
1000
,
0001
0100
1001
0000
1000
0000
0100
0000
1000
0000
0010
0000
0100
0000
0001
0000
,
0010
0000
1000
0000
0010
0000
0001
0000
0100
0000
0001
0000
0010
0000
0100
1000
,
0001
0000
1000
0010
1000
0100
0010
0001
,
0010
0000
1000
0000
0010
0000
0001
0000
1000
0000
0001
0000
0100
0000
0010
1000
,
0100
0000
0010
0100
0010
0001
0100
0010
,
0001
0000
0010
0000
1000
0000
0100
0000
0010
0000
0100
0000
1000
0000
0010
0100
,
0001
0000
0000
1000
0001
0100
0001
0000
0010
0000
0100
0000
1000
0000
0001
0000
,
1000
0000
0010
0000
0001
0000
0010
0000
1000
0000
0100
0000
0010
0000
0001
0100
,
0010
0000
0000
1000
0000
0001
0100
0000
0010
0000
1000
0000
0001
0000
0000
0000
,
1000
0000
0001
0000
0010
0000
0100
0000
0010
0000
0000
0000
0001
0100
0010
0100
,
0000
0000
0001
0100
0010
0000
1000
0000
0001
0000
0100
0000
1000
0000
0100
0000
,
0001
0101
0000
1010
0000
0110
0000
1001
,
0000
0001
0100
0010
1000
0100
0010
0001
,
0010
0000
0000
0000
1001
0000
1100
0000
1010
0000
1001
0000
0110
0000
1001
1000
,
0100
0010
0100
0000
1000
0000
0000
0000
0000
0000
0001
0000
0000
0000
0000
0000
,
0011
0000
0110
0000
1100
0000
1001
0001
0010
0000
0100
1000
0001
0010
0001
0000
,
0000
0000
0000
0000
0000
0000
1010
0000
1100
0000
1000
0001
0100
0010
0100
0001
,
1000
0000
1001
0010
0001
0100
0000
0000
0000
0000
0000
0000
0000
0000
0000
0000
,
0000
0101
0110
1001
1100
0110
1010
1001
,
0011
0110
1001
1001
1001
0010
0010
0000
,
0000
0001
0100
0001
1000
0100
0010
0000
,
0100
1000
0000
0001
0100
0000
0010
0000
1000
0000
0000
0000
0001
0100
0000
0001
,
0000
1000
0010
1000
0001
0010
1000
0010
,
0001
0100
0011
0101
0011
1001
1100
1010
,
1100
2002
0000
3003
0000
0000
0001
0000
,
1000
0100
0000
0000
0000
0000
0000
0000
1000
0000
0000
0000
0001
0000
0000
0000
,
0000
0000
0000
0000
0001
0000
0000
0000
0100
0000
0000
0000
0000
0010
0100
0000
,
0010
0000
0000
0000
0100
0010
0000
0100
0000
0000
0000
0000
1001
0000
0000
0000
,
0110
0000
0000
0000
;

//---------------dance-single - ----------------
#NOTES:
     dance-single:
     :
     Hard:
     9:
     0.639,0.711,0.515,0.221,0.265,508.000,70.000,30.000,0.000,6.000:
0000
1000
0100
0010
0001
1000
0100
0010
,
0001
0010
1000
0100
0010
0001
0100
0010
,
1000
0002
0000
0000
0000
0000
0000
0000
,
0000
0223
0000
0000
0000
0000
0000
0000
,
0000
1330
0000
0020
0000
0000
1000
0000
,
0200
0000
0000
0000
0000
0030
0000
0000
,
0300
2002
0000
0000
0000
3003
0100
0000
,
2020
0000
0000
0000
,
3030
0101
0000
0220
0000
0000
0000
0000
,
0000
0000
0000
0000
0000
0000
0330
1000
,
1000
1001
0000
0110
0000
1100
1100
0000
,
1000
0110
0000
1001
0000
0011
0011
0000
,
0000
0220
0000
0000
0000
0000
0000
0000
,
0001
0000
0330
0000
1000
0100
1000
0100
1000
0001
0010
0100
1000
0001
0010
0001
,
0010
0001
1001
0000
0001
0000
0010
0000
0001
0000
0100
0000
0010
0000
1000
0000
,
0100
0000
0001
0000
0100
0000
1000
0000
0010
0000
1000
0000
0100
0000
0010
0001
,
1000
0000
0001
0100
0001
0010
0100
1000
,
0100
0000
0001
0000
0100
0000
1000
0000
0001
0000
1000
0000
0010
0000
0100
0001
,
0010
0000
0100
0010
0100
1000
0010
0100
,
1000
0000
0100
0000
0001
0000
0010
0000
0100
0000
0010
0000
0001
0000
0100
0010
,
1000
0000
0000
0001
1000
0010
1000
0000
0100
0000
0010
0000
0001
0000
1000
0000
,
0001
0000
0100
0000
1000
0000
0100
0000
0001
0000
0010
0000
0100
0000
1000
0010
,
0100
0000
0000
0001
0000
1000
0010
0000
0100
0000
0001
0000
1000
0000
0000
0000
,
0001
0000
1000
0000
0100
0000
0010
0000
0100
0000
0000
0000
1000
0010
0100
0010
,
0000
0000
1000
0010
0100
0000
0001
0000
1000
0000
0010
0000
0001
0000
0010
0000
,
1000
1010
0000
0101
0000
0110
0000
1001
,
0000
1000
0010
0100
0001
0010
0100
1000
,
0100
0000
0000
0000
1001
0000
0011
0000
0100
0000
0010
0000
0001
0000
1000
0001
,
0010
0100
0010
0000
0101
0000
0000
0000
0000
0000
1010
0000
0000
0000
0000
0000
,
1000
0000
0010
0000
0010
0000
0100
0001
0100
0000
0010
1000
0001
1000
0001
0000
,
0000
0000
0000
0000
0000
0000
0101
0000
0010
0000
0001
1000
0010
0100
0010
1000
,
0001
0000
1001
0100
1000
0010
0000
0000
0000
0000
0000
0000
0000
0000
0000
0000
,
0000
1000
0010
0001
0010
0100
0001
1000
,
0100
0010
0001
1000
0001
0100
0100
0000
,
0000
1000
0010
1000
0001
0010
0100
0000
,
0010
0001
0000
1000
0010
0000
0100
0000
0001
0000
0000
0000
1000
0010
0000
1000
,
0000
0001
0100
0001
1000
0100
0001
0100
,
1000
0010
1100
1100
1010
1001
0101
0101
,
0011
2002
0000
3003
0000
0000
1000
0000
,
0001
0010
0000
0000
0000
0000
0000
0000
0001
0000
0000
0000
1000
0000
0000
0000
,
0000
0000
0000
0000
1000
0000
0000
0000
0010
0000
0000
0000
0000
0100
0010
0000
,
0100
0000
0000
0000
0010
0100
0000
0010
0000
0000
0000
0000
0110
0000
0000
0000
,
1001
0001
0010
0100
1000
0001
0010
0100
,
1000
0100
0001
0010
0100
1000
0010
0100
,
0001
2000
0000
0000
0000
0000
0000
0000
,
0000
3220
0000
0000
0000
0000
0000
0000
,
0000
0331
0000
0200
0000
0000
0001
0000
,
0020
0000
0000
0000
0000
0300
0000
0000
,
0030
2002
0000
0000
0000
3003
0010
0000
,
0202
0000
0000
0000
,
0303
1010
0000
0220
0000
0000
0000
0000
,
0000
0000
0000
0000
0000
0000
0330
0001
,
0001
1001
0000
0110
0000
0011
0011
0000
,
0001
0110
0000
1001
0000
1100
1100
0000
,
0000
0220
0000
0000
0000
0000
0000
0000
,
1000
0000
0330
0000
0001
0010
0001
0010
0001
1000
0100
0010
0001
1000
0100
1000
,
0100
1000
1001
0000
1000
0000
0100
0000
1000
0000
0010
0000
0100
0000
0001
0000
,
0010
0000
1000
0000
0010
0000
0001
0000
0100
0000
0001
0000
0010
0000
0100
1000
,
0001
0000
1000
0010
1000
0100
0010
0001
,
0010
0000
1000
0000
0010
0000
0001
0000
1000
0000
0001
0000
0100
0000
0010
1000
,
0100
0000
0010
0100
0010
0001
0100
0010
,
0001
0000
0010
0000
1000
0000
0100
0000
0010
0000
0100
0000
1000
0000
0010
0100
,
0001
0000
0000
1000
0001
0100
0001
0000
0010
0000
0100
0000
1000
0000
0001
0000
,
1000
0000
0010
0000
0001
0000
0010
0000
1000
0000
0100
0000
0010
0000
0001
0100
,
0010
0000
0000
1000
0000
0001
0100
0000
0010
0000
1000
0000
0001
0000
0000
0000
,
1000
0000
0001
0000
0010
0000
0100
0000
0010
0000
0000
0000
0001
0100
0010
0100
,
0000
0000
0001
0100
0010
0000
1000
0000
0001
0000
0100
0000
1000
0000
0100
0000
,
0001
0101
0000
1010
0000
0110
0000
1001
,
0000
0001
0100
0010
1000
0100
0010
0001
,
0010
0000
0000
0000
1001
0000
1100
0000
0010
0000
0100
0000
1000
0000
0001
1000
,
0100
0010
0100
0000
1010
0000
0000
0000
0000
0000
0101
0000
0000
0000
0000
0000
,
0001
0000
0100
0000
0100
0000
0010
1000
0010
0000
0100
0001
1000
0001
1000
0000
,
0000
0000
0000
0000
0000
0000
1010
0000
0100
0000
1000
0001
0100
0010
0100
0001
,
1000
0000
1001
0010
0001
0100
0000
0000
0000
0000
0000
0000
0000
0000
0000
0000
,
0000
0001
0100
1000
0100
0010
1000
0001
,
0010
0100
1000
0001
1000
0010
0010
0000
,
0000
0001
0100
0001
1000
0100
0010
0000
,
0100
1000
0000
0001
0100
0000
0010
0000
1000
0000
0000
0000
0001
0100
0000
0001
,
0000
1000
0010
1000
0001
0010
1000
0010
,
0001
0100
0011
0011
0101
1001
1010
1010
,
1100
2002
0000
3003
0000
0000
0001
0000
,
1000
0100
0000
0000
0000
0000
0000
0000
1000
0000
0000
0000
0001
0000
0000
0000
,
0000
0000
0000
0000
0001
0000
0000
0000
0100
0000
0000
0000
0000
0010
0100
0000
,
0010
0000
0000
0000
0100
0010
0000
0100
0000
0000
0000
0000
1001
0000
0000
0000
,
0110
0000
0000
0000
;

//---------------dance-single - ----------------
#NOTES:
     dance-single:
     :
     Medium:
     8:
     0.601,0.587,0.471,0.221,0.206,478.000,64.000,30.000,0.000,6.000:
0000
1000
0100
0010
0001
1000
0100
0010
,
0001
0001
0010
0100
1000
0001
0010
0100
,
1000
0002
0000
0000
0000
0000
0000
0000
,
0000
0223
0000
0000
0000
0000
0000
0000
,
0000
1330
0000
0020
0000
0000
1000
0000
,
0200
0000
0000
0000
0000
0030
0000
0000
,
0300
2002
0000
0000
0000
3003
0100
0000
,
2020
0000
0000
0000
,
3030
0101
0000
0220
0000
0000
0000
0000
,
0000
0000
0000
0000
0000
0000
0330
1000
,
1000
1001
0000
0110
0000
1000
1100
0000
,
1000
0110
0000
1001
0000
0001
0011
0000
,
0000
0220
0000
0000
0000
0000
0000
0000
,
0001
0000
0330
0000
1000
0100
1000
0000
0100
0010
0001
0010
0001
0000
0010
0000
,
0001
1001
1000
0100
1000
0010
0100
0001
,
0010
0000
0001
0000
1000
0000
0010
0000
0100
0000
0001
0000
0100
0000
0000
0010
,
1000
0000
0001
0100
0001
0010
0100
1000
,
0010
0000
1000
0000
0100
0000
0010
0000
0001
0000
1000
0000
0001
0000
0000
1000
,
0010
0000
0100
0010
0100
0001
0010
0100
,
1000
0000
0100
0000
0001
0000
0010
0000
1000
0000
0100
0000
1000
0000
0000
0001
,
0010
0000
0000
0001
1000
0000
1000
0000
0100
0000
0010
0000
0001
0000
1000
0000
,
0001
0000
0100
0000
1000
0000
0100
0000
0001
0000
0010
0000
0100
0000
0000
0010
,
0100
0000
0000
1000
0000
0001
0010
0000
0100
0000
1000
0000
0001
0000
0000
0000
,
0001
0000
1000
0000
0100
0000
0010
0000
0100
0000
0000
0000
1000
0000
0100
0010
,
0000
0000
0000
0010
0100
0000
0001
0000
1000
0000
0010
0000
0001
0000
0010
0000
,
1000
1010
0000
0101
0000
0110
0000
1001
,
0000
1000
0010
0100
0001
0010
0100
1000
,
0100
0000
0000
0000
1001
0000
0011
0000
0100
0000
0010
0000
0001
0000
1000
0001
,
0000
0100
0010
0000
0101
0000
0000
0000
0000
0000
1010
0000
0000
0000
0000
0000
,
1000
0000
0010
0000
0010
0000
0100
0001
0100
0000
0010
1000
0000
1000
0001
0000
,
0000
0000
0000
0000
0000
0000
0101
0000
0101
0000
1001
0000
0010
0000
0010
1000
,
0001
0000
1000
0100
1000
0010
0000
0000
0000
0000
0000
0000
0000
0000
0000
0000
,
0000
1000
0100
0010
0001
0100
0001
1000
,
0100
0010
0001
1000
0001
1100
0011
0000
,
0000
1000
0010
1000
0001
0010
0100
0000
,
0010
0001
0000
1000
0010
0000
0100
0000
0001
0000
0000
0000
1000
0010
0000
1000
,
0000
0001
0100
0001
1000
0100
0001
0100
,
1000
0010
1000
1000
1010
1001
0001
0001
,
0101
2002
0000
3003
0000
0000
1000
0000
,
0001
0010
0000
0000
0000
0000
0000
0000
0001
0000
0000
0000
1000
0000
0000
0000
,
0000
0000
0000
0000
1000
0000
0000
0000
0010
0000
0000
0000
0000
0100
0010
0000
,
0100
0000
0000
0000
0010
0100
0000
0010
0000
0000
0000
0000
0110
0000
0000
0000
,
1001
0001
0010
0100
1000
0001
0010
0100
,
1000
1000
0100
0010
0001
1000
0100
0010
,
0001
2000
0000
0000
0000
0000
0000
0000
,
0000
3220
0000
0000
0000
0000
0000
0000
,
0000
0331
0000
0200
0000
0000
0001
0000
,
0020
0000
0000
0000
0000
0300
0000
0000
,
0030
2002
0000
0000
0000
3003
0010
0000
,
0202
0000
0000
0000
,
0303
1010
0000
0220
0000
0000
0000
0000
,
0000
0000
0000
0000
0000
0000
0330
0001
,
0001
1001
0000
0110
0000
0001
0011
0000
,
0001
0110
0000
1001
0000
1000
1100
0000
,
0000
0220
0000
0000
0000
0000
0000
0000
,
1000
0000
0330
0000
0001
0010
0001
0000
0010
0100
1000
0100
1000
0000
0100
0000
,
1000
1001
0001
0010
0001
0100
0010
1000
,
0100
0000
1000
0000
0001
0000
0100
0000
0010
0000
1000
0000
0010
0000
0000
0100
,
0001
0000
1000
0010
1000
0100
0010
0001
,
0100
0000
0001
0000
0010
0000
0100
0000
1000
0000
0001
0000
1000
0000
0000
0001
,
0100
0000
0010
0100
0010
1000
0100
0010
,
0001
0000
0010
0000
1000
0000
0100
0000
0001
0000
0010
0000
0001
0000
0000
1000
,
0100
0000
0000
1000
0001
0000
0001
0000
0010
0000
0100
0000
1000
0000
0001
0000
,
1000
0000
0010
0000
0001
0000
0010
0000
1000
0000
0100
0000
0010
0000
0000
0100
,
0010
0000
0000
0001
0000
1000
0100
0000
0010
0000
0001
0000
1000
0000
0000
0000
,
1000
0000
0001
0000
0010
0000
0100
0000
0010
0000
0000
0000
0001
0000
0010
0100
,
0000
0000
0000
0100
0010
0000
1000
0000
0001
0000
0100
0000
1000
0000
0100
0000
,
0001
0101
0000
1010
0000
0110
0000
1001
,
0000
0001
0100
0010
1000
0100
0010
0001
,
0010
0000
0000
0000
1001
0000
1100
0000
0010
0000
0100
0000
1000
0000
0001
1000
,
0000
0010
0100
0000
1010
0000
0000
0000
0000
0000
0101
0000
0000
0000
0000
0000
,
0001
0000
0100
0000
0100
0000
0010
1000
0010
0000
0100
0001
0000
0001
1000
0000
,
0000
0000
0000
0000
0000
0000
1010
0000
1010
0000
1001
0000
0100
0000
0100
0001
,
1000
0000
0001
0010
0001
0100
0000
0000
0000
0000
0000
0000
0000
0000
0000
0000
,
0000
0001
0010
0100
1000
0010
1000
0001
,
0010
0100
1000
0001
1000
0011
1100
0000
,
0000
0001
0100
0001
1000
0100
0010
0000
,
0100
1000
0000
0001
0100
0000
0010
0000
1000
0000
0000
0000
0001
0100
0000
0001
,
0000
1000
0010
1000
0001
0010
1000
0010
,
0001
0100
0001
0001
0101
1001
1000
1000
,
1010
2002
0000
3003
0000
0000
0001
0000
,
1000
0100
0000
0000
0000
0000
0000
0000
1000
0000
0000
0000
0001
0000
0000
0000
,
0000
0000
0000
0000
0001
0000
0000
0000
0100
0000
0000
0000
0000
0010
0100
0000
,
0010
0000
0000
0000
0100
0010
0000
0100
0000
0000
0000
0000
1001
0000
0000
0000
,
0110
0000
0000
0000
;

//---------------dance-single - ----------------
#NOTES:
     dance-single:
     :
     Easy:
     5:
     0.364,0.556,0.574,0.383,0.044,216.000,78.000,52.000,0.000,6.000:
0000
1010
0000
1100
0000
1010
0000
1001
,
0000
0101
0000
0011
0000
0101
0000
0110
,
0000
1002
0000
0000
0000
0000
0000
0000
,
0000
0023
0000
0000
0000
0000
0000
0000
,
0000
1030
0000
0020
0000
0000
0001
0000
,
0200
0000
0000
0000
0000
0030
0000
0000
,
0300
2002
0000
0000
0000
3003
0100
0000
,
2020
0000
0000
0000
,
3030
0101
0000
0220
0000
0000
0000
0000
,
0000
0000
0000
0330
,
0000
1001
0000
0110
0000
1000
1000
0000
,
0000
0110
0000
1001
0000
0001
0001
0000
,
0000
0220
0000
0000
0000
0000
0000
0000
,
0001
0330
1000
0100
1000
0010
1000
0001
,
0010
0002
0000
0000
0000
0000
0000
0000
,
0000
0000
0000
0000
0003
2020
0000
0000
,
0030
3200
0000
0000
0000
0000
0000
0000
,
0000
0000
0000
0000
0000
0000
0320
2000
,
0030
3000
0100
0000
0100
0000
0100
0000
,
0100
0010
0001
1000
,
0100
0110
0101
0010
,
0010
1010
0000
0110
0000
0011
0000
1001
,
0000
1002
0000
0000
0000
0000
0000
0000
,
0103
0110
0010
0110
,
1010
1000
0001
1000
,
0000
1010
0000
0101
0000
0110
0000
1001
,
0000
0000
0000
0000
,
0000
0000
1000
0000
1000
0000
1000
0000
0010
0200
0000
0000
0000
0000
0000
0000
,
0300
0000
1010
0000
0000
0101
0000
0000
,
0000
0000
0001
0000
0001
0000
0001
0000
0010
0200
0000
0000
0000
0000
0000
0000
,
0300
2002
0000
0000
0000
0000
0000
0000
,
0000
0100
0000
0200
0000
0000
0300
0000
,
0000
0000
0000
0000
,
0000
0000
0000
0000
,
0000
0000
0000
0000
,
0000
0000
0000
0000
,
0000
0000
0000
0000
,
0000
3000
0100
1000
1000
0100
1000
1003
,
0001
2002
0000
3003
0000
0000
1000
0000
,
0001
0010
0000
0000
0000
0000
0000
0000
0001
0000
0000
0000
1000
0000
0000
0000
,
0000
0000
0000
0000
1000
0000
0000
0000
0010
0000
0000
0000
0000
0100
0010
0000
,
0100
0000
0000
0000
0010
0100
0000
0010
0000
0000
0000
0000
0110
0000
0000
0000
,
1001
0101
0000
0011
0000
0101
0000
1001
,
0000
1010
0000
1100
0000
1010
0000
0110
,
0000
2001
0000
0000
0000
0000
0000
0000
,
0000
3200
0000
0000
0000
0000
0000
0000
,
0000
0301
0000
0200
0000
0000
1000
0000
,
0020
0000
0000
0000
0000
0300
0000
0000
,
0030
2002
0000
0000
0000
3003
0010
0000
,
0202
0000
0000
0000
,
0303
1010
0000
0220
0000
0000
0000
0000
,
0000
0000
0000
0330
,
0000
1001
0000
0110
0000
0001
0001
0000
,
0000
0110
0000
1001
0000
1000
1000
0000
,
0000
0220
0000
0000
0000
0000
0000
0000
,
1000
0330
0001
0010
0001
0100
0001
1000
,
0100
2000
0000
0000
0000
0000
0000
0000
,
0000
0000
0000
0000
3000
0202
0000
0000
,
0300
0023
0000
0000
0000
0000
0000
0000
,
0000
0000
0000
0000
0000
0000
0230
0002
,
0300
0003
0010
0000
0010
0000
0010
0000
,
0010
0100
1000
0001
,
0010
0110
1010
0100
,
0100
0101
0000
0110
0000
1100
0000
1001
,
0000
2001
0000
0000
0000
0000
0000
0000
,
3010
0110
0100
0110
,
0101
0001
1000
0001
,
0000
0101
0000
1010
0000
0110
0000
1001
,
0000
0000
0000
0000
,
0000
0000
0001
0000
0001
0000
0001
0000
0100
0020
0000
0000
0000
0000
0000
0000
,
0030
0000
0101
0000
0000
1010
0000
0000
,
0000
0000
1000
0000
1000
0000
1000
0000
0100
0020
0000
0000
0000
0000
0000
0000
,
0030
2002
0000
0000
0000
0000
0000
0000
,
0000
0010
0000
0020
0000
0000
0030
0000
,
0000
0000
0000
0000
,
0000
0000
0000
0000
,
0000
0000
0000
0000
,
0000
0000
0000
0000
,
0000
0000
0000
0000
,
0000
0003
0010
0001
0001
0010
0001
3001
,
1000
2002
0000
3003
0000
0000
0001
0000
,
1000
0100
0000
0000
0000
0000
0000
0000
1000
0000
0000
0000
0001
0000
0000
0000
,
0000
0000
0000
0000
0001
0000
0000
0000
0100
0000
0000
0000
0000
0010
0100
0000
,
0010
0000
0000
0000
0100
0010
0000
0100
0000
0000
0000
0000
1001
0000
0000
0000
,
0110
0000
0000
0000
;
