#TITLE:Jaunt;
#SUBTITLE:(Midgaral Mix);
#ARTIST:DJ Wulf feat. 2 Gryphon;
#TITLETRANSLIT:;
#SUBTITLETRANSLIT:;
#ARTISTTRANSLIT:;
#CREDIT:;
#BANNER:jaunt.png;
#BACKGROUND:jaunt-bg.png;
#LYRICSPATH:;
#CDTITLE:;
#MUSIC:DJ Wulf vs. 2 Gryphon - Jaunt (Midgaral Mix).ogg;
#OFFSET:-6.328;
#SAMPLESTART:12.656;
#SAMPLELENGTH:25.288;
#SELECTABLE:YES;
#BPMS:0.000=152.000;
#STOPS:;
#BGCHANGES:;
// cache tags:
#FIRSTBEAT:0.000;
#LASTBEAT:279.000;
#SONGFILENAME:Songs/Rodd's Rad Christmas Pack/Jaunt (Midgaral Mix) (Rodd Steps)/Jaunt (Midgaral Mix) (Rodd Steps).sm;
#HASMUSIC:1;
#HASBANNER:1;
#MUSICLENGTH:119.956;
// end cache tags

//---------------dance-single - R. Farias----------------
#NOTES:
     dance-single:
     R. Farias:
     Challenge:
     12:
     1.000,0.959,0.008,0.100,1.000,862.000,1.000,12.000,14.000,0.000:

1000
0100
0010
0000
0001
0100
0010
0000
1000
0100
0010
0000
0001
0100
0010
0000
,
0100
0001
1000
0000
0001
1000
0001
0000
0100
0010
1000
0000
0001
1000
0001
0000
,
0100
0010
1000
0000
0100
0010
0001
0000
0100
0001
1000
0000
0100
0010
0001
0000
,
0100
0000
0000
0010
0000
0000
0000
0000
0000
0100
0000
0000
0010
0000
0000
1000
0000
0000
0000
0000
0000
0100
0000
0000
0010
0000
0001
0000
0010
0000
0001
0000
0000
0010
0000
0000
0001
0000
0000
0100
0000
0000
0010
0000
0000
1000
0000
0000
,
0001
0000
1000
0100
1000
0000
0100
1000
0100
0000
0010
0000
0001
0000
0100
0000
,
0010
1000
0010
0000
0100
0000
0010
1000
0010
0000
0100
0000
0001
0000
1000
0000
,
0001
1000
0001
0000
0010
0000
0001
1000
0001
0000
0010
0000
0001
0000
0100
0000
,
0010
0000
0000
0000
0000
0000
1000
0000
0000
0000
0000
0000
0100
0000
0000
0010
0000
0000
0000
0000
0000
0001
1000
0000
0001
0000
0000
1000
0000
0000
0000
0000
0000
0001
0000
0000
0000
0000
0000
0100
0000
0000
0010
0000
0000
0000
0000
0000
,
1000
0000
0100
0010
0100
0000
1000
0000
0100
0010
0100
0000
1000
0000
0001
0000
,
0100
0000
0010
0100
0010
0000
1000
0000
0010
0100
0010
0000
1000
0000
0100
0000
,
0010
0001
1000
0100
0010
0001
1000
0100
0010
0100
1000
0001
0010
0100
1000
0001
,
0100
0000
0000
0010
0000
0000
0000
0000
0000
0100
0000
0000
0000
0000
0000
0001
0000
0000
0000
0000
0000
1000
0000
0000
0100
0000
0010
0000
0100
0000
0010
0000
0000
0001
0000
0000
1000
0000
0001
0000
1000
0000
0001
0000
0000
1000
0000
0000
,
0001
0100
0010
1000
0100
0010
0001
0100
0010
1000
0100
0010
0001
0100
0010
1000
,
0100
0010
0001
0010
0100
1000
0010
0100
0001
0010
0100
1000
0010
0100
0001
0010
,
0100
1000
0100
0010
0001
0010
0100
1000
0100
0010
0001
0100
0010
1000
0001
1000
,
0100
0000
0000
0000
0000
0000
0010
0000
0000
0000
0000
0000
0001
0000
0000
0100
0000
0000
0000
0000
0000
0010
1000
0000
0010
0000
0000
1000
0000
0000
0000
0000
0000
0001
0000
0000
0000
0000
0000
1000
0000
0000
0100
0000
0000
0010
0000
0000
,
0001
0100
0001
1000
0001
0010
0001
1000
0001
0100
0001
1000
0001
0010
0001
1000
,
0001
0100
0010
0100
0001
0100
0010
0100
0001
0100
0010
0100
0001
0100
0001
1000
,
0100
0000
0000
0000
0000
0000
0010
0000
0000
0000
0000
0000
0001
0000
0000
0100
0000
0000
0000
0000
0000
0001
1000
0000
0001
0000
0000
1000
0000
0000
0000
0000
0000
0100
0000
0000
0000
0000
0000
0010
0000
0000
0001
0000
0000
0000
0000
0000
,
0100
0000
0000
0010
0000
0000
0000
0000
0000
0100
0000
0000
0000
0000
0000
0001
0000
0000
0000
0000
0000
1000
0000
0000
0100
0000
0010
0000
0001
0000
0100
0000
0000
0010
0000
0000
1000
0000
0001
0000
1000
0000
0001
0000
0000
1000
0000
0000
,
0200
0000
0000
0000
0000
0310
0001
0100
0020
0000
M000
0000
0130
0000
0002
0000
,
M000
0000
10M3
0200
0000
M000
000M
0000
,
0320
000M
0000
0000
0032
M000
0000
0000
0M00
0000
0000
M000
0000
0103
0010
1000
,
0002
0000
0103
0020
0000
0000
0000
0000
,
0M30
000M
M000
0000
0000
0100
0001
1000
0001
0000
1000
0000
0100
0000
0020
0000
,
0000
0000
0130
0000
1000
0000
0002
0000
0000
0000
0000
0000
0000
0000
0103
0010
,
1000
0100
0010
0000
0001
0100
0010
0000
1000
0100
0010
0000
0001
0100
0010
0000
,
1000
0000
0000
0000
0000
0000
0001
0000
0000
0000
0000
0000
1000
0000
0000
0100
0000
0000
0000
0000
0000
0010
0001
0000
0010
0000
0000
0001
0000
0000
0000
0000
0000
0100
0000
0000
0000
0000
0000
0010
0000
0000
1000
0000
0000
0000
0000
0000
,
0001
0000
1000
0000
0100
0000
0010
0001
1000
0000
0001
0000
0100
0000
0010
1000
,
0100
0000
0010
0000
0001
0000
0100
0001
0100
0000
0010
0000
1000
0000
0001
1000
,
0001
0000
1000
0000
0100
0000
0010
0001
0100
0000
0010
0000
1000
0000
0010
1000
,
0010
0000
1000
0000
0100
0000
0010
0001
0010
0000
0001
0000
0100
0000
0010
0000
,
0100
0000
0001
0000
1000
0000
0100
0000
0010
0001
0100
0010
1000
0000
0001
0000
,
1000
0100
0010
0001
0100
0000
0010
0000
0100
0001
1000
0100
0010
0000
0100
0000
,
1000
0001
0100
0010
1000
0000
0100
0000
0010
0001
0100
0010
1000
0000
0100
0000
,
0010
0000
0000
0001
0000
0000
0000
0000
0000
0100
0000
0000
0000
0000
0000
0010
0000
0000
0000
0000
0000
1000
0000
0000
0001
0000
1000
0000
0001
0000
1000
0000
0000
0001
0000
0000
1000
0000
0000
0001
1000
0000
0001
0000
0000
1000
0000
0000
,
0001
0100
0010
0000
1000
0000
0001
0100
0010
0000
1000
0000
0100
0000
0010
0000
,
0001
0100
0001
0000
1000
0000
0001
0100
0001
0000
1000
0000
0100
0000
0010
0000
,
0100
0010
0100
0000
1000
0000
0100
0010
0100
0000
1000
0000
0001
0000
0100
0000
,
0010
1000
0010
0000
0100
0000
0010
1000
0010
0000
0100
0000
0001
0000
1000
0000
,
0100
0010
0001
0000
1000
0000
0100
0010
0001
0000
1000
0000
0001
0000
0100
0000
,
0010
1000
0001
0000
0100
0000
0010
1000
0001
0000
0100
0000
0010
0000
1000
0000
,
0001
1000
0001
0000
0100
0000
0001
1000
0001
0000
0100
0000
0010
0000
1000
0000
,
0001
0100
0001
0100
0001
0100
0001
0100
0010
1000
0010
1000
0010
1000
0M1M
1000
,
0100
0010
0001
0010
0001
1000
0100
0010
0001
0010
0001
1000
0100
0010
0001
0100
,
0010
1000
0010
1000
0001
0100
0010
1000
0010
1000
0100
0010
0001
0100
0010
1000
,
0001
1000
0001
0100
0010
1000
0001
1000
0001
0100
0010
1000
0100
0010
0001
0100
,
0010
1000
0100
0010
0100
1000
0001
0100
0010
0100
0001
1000
0010
0100
0001
1000
,
0100
1000
0100
0010
0001
1000
0100
1000
0100
0010
0001
0100
0010
1000
0100
0010
,
0001
0010
0001
1000
0100
0010
0001
0010
0001
1000
0100
0010
0001
0100
0010
1000
,
0001
1000
0001
0100
0010
1000
0001
1000
0001
0100
0010
1000
0100
0010
0100
1000
,
0001
0000
0000
0000
0000
0000
0100
0000
0000
0000
0000
0000
0010
0000
0000
1000
0000
0000
0000
0000
0000
0001
1000
0000
0001
0000
0000
1000
0000
0000
0000
0000
0000
0100
0000
0000
0000
0000
0000
0010
0000
0000
0001
0000
0000
0100
0000
0000
,
0010
1000
0100
0010
0001
0010
0100
1000
0001
0100
0010
1000
0100
1000
0010
0100
,
0001
0010
0001
1000
0010
0100
0001
1000
0010
0100
0001
1000
0100
0010
0100
1000
,
0001
0100
0010
0100
0001
1000
0100
0010
0001
0100
0010
1000
0100
0010
0100
1000
,
0010
0100
0001
0010
0100
1000
0100
0010
0001
0010
0100
1000
0001
0100
0010
1000
,
0100
1000
0010
0100
0001
0010
0001
1000
0001
0100
0010
1000
0100
1000
0010
1000
,
0001
1000
0100
0010
0001
0100
0010
1000
0100
1000
0010
0100
0001
0010
0001
0100
,
0010
1000
0100
0010
0001
0010
0100
1000
0100
0010
0001
1000
0100
0010
0001
0100
,
0010
0000
0000
0000
0000
0000
0100
0000
0000
0000
0000
0000
0001
0000
0000
1000
0000
0000
0000
0000
0000
0100
0010
0000
0100
0000
0000
0010
0000
0000
0000
0000
0000
0001
0000
0000
0000
0000
0000
0100
0000
0000
0010
0000
0000
0000
0000
0000
,
0100
0001
1000
0100
0010
0001
0010
0100
1000
0001
0100
0010
1000
0100
1000
0010
,
0100
0001
1000
0100
0010
0001
0010
0100
1000
0100
0010
0001
0100
0010
1000
0100
,
1000
0001
0100
0001
1000
0100
0010
0001
0100
0010
1000
0100
1000
0010
0100
0001
,
0010
0001
0100
0010
1000
0100
0010
0001
0100
0010
1000
0100
0010
0001
0010
0100
,
1000
0010
0100
0001
0010
0100
1000
0001
0100
0010
1000
0100
0010
0100
1000
0100
,
0010
0001
0010
0100
0010
0001
0100
0010
1000
0100
1000
0001
1000
0100
1000
0001
,
0100
0001
1000
0001
0100
0010
1000
0001
1000
0010
1000
0001
0010
0001
1000
0001
,
0010
0001
0100
0010
1000
0001
1000
0100
0010
0001
1000
0001
0100
0010
1000
0000
,
2002
0000
0000
0000
,
0000
0000
0000
3003
;
