#TITLE:Final_Fantasy_6_TerraBlackCrystal;
#SUBTITLE:;
#ARTIST:Kaijin;
#TITLETRANSLIT:;
#SUBTITLETRANSLIT:;
#ARTISTTRANSLIT:;
#CREDIT:;
#BANNER:Final_Fantasy_6_TerraBlackCrystal-bn.png;
#BACKGROUND:Final_Fantasy_6_TerraBlackCrystal-bg.png;
#LYRICSPATH:;
#CDTITLE:Inujosha-cd.bmp;
#MUSIC:Final_Fantasy_6_TerraBlackCrystal.mp3;
#OFFSET:-0.118;
#SAMPLESTART:56.330;
#SAMPLELENGTH:12.000;
#SELECTABLE:YES;
#DISPLAYBPM:120.000;
#BPMS:0.000=120.400,42.000=119.600,86.000=120.200,180.000=120.000;
#STOPS:;
#BGCHANGES:;
// cache tags:
#FIRSTBEAT:0.500;
#LASTBEAT:233.500;
#SONGFILENAME:Songs/finall/Final_Fantasy_6_TerraBlackCrystal/Final_Fantasy_6_TerraBlackCrystal.sm;
#HASMUSIC:1;
#HASBANNER:1;
#MUSICLENGTH:123.271;
// end cache tags

//---------------dance-single - ----------------
#NOTES:
     dance-single:
     :
     Hard:
     8:
     0.513,0.521,0.365,0.016,0.361,396.000,45.000,2.000,0.000,0.000:
0000
0000
1000
0100
0010
0100
1000
0000
0110
0000
0000
0000
0011
0000
0000
0000
,
1100
0000
0100
0010
0100
0000
0000
0000
0100
0000
0000
0000
0101
0000
0000
0000
,
1100
0000
0100
0010
0100
1000
0001
0000
0110
0000
0000
0000
1010
0000
0000
0000
,
0101
0000
0100
0010
0001
0000
0000
0000
1001
0000
0000
0000
0110
0000
0000
0000
,
0011
0000
1000
0010
0100
1000
0001
0000
1001
0000
0000
0000
0110
0000
0000
0000
,
0011
0000
1000
0010
0100
0000
0000
0000
0001
0000
0000
0000
0110
0000
0000
0000
,
0011
0000
1000
0100
0010
0000
0000
0000
0001
0000
0010
0000
0100
0000
0000
0000
,
0001
0000
0001
0100
1000
0000
0000
0000
0100
0010
0100
0000
0010
1000
0100
0000
,
0100
0010
0100
1000
0001
0100
1000
0000
0100
0000
0010
0000
0000
0000
0000
0000
,
0100
0000
0010
0100
1000
0000
0000
0000
0010
0000
0001
0000
0000
0000
0000
0000
,
0101
0000
0100
0010
0001
0100
1000
0000
0100
0000
0001
0000
0000
0000
0000
0000
,
0101
0000
0100
0001
1000
0000
0000
0000
0010
0000
0100
0000
0000
0000
0000
0000
,
0101
0000
1000
0001
0100
0010
1000
0000
0100
0000
0010
0000
0000
0000
0100
0000
,
0001
0000
0100
0010
0100
0000
0000
0000
1000
0000
0010
0000
0000
0000
0001
0000
,
0100
0000
1000
0100
0001
0000
0000
0000
0000
0000
0000
0000
0000
0000
0000
0000
,
0000
0000
0010
0100
0001
0000
0000
0000
0000
0000
0000
0000
0000
0000
0000
0000
,
0000
0000
1000
0010
1000
0001
0100
0000
0100
0000
0010
1000
0000
1000
0010
0000
,
0001
0000
0100
0010
0100
0000
0000
0000
0001
0000
0000
0000
0000
0000
0100
0000
,
0001
0000
0100
1000
0001
0100
0001
0000
0100
0000
1000
0001
0000
0100
0001
0000
,
0100
0000
0100
0001
0100
0000
0000
0000
1000
0000
0000
0000
0001
0010
1000
0000
,
0001
0000
1000
0000
0010
0000
0100
0000
1000
0000
0001
0000
0100
0001
1000
0000
,
0010
0000
0100
0000
1000
0000
0001
0000
1000
0000
0001
0100
0001
0000
1000
0001
,
1000
0000
0000
0000
0010
0000
0000
0000
0000
0000
1000
0010
1000
0000
0001
0000
,
0100
0010
0101
0000
0000
0000
0000
0000
,
0101
0000
1100
0000
0100
0000
0010
1000
,
0100
0000
0000
0000
0100
0001
0100
1000
0010
0100
1000
0100
0010
0001
0100
0010
,
1000
0000
0100
0010
0001
0000
0000
0000
0100
0000
0000
0000
0010
0100
0001
1000
,
0100
0000
0000
0000
0100
0000
0000
0000
0010
0000
0100
0000
0001
1000
0001
0100
,
0010
0000
0001
0100
1000
0001
0100
0000
0101
0000
0000
0000
1010
0000
0000
0000
,
0101
0000
0100
0010
1000
0000
0000
0000
0001
0000
0100
0000
0000
0000
0000
0000
,
0001
0000
0100
0001
0100
1000
0010
0000
0100
0000
0010
0000
0000
0000
0000
0000
,
1000
0000
0100
0010
1000
0000
0000
0000
0010
0000
0100
0000
0000
0000
0000
0000
,
1010
0000
0010
0001
0100
1010
0100
0000
1000
0000
0100
0000
0000
0000
0000
0000
,
0010
0000
0100
0001
1000
0000
0000
0000
0001
0000
0100
0000
0000
0000
1000
0000
,
0001
0000
0100
0001
1000
0000
0000
0000
0010
0000
0001
0000
0000
0000
0000
0000
,
0011
0000
0100
0001
1000
0000
0000
0000
0100
0000
0010
0000
0000
0000
1000
0000
,
0001
0110
0000
1001
,
1100
0000
0011
0000
0100
0010
0000
0000
,
1000
0001
1100
0000
0000
0000
0101
0000
,
1010
0000
0000
0000
0101
0000
0000
0000
0000
0000
0100
0001
1000
0000
0010
0000
,
1000
1010
0000
0011
,
0110
1001
0000
0000
,
1000
0100
0001
0000
0100
0000
0000
0000
,
0010
0000
1000
0000
0001
0000
0000
0000
0000
0000
0100
0001
1000
0000
0100
0000
,
0001
0000
1000
0000
0100
0000
0000
0000
1000
0100
1000
0000
0001
0010
0001
0000
,
0100
0010
0100
0000
1000
0001
1000
0000
0100
0001
0100
0000
1000
0100
1000
0000
,
0000
0000
1000
0010
0100
0001
0010
0000
0100
0000
0010
0000
1000
0000
0001
0000
,
0100
0000
1000
0010
0100
0000
0000
0000
0001
0000
0000
0000
1100
0000
0000
0000
,
0110
0000
0100
0001
1000
0001
1000
0000
0100
0010
0100
0000
0001
0010
0001
0000
,
1000
0000
1000
0010
1000
0000
0000
0000
0001
0000
0000
0000
0110
0000
0000
0000
,
1100
0000
0010
1000
0001
1000
0100
0000
0000
0000
0000
0000
0000
0000
0000
0000
,
0000
0000
0100
0001
1000
0000
0000
0000
0100
0000
0000
0000
0000
0000
0000
0000
,
0000
0000
0001
0100
1000
0000
0000
0000
0000
0000
0000
0000
0000
0000
0000
0000
,
0000
0000
1000
0100
1000
0000
0000
0000
0000
0000
0000
0000
0000
0000
0000
0000
,
0000
0000
0001
0100
0001
1000
0100
0000
0100
0000
0001
0000
0000
0000
0100
0000
,
0001
0000
0100
1000
0001
0000
0000
0000
0100
0000
0010
0000
0000
0000
0100
0000
,
0001
0000
0100
0001
1000
0001
0100
0000
0010
0000
0100
0000
0000
0000
0100
0000
,
0001
0000
0100
0001
1000
0000
0000
0000
2002
0000
0000
0000
0000
0000
0000
0000
,
0000
0000
0000
0000
0000
3000
0003
0000
0000
0000
0000
0000
0000
0000
0000
0000
;
