#TITLE:Endless Possibilities;
#SUBTITLE:;
#ARTIST:DJ PARANOiD;
#TITLETRANSLIT:;
#SUBTITLETRANSLIT:;
#ARTISTTRANSLIT:;
#CREDIT:owenviau1;
#BANNER:../owenviau1 Simfiles 5-bn.png;
#BACKGROUND:../owenviau1 Simfiles 5-bg.png;
#LYRICSPATH:;
#CDTITLE:../ov1_title.png;
#MUSIC:Endless Possibilities.mp3;
#OFFSET:-0.033;
#SAMPLESTART:85.366;
#SAMPLELENGTH:29.999;
#SELECTABLE:YES;
#DISPLAYBPM:180.000;
#BPMS:0.000=180.000,570.000=179.988,571.000=180.000;
#STOPS:;
#BGCHANGES:;
// cache tags:
#FIRSTBEAT:0.000;
#LASTBEAT:603.000;
#SONGFILENAME:Songs/owenviau1 Simfiles 5/Endless Possibilities - [owenviau1] v1.5/Endless Possibilities.sm;
#HASMUSIC:1;
#HASBANNER:1;
#MUSICLENGTH:204.068;
// end cache tags

//---------------dance-single - ----------------
#NOTES:
     dance-single:
     :
     Hard:
     11:
     0.872,1.000,0.093,0.397,0.169,1145.000,19.000,81.000,2.000,1.000:
0000
0000
0000
0000
,
0000
0000
0000
0000
,
0000
0000
0000
0000
,
0000
0000
0000
0000
,
0000
0000
0000
0000
,
0000
0000
0000
0000
,
0000
0000
0000
0000
,
0000
0000
0000
0000
,
1MM1
1000
0100
0010
0001
0010
0100
1000
,
0001
0010
1000
0100
0010
0001
0100
0001
,
1000
0010
0100
0001
1000
0010
0100
0001
,
0010
0001
1000
0010
0100
0001
0010
0100
,
1000
0010
1000
0000
0100
0000
0010
0000
0001
0000
1000
0000
0010
0000
1000
0000
,
0001
0100
0001
0000
0010
0000
0100
0000
1000
0000
0001
0000
0010
0000
0100
0000
,
1000
0100
1000
0000
0010
0000
0100
0000
0001
1000
0001
0000
0010
0000
0100
0000
,
1000
0100
0010
0001
1000
0010
1000
0001
0100
0001
0010
0100
1000
0001
1000
0001
,
1001
1000
0010
0100
0001
1000
0100
0010
,
0001
1000
0001
0100
0001
0010
0100
1000
,
0010
1000
0001
0010
0001
0100
0010
1000
,
0100
1000
0001
0010
0100
1000
0010
0100
,
0001
0100
0010
1000
0010
0100
0001
1000
,
0100
0010
0001
0010
0100
1000
0010
0100
,
0001
1000
0001
0010
0001
0100
0010
1000
,
0100
1000
0010
0100
0001
0010
0100
1000
,
1001
0010
0100
0001
1000
0001
0100
0010
,
0100
0001
0010
0100
1000
0010
1000
0001
,
0100
0010
0100
0001
1000
0001
0100
1000
,
0010
1000
0100
0010
0001
0100
0010
1000
,
1100
0100
0001
0010
0001
1000
0100
0010
,
0001
0100
0010
0100
0001
0010
0100
1000
,
0010
1000
0001
0100
0010
0100
0001
1000
,
0100
0010
0001
0100
0001
1000
0100
0010
,
0011
1000
0001
0010
0100
1000
0100
0010
,
0001
1000
0001
0100
0010
1000
0010
0100
,
0001
1000
0010
0100
0001
0010
0001
1000
,
0001
0100
0010
1000
0100
0010
0001
1000
,
0010
0100
0010
1000
0100
0010
0001
0100
,
0001
1000
0100
1000
0010
1000
0001
0010
,
0001
0100
0001
0010
0100
1000
0010
1000
,
0001
0010
0001
1000
0100
0010
0001
0010
,
1100
0001
1000
0010
0100
0001
0100
0010
,
1000
0100
0010
0001
0100
0010
1000
0100
,
0010
0001
1000
0001
0100
0001
1000
0010
,
1000
0100
0010
0001
0100
0001
0010
0100
,
1000
0001
1000
0000
0010
0000
0100
0000
0001
0000
1000
0000
0100
0000
0010
0000
,
0001
1000
0001
0000
0010
0000
0100
0000
0001
0000
1000
0000
0100
0000
0010
0000
,
0001
0100
0001
0000
1000
0000
0001
0000
1000
0010
1000
0000
0001
0000
1000
0000
,
0010
1000
0001
0100
0001
0010
0100
1000
0001
1000
0100
0010
0001
1000
0001
1000
,
1001
0010
0100
0001
1000
0010
1000
0100
,
0010
0001
0100
0010
1000
0001
0010
0001
,
0100
0001
1000
0010
1000
0001
0100
0010
,
1000
0100
0010
0001
0100
0010
1000
0100
,
0010
0001
0100
0001
1000
0010
1000
0001
,
1000
0100
0010
0001
0010
0100
1000
0001
,
0100
0010
1000
0010
0100
0001
0100
0010
,
1000
0100
0010
0001
1000
0001
0100
0010
,
1010
0100
0001
0010
0001
0100
0010
1000
,
0100
0010
0001
0100
0010
1000
0001
0100
,
0001
0010
0100
1000
0001
1000
0010
1000
,
0100
0010
0001
0100
0010
1000
0001
0010
,
0100
1000
0100
0000
0010
0000
0001
0000
0100
0000
0001
0000
1000
0000
0010
0000
,
0100
0001
0100
0000
0010
0000
1000
0000
0100
0000
0010
0000
0001
0000
1000
0000
,
0010
1000
0010
0000
0100
0000
0001
0000
1000
0001
1000
0000
0100
0000
0010
0000
,
0001
0010
0100
1000
0001
0100
0001
0010
0100
1000
0010
1000
0001
0100
0001
0100
,
0002
0023
0030
0200
0300
2000
3200
0320
,
0030
0002
0003
0000
2000
3000
0020
0030
,
2000
3002
0003
0200
0300
0020
0032
2003
,
3000
0000
0020
0000
0230
0000
1300
0001
0100
0010
1000
0001
0100
0001
1000
0001
,
1001
0010
0100
1000
0010
0100
0001
0010
,
0100
1000
0010
0100
0001
0100
0010
1000
,
0010
0100
0001
0010
0100
1000
0010
0100
,
0001
0010
0001
1000
0001
0100
0010
1000
,
1100
0001
0100
0010
0100
0001
0010
0100
,
1000
0010
1000
0100
0010
0001
0100
0001
,
1000
0001
0100
0010
0100
0001
1000
0010
,
0100
0010
1000
0100
0010
0001
0100
0001
,
0010
0100
1000
0001
0010
0100
1000
0010
,
1000
0001
1000
0100
0010
0001
0100
0001
,
1000
0100
0010
0001
0010
0100
1000
0010
,
1000
0100
0010
0001
0100
0001
0010
0100
,
1001
1000
0010
0100
0010
1000
0100
0010
,
0001
0100
0010
1000
0010
0100
0001
1000
,
0100
0010
0001
0100
0001
0010
0100
1000
,
0010
0100
0001
0010
0100
1000
0010
1000
,
0001
0100
0001
1000
0010
0100
0010
1000
,
0001
1000
0100
0010
0001
0100
0010
1000
,
0100
0010
0001
0010
0100
1000
0010
1000
,
0100
0010
0001
0100
0001
1000
0100
0010
,
0011
1000
0100
0010
0001
1000
0001
0010
,
0100
1000
0010
0001
0010
0100
1000
0010
,
1000
0001
1000
0100
0010
0001
0100
0001
,
1000
0100
0010
0001
1000
0001
0100
0010
,
1000
0001
1000
0000
0010
0000
0100
0000
0001
0000
0010
0000
0100
0000
1000
0000
,
0001
0100
0001
0000
0010
0000
0100
0000
1000
0000
0001
0000
1000
0000
0010
0000
,
0100
0001
0100
0000
0010
0000
1000
0000
0001
0010
0001
0000
1000
0000
0010
0000
,
0200
0300
0020
2030
3000
0002
0003
0020
,
1031
1000
0100
0010
0001
1000
0100
0010
,
0001
1000
0001
0010
1000
0001
0010
0001
,
0100
0001
1000
0010
1000
0001
0100
0010
,
1000
0100
0010
0001
0100
0010
1000
0100
,
0010
0001
0100
0001
1000
0010
1000
0001
,
1000
0100
0010
0001
0010
0100
1000
0001
,
0100
0010
1000
0010
0100
0001
0100
0010
,
1000
0100
0010
0001
1000
0001
0100
0010
,
1010
0100
0001
0010
0001
0100
0010
1000
,
0100
0010
0001
0100
0010
1000
0001
0100
,
0001
0010
0100
1000
0001
1000
0010
1000
,
0100
0010
0001
0100
0010
1000
0001
0010
,
0100
1000
0100
0000
0010
0000
0001
0000
0100
0000
0001
0000
1000
0000
0010
0000
,
0100
0001
0100
0000
0010
0000
1000
0000
0100
0000
0010
0000
0001
0000
1000
0000
,
0010
1000
0010
0000
0100
0000
0001
0000
1000
0001
1000
0000
0100
0000
0010
0000
,
0001
0010
0100
1000
0001
0100
0001
0010
0100
1000
0100
0010
0001
1000
0001
1000
,
1001
0100
0010
0001
0100
0001
0010
0100
,
1000
0001
0100
0010
1000
0001
0010
0001
,
0100
0010
1000
0100
0010
0001
0100
0001
,
0010
0100
1000
0010
0100
0001
0010
0001
,
0100
0010
1000
0001
0100
0001
0010
0100
,
1000
0001
0100
0010
1000
0001
0010
0001
,
0100
0010
1000
0100
1000
0001
1000
0010
,
0100
0001
0010
0100
1000
0001
1000
0010
,
1100
1000
0001
0100
0001
0010
0100
1000
,
0010
1000
0001
0100
0010
1000
0100
0010
,
0001
1000
0100
1000
0010
0100
0001
0100
,
0010
1000
0100
0010
0001
1000
0100
1000
,
0001
0010
0001
0000
0010
0000
0100
0000
1000
0000
0001
0000
1000
0000
0010
0000
,
0100
0001
0100
0000
0010
0000
1000
0000
0100
0000
0010
0000
0001
0000
1000
0000
,
0001
1000
0001
0000
0010
0000
0100
0000
1000
0010
1000
0000
0100
0000
0010
0000
,
0001
0010
0100
1000
0001
0100
0001
1000
0010
1000
0001
1000
0100
0010
0100
0010
,
0200
0300
0001
0000
0020
0000
2030
0000
3002
0000
0103
0000
0020
0000
1030
0000
,
0100
0000
0020
0000
0032
0000
0103
0000
0020
0000
2030
0000
3200
0300
0020
0000
,
0032
0003
1000
0000
0001
0000
0020
0030
0200
0000
1300
0000
0020
0000
0130
0000
,
0002
0000
2003
3000
0010
0000
0100
0000
0020
0000
0031
0000
2000
0000
3100
0000
,
2000
0000
3010
0000
0200
0000
0302
0003
0020
0000
0031
0000
2000
3000
0100
0000
,
2000
3020
0130
0001
0020
0130
2000
3001
,
0200
0000
0301
0000
2000
0000
3020
0030
0200
0000
0301
0000
0200
0300
0010
0000
,
1000
0000
0020
0030
0100
0000
0001
0000
2000
3000
0010
0000
2000
3000
0001
0000
,
0220
0030
0310
0000
2000
0000
3002
0003
0200
0000
0310
0000
2000
0000
3001
0000
,
0010
0000
0200
0000
2300
0000
3001
0000
2000
0000
3200
0000
0320
0030
0002
0000
,
0023
0030
0100
0000
1000
0000
0002
0003
0020
0000
0031
0000
0200
0000
0310
0000
,
2000
0000
3020
0030
2000
0000
3001
0000
0020
0000
0130
0000
2000
0000
3001
0000
,
1001
1000
0100
0010
0001
0100
0001
0010
,
0100
1000
0001
0100
0010
1000
0001
0010
,
0001
0100
0010
1000
0100
1000
0001
1000
,
0010
0100
0001
0010
0100
1000
0100
0010
,
2002
0003
0000
0000
,
0000
0000
0000
0000
,
0000
0000
0000
0000
,
0000
0000
0000
0000
,
0000
0000
0000
0000
,
0000
0000
0000
0000
,
0000
0000
0000
3000
,
0000
0000
0000
0000
,
0000
0000
0000
0000
,
0000
0000
0000
0000
;

//---------------dance-single - ----------------
#NOTES:
     dance-single:
     :
     Challenge:
     13:
     1.000,1.000,0.764,0.711,1.000,1744.000,156.000,145.000,101.000,17.000:
1010
0000
0100
0001
1000
0000
0101
0000
0010
1000
0100
0000
1001
0000
0100
0010
,
0001
0000
1100
0000
0001
1000
0100
0000
0011
0000
0100
0000
1001
0000
0010
0000
,
1100
0000
0010
0100
1000
0000
0101
0000
0010
1000
0100
0000
1001
0000
0010
0100
,
1000
0000
0101
0000
1000
0010
0100
0000
0101
0000
1000
0000
1100
0000
0010
0000
,
1001
0000
0010
0100
0001
0000
1010
0000
0100
0001
1000
0000
1001
0000
0010
0100
,
0001
0000
0110
0000
1000
0001
0100
0000
1010
0000
1000
0000
0101
0000
0010
0000
,
1001
0000
0010
1000
0001
0000
0101
0000
1000
0010
0100
0000
1001
0000
0100
0010
,
1000
0000
0011
0000
1000
0001
0100
0000
0110
0000
1000
0000
0101
0000
0010
0000
,
1MM1
1000
0101
1000
0110
0001
1010
0100
,
1001
0010
0101
1000
0110
0001
1100
0010
,
1001
0010
0101
1000
1010
0100
1001
0001
,
0110
1000
0101
0010
1100
0001
0110
0100
,
20M1
3100
0010
0001
0100
0001
1000
0010
0100
0010
1000
0001
0100
0010
1000
0001
,
2M00
3010
0100
0001
0010
0100
1000
0010
0100
0001
0100
0010
1000
0010
0100
0001
,
20M0
3100
0010
0001
0010
0100
1000
0001
M020
0130
1000
0001
0100
0010
1000
0001
,
M020
0000
0000
0130
0000
0000
200M
0000
0000
3100
0000
0000
M020
0000
0000
0031
0000
0000
M020
0000
0000
0130
0000
0000
20M0
0000
0000
3001
0000
0000
M020
0000
0000
0130
0000
0000
20M0
0000
0001
3000
1000
0000
00M2
0000
0000
0103
0000
0000
,
1001
0000
0100
0010
0001
0000
1000
0001
0100
0000
0010
1000
0001
0000
0010
0100
,
1000
0000
0010
0100
0001
0000
0100
0010
1000
0000
0010
0001
1000
0000
0001
0010
,
0100
0000
0010
1000
0001
0000
0100
0010
1000
0000
0001
0010
0001
0000
0100
0010
,
0100
0000
1000
0001
1000
0000
0001
0010
0100
0000
1000
0010
1000
0000
0001
0100
,
0001
0000
0010
0100
1000
0000
0001
0100
0010
0000
1000
0001
0100
0000
0100
0001
,
1000
0000
0010
0100
0001
0000
0100
0010
1000
0000
0001
0010
0100
0000
1000
0001
,
0100
0000
0010
0001
1000
0000
0100
0010
0001
0000
0100
0010
1000
0000
0010
0100
,
0001
0000
0010
0100
1000
0000
0001
1000
0010
0000
0001
1000
0100
0000
0010
1000
,
1MM1
0000
1000
0010
0100
0000
0001
0100
0010
0000
1000
0001
0100
0000
0010
1000
,
0001
0000
0010
0100
1000
0000
0100
0010
0001
0000
1000
0001
1000
0000
0010
0100
,
0010
0000
0001
0100
0001
0000
1000
0010
1000
0000
0100
0010
0001
0000
0010
0100
,
1000
0000
0001
1000
0010
0000
1000
0001
0100
0000
0010
1000
0001
0000
0010
1000
,
1MM1
0001
0010
0100
1000
0001
0100
0010
1000
0010
0100
0001
0100
0010
1000
0001
,
1000
0100
0010
0001
0100
0001
1000
0010
1000
0001
0100
0010
1000
0001
0010
0001
,
0100
0010
1000
0100
1000
0001
1000
0010
0100
0001
0010
0100
1000
0001
0100
0001
,
1000
0010
0100
0001
0010
0001
1000
0010
0100
0001
1000
0010
0100
0010
1000
0001
,
1MM1
0000
0100
0010
0001
0000
1000
0001
0100
0000
0010
1000
0001
0000
0010
0100
,
1000
0000
0100
0010
0001
0000
1000
0010
0100
0000
0001
0100
0010
0000
1000
0001
,
1000
0000
0010
0100
0010
0000
1000
0001
0100
0000
0010
1000
0001
0000
0010
0100
,
1000
0000
0001
0100
0010
0000
1000
0010
0100
0000
0001
0100
0010
0000
1000
0001
,
0100
0000
1000
0001
0010
0000
0001
1000
0100
0000
0001
1000
0010
0000
0100
0001
,
1000
0000
0001
0100
0010
0000
1000
0001
0100
0000
0010
1000
0001
0000
1000
0001
,
0010
0000
0100
1000
0001
0000
0010
0100
1000
0000
0100
0010
0001
0000
0100
0010
,
1000
0000
0001
0100
0010
0000
1000
0001
0100
0000
0010
1000
0001
0000
1000
0001
,
M1M1
0000
1000
0010
0100
0000
0001
0010
0100
0000
1000
0001
0010
0000
0100
1000
,
0001
0000
0100
0010
1000
0000
0001
1000
0010
0000
0100
0001
1000
0000
0100
0010
,
0001
0000
0100
0010
1000
0000
0001
0100
0010
0000
1000
0001
0010
0000
1000
0001
,
0100
0000
1000
0001
0010
0000
0100
1000
0001
0000
0100
0010
1000
0000
0001
1000
,
210M
3100
0010
0001
0100
0001
1000
0010
0100
0010
1000
0001
0100
0010
1000
0001
,
2M00
3010
0100
0001
0010
0100
1000
0010
0100
0001
0100
0010
1000
0010
0100
0001
,
20M0
3100
0010
0001
0010
0100
1000
0001
M020
0130
1000
0001
0100
0010
1000
0001
,
M020
0000
0000
0130
0000
0000
200M
0000
0000
3100
0000
0000
M020
0000
0000
0031
0000
0000
M020
0000
0000
0130
0000
0000
20M0
0000
0000
3001
0000
0000
M020
0000
0000
0130
0000
0000
20M0
0000
0001
3000
1000
0000
00M2
0000
0000
0103
0000
0000
,
10M1
0000
0100
0010
0001
0000
1000
0001
0100
0000
0010
1000
0001
0000
0010
0100
,
1000
0000
0100
0010
0001
0000
1000
0010
0100
0000
0001
0100
0010
0000
1000
0001
,
1000
0000
0010
0100
0010
0000
1000
0001
0100
0000
0010
1000
0001
0000
0010
0100
,
1000
0000
0001
0100
0010
0000
1000
0010
0100
0000
0001
0100
0010
0000
1000
0001
,
0100
0000
1000
0001
0010
0000
0001
1000
0100
0000
0001
1000
0010
0000
0100
0001
,
1000
0000
0001
0100
0010
0000
1000
0001
0100
0000
0010
1000
0001
0000
1000
0001
,
0010
0000
0100
1000
0001
0000
0010
0100
1000
0000
0100
0010
0001
0000
0100
0010
,
1000
0000
0001
0100
0010
0000
1000
0001
0100
0000
0010
1000
0001
0000
1000
0001
,
1MM1
0000
1000
0010
0100
0000
0001
0010
0100
0000
1000
0001
0010
0000
0100
1000
,
0001
0000
0100
0010
1000
0000
0001
1000
0010
0000
0100
0001
1000
0000
0100
0010
,
0001
0000
0100
0010
1000
0000
0001
0100
0010
0000
1000
0001
0010
0000
1000
0001
,
0100
0000
1000
0001
0010
0000
0100
1000
0001
0000
0100
0010
1000
0000
0001
1000
,
101M
0010
1000
0001
0100
0001
1000
0010
0100
0010
1000
0001
0100
0010
1000
0001
,
2M00
3010
0100
0001
0010
0100
1000
0010
0100
0001
0100
0010
1000
0010
0100
0001
,
20M0
3100
0010
0001
0010
0100
1000
0001
M020
0130
1000
0001
0100
0010
1000
0001
,
M020
0000
0000
0130
0000
0000
200M
0000
0000
3100
0000
0000
M020
0000
0000
0031
0000
0000
M020
0000
0000
0130
0000
0000
20M0
0000
0000
3001
0000
0000
M020
0000
0000
0130
0000
0000
20M0
0000
0001
3000
1000
0000
00M2
0000
0000
0103
0000
0000
,
2001
3002
0003
0120
0030
2000
3201
0320
,
0030
0000
2200
0000
3300
0000
0000
0000
2002
0000
3003
0000
0220
0300
0030
0000
,
2000
3002
0003
2100
3000
0020
1032
0203
,
0300
0000
2000
0000
3200
0000
0310
0001
0100
0010
1000
0001
0100
0001
0010
0100
,
1001
0000
0010
0100
1000
0000
0001
0100
0010
0000
1000
0001
0100
0000
0100
0001
,
1000
0000
0010
0100
0001
0000
0100
0010
1000
0000
0001
0010
0100
0000
1000
0001
,
0100
0000
0010
0001
1000
0000
0100
0010
0001
0000
0100
0010
1000
0000
0010
0100
,
0001
0000
0010
0100
1000
0000
0001
1000
0010
0000
0001
1000
0100
0000
0010
1000
,
1MM1
0000
1000
0010
0100
0000
0001
0100
0010
0000
1000
0001
0100
0000
0010
1000
,
0001
0000
0010
0100
1000
0000
0100
0010
0001
0000
1000
0001
1000
0000
0010
0100
,
0010
0000
0001
0100
0001
0000
1000
0010
1000
0000
0100
0010
0001
0000
0010
0100
,
1000
0000
0001
1000
0010
0000
1000
0001
0100
0000
0010
1000
0001
0000
0010
1000
,
1MM1
0001
0010
0100
1000
0001
0100
0010
1000
0010
0100
0001
0100
0010
1000
0001
,
1000
0100
0010
0001
0100
0001
1000
0010
1000
0001
0100
0010
1000
0001
0010
0001
,
0100
0010
1000
0100
1000
0001
1000
0010
0100
0001
0010
0100
1000
0001
0100
0001
,
1000
0010
0100
0001
0010
0001
1000
0010
0100
0001
1000
0010
0100
0010
1000
0001
,
1MM1
0000
0100
0010
0001
0000
1000
0001
0100
0000
0010
1000
0001
0000
0010
0100
,
1000
0000
0100
0010
0001
0000
1000
0010
0100
0000
0001
0100
0010
0000
1000
0001
,
1000
0000
0010
0100
0010
0000
1000
0001
0100
0000
0010
1000
0001
0000
0010
0100
,
1000
0000
0001
0100
0010
0000
1000
0010
0100
0000
0001
0100
0010
0000
1000
0001
,
0100
0000
1000
0001
0010
0000
0001
1000
0100
0000
0001
1000
0010
0000
0100
0001
,
1000
0000
0001
0100
0010
0000
1000
0001
0100
0000
0010
1000
0001
0000
1000
0001
,
0010
0000
0100
1000
0001
0000
0010
0100
1000
0000
0100
0010
0001
0000
0100
0010
,
1000
0000
0001
0100
0010
0000
1000
0001
0100
0000
0010
1000
0001
0000
1000
0001
,
M1M1
0000
1000
0010
0100
0000
0001
0010
0100
0000
1000
0001
0010
0000
0100
1000
,
0001
0000
0100
0010
1000
0000
0001
1000
0010
0000
0100
0001
1000
0000
0100
0010
,
0001
0000
0100
0010
1000
0000
0001
0100
0010
0000
1000
0001
0010
0000
1000
0001
,
0100
0000
1000
0001
0010
0000
0100
1000
0001
0000
0100
0010
1000
0000
0001
1000
,
210M
3100
0010
0001
0100
0001
1000
0010
0100
0010
1000
0001
0100
0010
1000
0001
,
2M00
3010
0100
0001
0010
0100
1000
0010
0100
0001
0100
0010
1000
0010
0100
0001
,
20M0
3100
0010
0001
0010
0100
1000
0001
M020
0130
1000
0001
0100
0010
1000
0001
,
02M0
0300
0120
2030
3000
1002
0203
0310
,
1MM1
0000
0100
0010
0001
0000
1000
0001
0100
0000
0010
1000
0001
0000
0010
0100
,
1000
0000
0100
0010
0001
0000
1000
0010
0100
0000
0001
0100
0010
0000
1000
0001
,
1000
0000
0010
0100
0010
0000
1000
0001
0100
0000
0010
1000
0001
0000
0010
0100
,
1000
0000
0001
0100
0010
0000
1000
0010
0100
0000
0001
0100
0010
0000
1000
0001
,
0100
0000
1000
0001
0010
0000
0001
1000
0100
0000
0001
1000
0010
0000
0100
0001
,
1000
0000
0001
0100
0010
0000
1000
0001
0100
0000
0010
1000
0001
0000
1000
0001
,
0010
0000
0100
1000
0001
0000
0010
0100
1000
0000
0100
0010
0001
0000
0100
0010
,
1000
0000
0001
0100
0010
0000
1000
0001
0100
0000
0010
1000
0001
0000
1000
0001
,
M1M1
0000
1000
0010
0100
0000
0001
0010
0100
0000
1000
0001
0010
0000
0100
1000
,
0001
0000
0100
0010
1000
0000
0001
1000
0010
0000
0100
0001
1000
0000
0100
0010
,
0001
0000
0100
0010
1000
0000
0001
0100
0010
0000
1000
0001
0010
0000
1000
0001
,
0100
0000
1000
0001
0010
0000
0100
1000
0001
0000
0100
0010
1000
0000
0001
0100
,
M11M
0010
1000
0001
0100
0001
1000
0010
0100
0001
0010
0001
0100
0010
0100
0001
,
1M00
0010
0100
0010
1000
0001
1000
0001
0100
0010
1000
0001
0010
0100
1000
0100
,
M010
0001
0100
0010
1000
0100
0010
0001
M100
0010
1000
0010
0100
0001
0100
0010
,
1M00
0000
0000
0001
0000
0000
10M0
0000
0000
0100
0000
0000
100M
0000
0000
0010
0000
0000
M100
0000
0000
0001
0000
0000
0M10
0000
0000
0001
0000
0000
M100
0000
0000
0010
0000
0000
100M
0000
0100
0000
1000
0000
010M
0000
0000
0010
0000
0000
,
1M01
0000
0100
0001
1000
0000
0101
0000
0010
1000
0100
0000
1001
0000
0100
0010
,
0001
0000
1100
0000
0001
1000
0100
0000
0011
0000
0100
0000
1001
0000
0010
0000
,
1100
0000
0010
0100
1000
0000
0101
0000
0010
1000
0100
0000
1001
0000
0010
0100
,
1000
0000
0101
0000
1000
0010
0100
0000
0101
0000
1000
0000
1100
0000
0010
0000
,
1001
0000
0010
0100
0001
0000
1010
0000
0100
0001
1000
0000
1001
0000
0010
0100
,
0001
0000
0110
0000
1000
0001
0100
0000
1010
0000
1000
0000
0101
0000
0010
0000
,
1001
0000
0010
1000
0001
0000
0101
0000
1000
0010
0100
0000
1001
0000
0100
0010
,
1000
0000
0011
0000
1000
0001
0100
0000
0110
0000
1000
0000
0101
0000
0010
0000
,
1MM1
0000
0010
0001
1000
0000
0011
0000
1000
0100
0010
0000
1001
0000
0100
0010
,
0001
0000
1100
0000
0001
1000
0100
0000
0011
0000
0100
0000
1001
0000
0010
0000
,
1100
0000
0010
0100
1000
0000
0101
0000
0010
1000
0100
0000
1001
0000
0010
0100
,
1000
0000
0101
0000
1000
0010
0100
0000
0101
0000
1000
0000
1100
0000
0010
0100
,
M1M1
0001
1000
0001
0100
0001
1000
0010
0100
0001
0010
0001
0100
0010
0100
0001
,
1M00
0010
0100
0010
1000
0001
1000
0001
0100
0010
1000
0001
0010
0100
1000
0100
,
M010
0001
0100
0010
1000
0100
0010
0001
M100
0010
1000
0010
0100
0001
0100
0010
,
1M00
0000
0000
0001
0000
0000
10M0
0000
0000
0100
0000
0000
100M
0000
0000
0010
0000
0000
M100
0000
0000
0001
0000
0000
0M10
0000
0000
0001
0000
0000
M100
0000
0000
0010
0000
0000
1M00
0000
0001
0000
1000
0000
0001
0000
0000
1000
0000
0000
,
2MM1
3000
0010
0000
0021
0000
2230
0300
3002
0000
0103
0000
0220
0300
1030
0000
,
0100
0000
0022
0003
2031
0000
3100
0000
0220
0300
0032
0000
2103
3000
0020
0000
,
0231
0300
1000
0000
0011
0000
2100
3000
0020
0000
1030
0000
0202
0300
0013
0000
,
0200
0000
1302
0003
2010
0000
3100
0000
0022
0003
0130
0000
2002
3000
0013
0000
,
2200
0300
3001
0000
0210
0000
2301
3000
0020
0000
1030
0000
0102
0003
1000
0000
,
0200
0000
0322
0003
1130
0000
0001
0000
2020
3000
0130
0000
0022
0003
1030
0000
,
0202
0300
1003
0000
0210
0000
2301
3000
0020
0000
0130
0000
1002
0003
0010
0000
,
0001
0000
1200
0300
1010
0000
0001
0000
0102
0003
0010
0000
2100
3000
0001
0000
,
2M2M
0030
3001
0000
0120
0000
2032
0003
3200
0000
0310
0000
0022
0003
1030
0000
,
0001
0000
0220
0030
2301
0000
3010
0000
2200
0300
3002
0000
0213
0300
2000
0000
,
3021
0030
1000
0000
0101
0000
1020
0030
0200
0000
0310
0000
2002
0003
3001
0000
,
0200
0000
1302
0003
1020
0000
0130
0000
2002
3000
0013
0000
2200
0300
3010
0000
,
20M2
3103
0010
0100
1000
0001
0100
0010
1000
0010
0100
0001
0100
0010
1000
0001
,
1000
0100
0010
0001
0100
0001
1000
0010
1000
0001
0100
0010
1000
0001
0010
0001
,
0100
0010
1000
0100
1000
0001
1000
0010
0100
0001
0010
0100
1000
0001
0100
0001
,
1000
0010
0100
0001
0010
0001
1000
0010
0100
0001
1000
0010
0100
0010
1000
0001
,
2MM2
0003
0000
0000
,
0000
0000
0000
0000
,
0000
0000
0000
0000
,
0000
0000
0000
0000
,
0000
0000
0000
0000
,
0000
0000
0000
0000
,
0000
0000
0000
3000
,
0000
0000
0000
0000
,
0000
0000
0000
0000
,
0000
0000
0000
0000
;
