#TITLE:Bemera;
#SUBTITLE:;
#ARTIST:Banya/Yahpp;
#TITLETRANSLIT:;
#SUBTITLETRANSLIT:;
#ARTISTTRANSLIT:;
#CREDIT:;
#BANNER:french.jpg;
#BACKGROUND:french-bg.png;
#LYRICSPATH:;
#CDTITLE:super_sonic.PNG;
#MUSIC:Bemera.ogg;
#OFFSET:-1.040;
#SAMPLESTART:23.968;
#SAMPLELENGTH:29.980;
#SELECTABLE:YES;
#BPMS:0.000=210.000,126.000=105.010,127.000=210.020,451.000=105.010,452.000=210.020;
#STOPS:126.000=0.143
,126.250=0.143
,126.500=0.143
,126.750=0.143
,451.000=0.143
,451.250=0.143
,451.500=0.143
,451.750=0.143
;
#BGCHANGES:;
// cache tags:
#FIRSTBEAT:1.250;
#LASTBEAT:552.000;
#SONGFILENAME:Songs/Definitive Keyboard Megapack/Bemera(Sonic)/french.sm;
#HASMUSIC:1;
#HASBANNER:1;
#MUSICLENGTH:161.492;
// end cache tags

//---------------dance-single - ----------------
#NOTES:
     dance-single:
     :
     Challenge:
     13:
     1.000,1.000,0.694,0.625,1.000,1372.000,112.000,101.000,0.000,31.000:
0000
0000
0000
0000
0000
0002
0000
0000
,
0000
0000
0000
0000
2000
0000
0000
0000
0000
0000
0000
0000
,
0000
0000
0000
0000
3003
0000
0000
0000
0001
0010
0001
0000
1000
0100
1000
0000
,
0010
0001
0010
0000
0100
0001
0010
0000
0010
1000
0001
0000
0100
1000
0010
0000
,
0100
1000
0010
0000
0100
0001
0010
0000
0100
0000
0100
0000
1000
0000
0100
0000
,
0100
0010
0100
0100
0010
1000
1000
0010
,
0100
0000
0100
0000
1000
0000
0100
0000
0100
0001
0100
0001
0100
0001
0100
0001
,
1000
0010
1000
0010
1000
0010
1000
0010
0001
1000
0001
1000
0001
1000
0001
1000
,
0010
0001
0010
0001
0010
0001
0010
0001
0110
1000
0100
1000
0010
1000
0100
0001
,
0100
0001
0010
0001
1000
0100
1000
0100
0010
0100
0001
1000
0001
1000
0100
1000
,
0010
0100
0010
0100
0001
0100
0010
0001
1000
0100
1000
0100
1000
0100
1000
0100
,
0010
1000
0010
1000
0010
1000
0010
1000
0100
0010
0100
0010
0100
0010
0100
0010
,
0001
1000
0001
1000
0001
1000
0001
1000
0010
0000
0010
0000
0100
0000
0100
0000
,
0220
0000
0000
0330
0011
0000
0000
0000
1000
0000
1000
0000
0001
0000
0001
0000
,
2002
0000
0000
3003
1010
0000
0000
0000
0001
0000
0001
0000
0022
0000
0000
0033
,
0100
0100
0010
0010
0001
0100
0001
0100
,
0001
1000
0001
0010
0100
1000
0001
1000
0100
0000
0100
0000
0010
0000
0010
0000
,
0220
0000
0000
0330
0011
0000
0000
0000
1000
0000
1000
0000
0100
0000
0100
0000
,
2200
0000
0000
3300
0101
0000
0000
0000
0010
0000
0010
0000
0220
0000
0000
0330
,
1000
1000
0100
0100
0010
0001
0001
1000
,
1000
0000
1000
0001
0100
0010
0100
0010
0001
0100
0001
0100
1000
0100
0001
0010
,
0001
0010
1000
0010
0100
0001
0100
0001
1000
0001
0010
0100
0010
0100
0001
0100
,
1000
0001
1000
0001
0010
0001
1000
0010
0100
0001
0100
0001
0100
0001
0100
0001
,
1000
0100
1000
0100
1000
0100
1000
0100
0001
0010
1000
0000
0001
0010
1000
0000
,
0001
0100
1000
0000
0001
0100
1000
0000
0001
0010
1000
0000
0001
0010
1000
0000
,
0001
0100
1000
0000
0001
0100
1000
0000
0002
0000
0000
0000
0000
0000
0000
0000
,
0023
0230
0302
0000
,
0000
0000
0000
2003
3020
0230
0302
0023
,
0230
2300
3020
0230
0302
0000
0023
0000
,
0000
0000
0000
0230
0302
0023
0230
2300
,
3002
0023
0230
2300
3020
0000
0230
0000
,
0000
0000
0000
0000
0000
0000
0300
0000
0111
1110
1110
0111
0111
0000
0100
0000
,
0001
0010
1000
0100
0010
0100
0001
1000
,
0010
0100
1000
0100
0010
0100
0001
1000
,
0001
1000
0001
1000
0001
1000
0010
0100
,
0001
1000
0010
0100
0010
1000
0001
0100
,
0010
0100
1000
0100
0010
1000
0001
0100
,
0010
0100
1000
0001
0100
0010
1000
0001
,
0100
0000
0010
0000
0100
0000
1000
0000
0001
0010
0100
0010
0001
0000
1000
0100
,
1000
0000
0010
0100
0010
0000
0001
0010
0001
0000
1000
0100
0002
0000
0000
0000
,
0000
0000
0000
0000
0000
0003
0010
1000
0010
0001
1000
0100
0020
0000
0000
0030
,
0001
0010
0001
0010
0100
0010
0100
0010
0100
1000
0100
1000
0002
0000
0000
0000
,
0000
0000
0000
0000
0000
0003
0010
0000
1000
0100
1000
0001
0010
0000
0010
0000
,
0010
0020
1000
1000
1000
2030
0100
0100
,
0100
3200
0001
0001
0001
0302
0010
0010
,
0010
0023
1000
1000
1000
2030
0200
0000
,
0000
3000
0002
0000
0000
0300
2000
0000
,
0000
0003
0020
0000
0000
3000
0002
0000
,
0000
0000
0000
0000
0000
0000
0030
0000
2003
0000
3002
0000
0013
1000
0010
1000
,
0001
1000
0010
0001
0010
0001
0100
0001
0010
0100
0010
0100
1000
0100
0001
1000
,
0001
1000
0100
1000
0010
0100
0010
0100
0001
0100
0010
0001
0010
1000
0010
1000
,
0010
1000
0010
1000
0001
0100
0001
0100
0001
0100
0001
0100
1000
0001
1000
0001
,
1000
0001
1000
0001
0100
1000
0100
1000
0100
1000
0100
1000
0010
0001
0010
0001
,
0100
0001
0010
1000
0010
1000
0100
1000
0001
0010
0001
0010
0100
0010
1000
0001
,
1000
0001
0010
0001
0100
0010
0100
0010
1000
0010
0100
1000
0001
0010
0001
0010
,
0001
0010
0001
0010
0100
0001
0100
0001
0100
0001
0100
0001
0010
0100
0010
0100
,
0010
0100
0010
0100
1000
0001
1000
0001
1000
0001
1000
0001
0020
0000
0000
0000
,
0000
0000
0030
2000
0000
3000
0000
0020
0000
0000
0000
0030
0200
0000
0000
0000
,
0000
0000
0300
0020
0000
0000
0000
0200
0030
0000
0000
0000
2300
0000
0000
0000
,
0000
3000
0000
0200
0000
0000
0000
0320
0000
0000
0000
0000
0032
0000
0000
0000
,
0000
0000
0003
0020
0000
0000
0030
0200
0000
0000
0301
1000
0010
1000
0010
1000
,
0010
1000
0010
1000
0001
0100
0001
0100
0001
0100
0001
0100
0010
0001
0010
0001
,
0010
0001
0010
0001
1000
0010
1000
0010
1000
0010
1000
0010
0100
1000
0100
1000
,
0100
1000
0100
1000
0010
0001
0010
0001
0010
0001
0010
0001
1000
0100
1000
0100
,
1000
0100
1000
0100
0001
1000
0001
1000
0001
1000
0001
1000
0100
1000
0100
1000
,
0100
1000
0100
1000
0100
1000
0100
1000
0100
0010
0001
0010
0001
0010
0001
0010
,
0100
0010
0100
0010
0100
0010
0100
0010
0100
0010
0100
0100
0010
0001
0100
1000
,
0010
0001
0100
0001
0010
0100
0010
1000
0100
0001
0010
0001
0100
0010
0010
0100
,
0010
0001
0010
0100
0001
0010
0100
1000
0010
0001
0001
0100
0010
0100
0010
0100
,
0010
0100
0010
0100
1000
0010
0001
0010
0100
0010
0001
0010
0100
0001
0100
0001
,
0100
0001
0100
0001
0100
0010
1000
0010
0100
0010
1000
0010
0100
1000
0100
1000
,
0100
1000
0100
1000
0010
0001
0010
0001
0010
0001
0010
0001
0010
0100
1000
0100
,
1000
0100
1000
0100
0001
1000
0001
1000
0001
1000
0001
1000
0010
0000
0100
0000
,
0010
1000
0001
0010
0100
0010
0001
1000
,
0010
0100
0001
0010
0100
0010
0001
1000
,
0100
0010
1000
0100
0010
0000
0220
0000
,
0000
0000
0000
0000
,
0000
0000
0000
0000
,
0000
0000
0000
0000
0000
0000
0330
0000
0001
0010
0001
0010
0001
0010
0001
0010
,
0001
0010
0001
0010
0001
0010
0001
0010
0001
0010
0001
0010
0001
1000
0010
0100
,
1000
0001
1000
0010
0100
0010
0001
1000
0001
0100
0010
0100
1000
0010
0100
0001
,
1000
0100
0010
1000
0001
0010
1000
0100
0010
0100
0010
0001
1000
0010
1000
0001
,
0100
1000
0001
0010
1000
0010
1000
0001
1000
0010
1000
0100
0010
0100
0001
0010
,
1000
0001
1000
0010
0100
0001
0100
0010
1000
0001
0010
0100
1000
0010
0100
0010
,
1000
0100
1000
0001
1000
0100
0010
0001
1000
0010
0100
0001
1000
0100
0010
0100
,
0010
0001
1000
0010
1000
0010
0001
1000
0010
0100
0010
0100
0001
0010
0100
0001
,
1000
0100
0010
1000
0001
0010
1000
0100
0010
0100
0010
0001
1000
0010
1000
0001
,
0010
0100
0010
1000
0001
0100
0010
0100
0010
0001
0100
0010
1000
0001
1000
0010
,
0001
0010
1000
0001
1000
0010
0100
1000
0001
0010
0100
0001
0100
0010
1000
0100
,
0010
1000
0001
0100
0010
0100
1000
0100
0010
0001
0010
0100
1001
0000
0000
0000
,
0011
1010
0110
0101
1001
1010
0110
0000
,
0000
0000
0000
0000
0011
0000
0100
1000
0100
1000
0100
0000
1010
0000
0000
0000
,
0101
1100
1010
0110
0101
0011
0110
0000
,
0000
0000
0000
0000
1010
0010
0001
0010
0001
0010
0001
0010
0001
0010
0001
0010
,
0001
0010
0001
0010
1000
0100
1000
0100
1000
0100
1000
0100
0010
1000
0010
1000
,
0010
1000
0010
1000
0001
0100
0001
0100
0001
0100
0001
0100
1010
0000
0000
0000
,
0011
1100
0110
0101
1001
1010
0101
0000
,
0000
0000
0000
0000
1100
0010
0001
0010
0001
0010
0000
0000
1100
0000
0000
0000
,
0011
1100
0110
1100
0101
1010
1001
0000
,
0000
0000
0000
0000
1100
0010
0100
0010
0100
0010
0100
0010
0001
0010
0100
1000
,
0100
0010
0100
1000
0100
0010
0100
0001
0010
1000
0100
1000
0001
0100
0010
1000
,
0100
0001
1000
0010
0100
0010
0001
1000
0100
0010
1000
0100
0010
0000
0010
0000
,
0220
0000
0000
0330
0001
0000
0001
0000
0010
0000
0010
0000
0022
0000
0000
0033
,
2200
0000
0000
3300
0010
0000
0010
0000
0001
0010
0100
1000
0221
0000
0000
0000
,
0000
0000
0000
0000
0000
0000
0330
0000
0000
0000
0000
0000
1001
0100
0010
0100
,
0010
0100
0010
0100
1001
0010
0100
0010
0100
0010
0100
0010
1001
0100
0010
0100
,
0010
0100
0010
0100
0101
0000
0000
0000
0000
0000
0000
0000
2010
0000
0000
0000
,
0000
3200
0320
2030
,
0000
0000
0000
0000
0000
0000
0000
0000
0000
0000
3100
0010
0001
0010
0100
1000
,
0100
0010
0001
0010
0100
0001
0100
1000
0010
0001
0100
0001
0010
0100
0001
0010
,
2000
0000
0000
0000
0000
3000
0000
0000
0000
0000
0010
0100
0001
0100
0010
0001
,
1000
0010
0001
0100
0010
0001
0100
0010
0001
0100
0010
0001
1000
0100
0010
0100
,
0020
0000
0000
0000
0000
0000
0000
0000
0000
0000
0030
0000
1101
1110
0111
1011
,
1110
0010
1000
0100
0001
0010
0100
0010
,
1000
0001
0100
0010
0001
0010
0100
0010
,
1000
0001
1000
0001
1000
0001
1000
0001
,
0100
0010
1000
0001
0100
0010
0100
0001
,
1000
0010
0100
0010
0001
0010
0100
0001
,
1000
0010
0100
0010
0001
1000
0010
0100
,
0001
0000
1000
0000
0010
0000
0100
0000
0010
0000
0001
0000
1000
0100
0010
0100
,
1000
0000
0001
0000
1000
0000
0001
0000
1000
0000
0100
0010
1000
0100
0001
0010
,
2000
0000
0000
0000
0100
0000
0000
0000
0110
0000
0000
0000
3110
0010
0001
0010
,
0200
0000
0000
0300
1000
0100
1000
0100
0010
0100
0010
0100
0010
0001
0010
0001
,
2100
0000
0000
0000
0100
0000
0000
0000
0100
3000
0100
0000
0001
0010
0001
1000
,
1010
0101
0101
1001
0101
0101
1001
1001
,
1010
0000
0101
0000
1100
0000
0101
0010
1001
0000
1010
0000
1010
0000
1010
0000
,
0011
0000
0011
0000
0011
0000
1001
0010
0101
0000
0011
0000
0011
0000
0002
0000
,
0020
0000
0100
0003
2100
0000
0100
0030
,
0102
0000
0100
3000
0213
0000
0010
0000
,
2010
0000
0010
0300
0012
0000
0100
3000
,
0120
0000
0000
0000
0100
0000
0000
0000
0100
0000
0033
0000
0100
0001
0010
0100
,
1001
0010
0100
1000
0100
0010
0001
0010
0100
1000
0100
0010
0001
0010
0100
1000
,
0101
0010
0001
0010
0100
1000
0100
0010
0001
0010
0100
1000
0100
0010
0001
0010
,
0101
1100
0011
1110
0001
1010
0011
1010
,
1122
0000
0000
0000
0100
0000
0000
0033
2112
0000
0000
0000
0110
0000
0000
3003
,
0220
0000
0000
0000
,
0000
0000
0000
0000
,
0000
0000
0000
0000
,
0330
0000
0000
0000
;

//---------------dance-double - ----------------
#NOTES:
     dance-double:
     :
     Challenge:
     29:
     1.000,1.000,0.365,0.433,1.000,1368.000,59.000,70.000,0.000,35.000:


00000000
00000000
00000000
00000000
00000000
00200000
00000000
00000000
00000000
00000000
00000000
00000000
00000000
00000000
00000000
00000000
,
00000000
00000020
00000000
00000000
,
00000000
00000000
00000000
00000000
00000000
00300030
00000000
10000000
01000000
00100000
00000000
00010000
00001000
00000100
00000000
00000010
,
00000001
00000010
00000000
00000100
00001000
00010000
00000000
00100000
01000000
10000000
00000000
01000000
00100000
00010000
00000000
00001000
,
00000100
00000010
00000000
00001000
00010000
00100000
00000000
00000000
10000000
00000000
01000000
00000000
00100000
00000000
00010000
00000000
,
00001000
00010000
00001000
00010000
00001000
00000100
00000010
00000001
,
00000010
00000000
00000100
00000000
00001000
00000000
00010000
00000000
00001000
00000010
00000001
00000010
00000001
00000010
00000001
00000010
,
00000001
00000010
00000001
00000010
00000100
00000010
00000100
00000010
00000100
00000010
00000100
00000010
00000100
00000010
00000100
00001000
,
00000100
00001000
00000100
00001000
00000100
00001000
00000100
00001000
00000100
00001000
00010000
00001000
00010000
00001000
00010000
00001000
,
00010000
00001000
00010000
00001000
00010000
00100000
00010000
00100000
00010000
00100000
00010000
00100000
00010000
00100000
00010000
00100000
,
00010000
00100000
00010000
00100000
01000000
00100000
01000000
00100000
01000000
00100000
01000000
00100000
01000000
00100000
01000000
00100000
,
01000000
10000000
01000000
10000000
01000000
10000000
01000000
10000000
01000000
10000000
01000000
10000000
01000000
10000000
01000000
10000000
,
01000000
00100000
00010000
00001000
00000100
00001000
00000100
00001000
00100000
00000000
00010000
00000000
00001000
00000000
00000100
00000000
,
00002000
00003000
00000000
00000000
00000100
00000010
00000001
00000010
,
00000200
00000300
00000000
00000000
00100000
00010000
00002000
00003000
,
00100000
00100000
00010000
00001000
00000100
00000000
00000000
00000000
,
00000001
00000010
00000001
00000010
00000001
00000010
00000001
00000010
10000000
00000000
01000000
00000000
00100000
00000000
00010000
00000000
,
00002000
00003000
00000000
00000000
00000001
00000010
00000100
00001000
,
00020000
00030000
00000000
00000000
00001000
00000100
00000020
00000030
,
00000000
00000010
00000100
00001000
00010000
00000100
00010000
00100000
,
01000000
00000000
00100000
00000000
00010000
00000000
00001000
00000100
00000010
00000001
00000010
00000100
00001000
00010000
00001000
00010000
,
00001000
00100000
00010000
00001000
00100000
01000000
00100000
00001000
00000010
00010000
00010000
00100000
01000000
00001000
00010000
01000000
,
00001000
00010000
00000100
00000010
00010000
00001000
00001000
00000010
00001000
00100000
01000000
00001000
00010000
00100000
01000000
00000100
,
00001000
00010000
00000100
00000010
00001000
00010100
00000000
00000000
10000000
01000000
00100000
00000000
00010000
00001000
00000100
00000000
,
00000010
00000001
00000001
00000000
00000010
00000100
00001000
00000000
00010000
00100000
01000000
00000000
10000000
01000000
00100000
00000000
,
00001000
00000100
00000010
00000000
10000000
00010000
00000010
00000000
20000000
00000000
00000000
00000000
00000000
00000000
00000000
00000000
,
30200000
00300200
00000302
00000003
,
00000000
00000000
00000000
20000000
32000000
03200000
00320000
00032000
,
00003200
00000320
00000032
00000003
00000020
00000030
00002000
00000000
,
00000000
00003000
00000000
20000000
32000000
03200000
00320000
00032000
,
00003200
00000320
00000032
00000003
00000200
00000000
00020300
00000000
,
00000000
00000000
00000000
00000000
00030000
00000000
00000000
00000000
00000111
00001110
00011100
00111000
10000000
00000000
00100000
00000000
,
00001000
00100000
00010000
00000100
00001000
00100000
00001000
00000100
,
00010000
01000000
00001000
00000010
00010000
00000100
00000010
00010000
,
01000000
00010000
00000100
00000001
00001000
00100000
00001000
00100000
,
01000000
00010000
00000100
00010000
00100000
00001000
00000100
00100000
,
00001000
00100000
00000100
00010000
01000000
00001000
00000010
00010000
,
00001000
01000000
01000000
00001000
00000100
00010000
00000100
00010000
,
00000100
00000000
00100000
00000000
01000000
00000000
00000000
00001000
00010000
00000000
00000000
00010000
00001000
00000000
00000000
00001000
,
00010000
00000000
00000000
00010000
00001000
00000000
00000000
00001000
00010000
00000000
00001000
00000000
00000100
00000000
00001000
00000000
,
00100000
00010000
00001000
00010000
00100000
00010000
00001000
00000010
,
00000100
00000001
00000010
00000100
00000001
00001000
00010000
00000100
00001000
00010000
00001000
00010000
00001000
00000000
00000000
00000000
,
00000000
00000000
00000000
00000000
00000000
00000100
00001000
00000100
00000010
00000000
10000000
00000000
00100000
00000000
00000100
00000000
,
00010000
00000100
00010000
00000100
00010000
00000100
00010000
00100000
,
00001000
00000010
01000000
00000100
00010000
00001000
00000010
01000000
,
00010000
00000100
00010000
00000100
00010000
00000100
00200000
00000000
,
00000000
00320000
00000000
00032000
,
00000000
00003200
00000000
00000320
,
00000000
00000000
00000000
00000000
00000000
00000000
00000000
00000000
00000030
00000000
00000000
00000000
00000100
00000010
00000100
00000010
,
00000100
00000010
00000100
00000010
00000100
00000010
00000100
00000010
00000100
00000010
00000001
00001000
00000001
00001000
00000001
00001000
,
00000001
00001000
00000001
00001000
00000001
00001000
00010000
00001000
00010000
00001000
00010000
00001000
00010000
00001000
00010000
00100000
,
00010000
00100000
00010000
00100000
00010000
00100000
01000000
00100000
01000000
00100000
01000000
00100000
01000000
00100000
01000000
00100000
,
01000000
00100000
01000000
10000000
01000000
10000000
01000000
10000000
01000000
10000000
01000000
10000000
01000000
00100000
00010000
00001000
,
00000100
00000010
00000100
00001000
00000100
00001000
00000100
00001000
00000100
00001000
00000100
00001000
00010000
00001000
00010000
00001000
,
00010000
00001000
00010000
00001000
00010000
00100000
00010000
00100000
00010000
00100000
00010000
00100000
00010000
00100000
00010000
00100000
,
01000000
00100000
01000000
00100000
01000000
00100000
01000000
00100000
01000000
00100000
01000000
00100000
01000000
00100000
01000000
00100000
,
01000000
00100000
01000000
00100000
01000000
00100000
01000000
00100000
00010000
00001000
00010000
00000000
20000000
00000000
00000000
00000000
,
00000000
32000000
03200000
00320000
,
00000000
00030000
00002000
00000000
00000200
00000000
00003020
00000300
,
00000030
00000000
00002000
00000000
00000200
00003000
00000020
00000000
,
00000300
00000000
00000030
00000000
00001000
00010000
00001000
00000100
00010000
00100000
00000100
00001000
00010000
00000100
00010000
00100000
,
00000100
00001000
00001000
00000100
00010000
00001000
00000100
00010000
00000100
00010000
00100000
00000100
00001000
00000100
00010000
00001000
,
00000100
00010000
00000100
00010000
00000100
00100000
00001000
00000100
00000100
00010000
00000100
00100000
00000100
00100000
00000100
00001000
,
00010000
00000100
00010000
00000100
00100000
00001000
00010000
00000100
00100000
00000100
00010000
00001000
00000100
00001000
00000100
00010000
,
00100000
00000100
00010000
00001000
00010000
00000100
00100000
00000100
00010000
00000100
00001000
00001000
00010000
00000100
00100000
00001000
,
00000100
00001000
00000100
00001000
00000100
00001000
00000100
00001000
00000100
00010000
00001000
00010000
00001000
00010000
00001000
00100000
,
00001000
00100000
00010000
00001000
00100000
00001000
00100000
00001000
00100000
01000000
00010000
01000000
00001000
00100000
00001000
01000000
,
00001000
00100000
00010000
00001000
01000000
00001000
00001000
00100000
00010000
01000000
00001000
00100000
00010000
00001000
01000000
00010000
,
00001000
00010000
00000010
00000100
00001000
00000010
00001000
00100000
00000100
00100000
00100000
00000010
00100000
00000100
00100000
01000000
,
00000100
00010000
00000100
00100000
00000100
00100000
00000100
00100000
00010000
00000100
00100000
00000100
00100000
00001000
00100000
01000000
,
00000010
00000100
00010000
00000010
00010000
00100000
00000100
00001000
00000010
00010000
00000100
00000001
00010000
01000000
00010000
00100000
,
00000010
00001000
00010000
00000100
00100000
00000100
00010000
00000100
00000010
00010000
00100000
00100000
01000000
00001000
00000100
00010000
,
00100000
00100000
01000000
00100000
00010000
00001000
00000100
00000000
00010000
00000000
00000100
00000000
00000010
00000000
01000000
00000000
,
01000000
00000100
00000010
00000001
00010000
00100000
00000100
00100000
,
01000000
00000100
00010000
00001000
00010000
00100000
00000100
00100000
,
00010000
00000100
00100000
00001000
00010000
00000000
00122100
00000000
,
00000000
00000000
00000000
00000000
,
00000000
00000000
00000000
00000000
,
00000000
00000000
00000000
00000000
00000000
00000000
00033000
00000000
00000000
00100000
00000100
00100000
00000100
00100000
00000100
00100000
,
00000100
00100000
00000100
00100000
00000100
00100000
00000100
00100000
00000100
00100000
00000100
00100000
00000100
01000000
00000010
00100000
,
00000100
00100000
00000100
00001000
00000010
00010000
00100000
00001000
00000100
00010000
00000100
00001000
00100000
00000100
00100000
00000010
,
01000000
00000100
00001000
00000010
00000001
00001000
00000100
10000000
01000000
00010000
00000100
00010000
00000010
00000010
00000100
00000001
,
00000100
00001000
00010000
00100000
00000100
00100000
00000100
00100000
01000000
00000100
00100000
00000010
00100000
01000000
00001000
00000010
,
00000001
00001000
00000100
00010000
00100000
00001000
00000100
00010000
00100000
00100000
01000000
00010000
00010000
00100100
00000100
00001000
,
00000010
00000001
00010000
00001000
00000010
00100000
00000100
00010000
00000100
00001000
00100000
00010000
00000100
00000010
00001000
00010000
,
00000010
00000001
00000100
00000010
00000100
00010000
00000100
00000100
00010000
00100000
00000100
00010000
00000100
00000010
00001000
00010000
,
00000010
00001000
00000100
00010000
00001000
00010000
00001000
00010000
00001000
00010000
00001000
00010000
00001000
00010000
00001000
00010000
,
00001000
00010000
00001000
00010000
00001000
00010000
00001000
00010000
00001000
00010000
00001000
00010000
00001000
00010000
00001000
00010000
,
00001000
00010000
00001000
00010000
00001000
00010000
00001000
00010000
00001000
00010000
00001000
00010000
00001000
00010000
00001000
00010000
,
00001000
00010000
00001000
00010000
00001000
00010000
00001000
00010000
00001000
00010000
00001000
00010000
00001000
00000000
00000000
00000000
,
01000000
00100000
00010000
00001000
00000100
00000010
00000001
00001000
,
00000100
00010000
00100000
00010000
00100000
00010000
00100000
00010000
00100000
00010000
00001000
00000000
00000100
00000000
00000010
00000000
,
00000001
00000100
00000010
00000100
00001000
00100000
00010000
00001000
,
00000100
00000010
00000100
00001000
00000100
00010000
00001000
00010000
00001000
00010000
00001000
00010000
00001000
00010000
00001000
00010000
,
00001000
00010000
00001000
00010000
00001000
00010000
00001000
00010000
00001000
00010000
00001000
00010000
00001000
00010000
00001000
00010000
,
00001000
00010000
00001000
00010000
00001000
00010000
00001000
00010000
00001000
00010000
00001000
00011000
00000000
00000000
00000000
00000000
,
01000000
00100000
00010000
00001000
00000100
00000010
00000001
00000010
,
00000100
00001000
00000100
00001000
00000100
00001000
00000100
00001000
00010000
00000000
00100000
00000000
00001000
00000000
00100000
00000000
,
00001000
00010000
00100000
01000000
00010000
00100000
00001000
00001000
,
00010000
00000000
00100000
00000000
00100000
01000000
00100000
00010000
00001000
00010000
00001000
00000100
00000010
00000100
00001000
00010000
,
00100000
00001000
00010000
00001000
00100000
00001000
00000100
00000010
00010000
00001000
00000100
00010000
00000100
00010000
00001000
00000100
,
00001000
00000100
00001000
00000010
00001000
00010000
00001000
00000100
00000010
00001000
00000100
00000000
10000000
00000000
01000000
00000000
,
00100000
00010000
00100000
00010000
00000100
00001000
00001000
00010000
,
00010000
00001000
00001000
00010000
00010000
00001000
00011000
00000000
,
00000000
00000000
00000000
00000000
00000000
00000000
00000000
00000000
00000000
00000000
00000000
00111000
00000100
00001000
00000100
00001000
,
00000100
00001000
00110100
00001000
00000100
00001000
00000100
00001000
00000100
00001000
00110100
00001000
00000100
00001000
00000100
00001000
,
00000100
00001000
00110100
00000000
00000000
00000000
00000000
00000000
00000000
00000000
00000000
00000000
20000000
00000000
00000000
00000000
,
00000000
00000000
00200000
30000000
00320000
00000000
00002000
00030000
,
00000000
00000000
00000000
00000000
00000000
00000000
00000000
00003000
00000000
00000000
00000001
00000010
00000100
00001000
00010000
00100000
,
01000000
10000000
01000000
10000000
01000000
00100000
00010000
00001000
00000100
00000010
00000001
00000000
00000000
00000000
00000000
00000002
,
00000000
00000000
00000000
00000000
00000000
00000000
00000003
00000000
00000000
10000000
01000000
00100000
00010000
00001000
00000100
00000010
,
00000001
00000010
00000100
00001000
00010000
00100000
01000000
10000000
01000000
00100000
00010000
00001000
00000100
00000010
00000002
00000000
,
00000000
00000000
00000000
00000000
00000000
00000000
00000000
00000000
00000000
00000000
00000000
00000003
00001110
01110000
00001110
00111000
,
10000000
01000000
00010000
00010000
00100000
00001000
00000010
00000001
,
00000100
00001000
00000010
00001000
00000100
00010000
00100000
00001000
,
00000010
00100000
00010000
00000100
00000010
00000001
00100000
01000000
,
01000000
00000100
00000010
00001000
00000010
00100000
00100000
00000010
,
00000001
00010000
00100000
01000000
00000010
00000100
00000001
00000100
,
00001000
00000010
00010000
00100000
00000100
00000010
00001000
00000010
,
00000001
00010000
00100000
00010000
01000000
00000010
00001000
00001000
,
00000010
00000000
00100000
00000000
00010000
00000000
00000010
00000000
00010000
00001000
00000100
00000010
00000010
00000001
00000001
00000100
,
00001000
00010000
00100000
00010000
00000100
00010000
00000100
00100000
,
00010000
00000000
00001000
00001000
00000100
00000010
00000001
00000001
00000010
00000100
00000010
00000001
00001000
00000100
00000010
00000000
,
00001000
00000000
00000100
00000000
00000010
00000000
00000100
00000000
00000010
00000000
00001000
00000000
00000100
01011000
00100000
01010000
,
00000000
01110000
01100000
00000000
00000110
00000000
00110000
00000000
00001100
00000000
00011000
00000000
01100000
00000000
11000000
00000000
,
00001100
00110000
00000110
00000011
11110000
00111100
00001111
00111000
,
00001110
00110000
01100000
00000111
00011000
00001110
01110000
00000110
,
00021000
00001000
00032000
00010000
,
00023000
00001000
00032000
00010000
,
00023000
00001000
00032000
00010000
,
00023000
00000000
00000000
00000000
00000000
00000000
00000000
00000000
00030000
00000001
00000010
00000100
00001000
00010000
00100000
01000000
,
10000000
01000000
00100000
00010000
00001000
00000100
00000010
00000001
00000010
00000100
00001000
00010000
00100000
01000000
10000000
01000000
,
00100000
00010000
00001000
00000100
00000010
00000001
10000000
00001000
00000100
00000010
00000001
10000000
00001000
00000100
00000010
00000001
,
00001110
00011100
00111000
01110000
11100000
01110000
00111000
00011100
,
00001110
00011000
11100000
00011000
00011000
00011000
22222222
00000000
,
00000000
00000000
00000000
00000000
,
00000000
00000000
00000000
00000000
00000000
00000000
00000003
00000030
,
00000300
00003000
00030000
00300000
03000000
30000000
00000000
00000000
;
