#TITLE:Listening to Coast to Coast;
#SUBTITLE:As heard on Coast to Coast AM;
#ARTIST:UFO Phil;
#TITLETRANSLIT:;
#SUBTITLETRANSLIT:;
#ARTISTTRANSLIT:;
#CREDIT:Josh;
#BANNER:coast2coast2-banner.png;
#BACKGROUND:coast2coast-bg.JPG;
#LYRICSPATH:;
#CDTITLE:.JPG;
#MUSIC:coast2coast2.mp3;
#OFFSET:-7.560;
#SAMPLESTART:87.560;
#SAMPLELENGTH:12.000;
#SELECTABLE:YES;
#BPMS:0.000=90.000,24.000=180.001,88.000=45.000,96.000=90.000,128.000=180.000,136.000=180.002,264.000=100.001;
#STOPS:127.750=10.660
;
#BGCHANGES:;
// cache tags:
#FIRSTBEAT:4.000;
#LASTBEAT:288.000;
#SONGFILENAME:Songs/toune 6/Listening to Coast to Coast/coast2coast.sm;
#HASMUSIC:1;
#HASBANNER:1;
#MUSICLENGTH:151.750;
// end cache tags

//---------------dance-single - ----------------
#NOTES:
     dance-single:
     :
     Hard:
     10:
     0.648,0.815,0.903,0.026,0.379,547.000,137.000,4.000,0.000,0.000:
0000
0000
0000
0000
,
0000
0000
0000
0000
,
1000
1000
0100
0010
0001
1000
0010
0100
0001
1000
0100
0010
0001
0010
0100
1000
,
0010
0010
0100
0001
0100
0010
0100
0010
1000
0010
1000
0100
0010
0001
0010
0100
,
1000
1000
0010
0100
0001
0010
0100
1000
0010
0100
0001
1000
0100
0010
0001
0010
,
0100
1000
1000
0100
0010
0001
0010
0100
0010
0001
1000
0100
0010
0001
0010
0000
,
1100
0000
0010
0000
,
0110
0000
0110
0000
0110
0110
0110
0110
,
0110
0110
0000
0000
0001
0000
0000
0000
,
0101
0000
0101
0000
0101
0101
0101
0101
,
0101
0101
0000
0000
1000
0000
0000
0000
,
1100
0000
1100
0000
1100
1100
1100
1100
,
1100
1100
0000
0000
0010
0000
0000
0000
,
0110
0000
0110
0000
0110
0110
0110
0110
,
0110
0110
0000
0000
0001
0000
0000
0000
,
1001
0000
1001
0000
1001
1001
1001
1001
,
1001
1001
0000
0000
1000
0000
0000
0000
,
1010
0000
1010
0000
1010
1010
1010
1010
,
1010
1010
0000
0000
0001
0000
0000
0000
,
0101
0000
0101
0000
0101
0101
0101
0101
,
0101
0101
0000
0000
1000
0000
0000
0000
,
1100
0000
1100
0000
1100
1100
1100
1100
,
1000
0000
0000
0100
0000
0000
1000
0000
0000
0100
0000
0000
0010
0000
0000
0100
0000
0000
0010
0000
0100
0000
0100
0000
0010
0000
0000
0001
0000
0000
0010
0000
0000
0001
0000
0000
0010
0000
0000
0001
0000
0000
0010
0000
0001
0000
0001
0000
,
1000
0000
0000
0100
0000
0000
1000
0000
0000
0100
0000
0000
0010
0000
0000
0100
0000
0000
0010
0000
0100
0000
0100
0000
0010
0000
0000
0001
0000
0000
0010
0000
0000
0001
0000
0000
0010
0000
0000
0001
0000
0000
0010
0000
0001
0000
0001
0000
,
1000
1000
0100
0010
0001
1000
0010
0100
0001
1000
0100
0010
0001
0010
0100
1000
,
0010
0010
0100
0001
0100
0010
0100
0010
1000
0010
1000
0100
0010
0001
0010
0100
,
1000
1000
0010
0100
0001
0010
0100
1000
0010
0100
0001
1000
0100
0010
0001
0010
,
0100
1000
1000
0100
0010
0001
0010
0100
0010
0001
1000
0100
0010
0001
0010
0100
,
1000
1000
0100
0010
0001
1000
0010
0100
0001
1000
0100
0010
0001
0010
0100
1000
,
0010
0010
0100
0001
0100
0010
0100
0010
1000
0010
1000
0100
0010
0001
0010
0100
,
1000
1000
0010
0100
0001
0010
0100
1000
0010
0100
0001
1000
0100
0010
0001
0010
,
0100
0000
1000
0000
1000
0000
0100
0000
0010
0000
0001
0000
0010
0000
0100
0000
0010
0000
0001
0000
1000
0000
0100
0000
0010
0000
0001
0000
0010
0000
2200
3300
,
1100
0100
0110
0010
0011
0010
0100
1000
,
0100
0010
0001
0010
0100
1000
1000
0100
,
1100
0100
0110
0010
0011
0001
0011
0110
,
0000
1100
0000
1010
0000
0101
0101
0000
,
0101
0100
0110
0010
1010
1000
0100
0010
,
0001
1000
0010
0100
0001
0010
0100
1000
,
1100
0100
0110
0010
0011
1000
0100
0010
,
0001
1000
0010
0100
0001
0010
0100
1000
,
1100
0100
0110
0010
0011
0010
0100
1000
,
0100
0010
0001
0010
0100
1000
1000
0100
,
1100
0100
0110
0010
0011
0001
0011
0110
,
0000
1100
0000
1010
0000
0101
0101
0000
,
0101
0100
0110
0010
1010
1000
0100
0010
,
0001
1000
0010
0100
0001
0010
0100
1000
,
1100
0100
0110
0010
0011
1000
0100
0010
,
0001
1000
0010
0100
0001
0010
0100
1000
,
0011
0010
0110
0100
1100
0100
0010
0001
,
0010
0100
1000
0100
0010
0001
0001
0010
,
0011
0010
0110
0100
1100
1000
1100
0110
,
0000
0011
0000
0101
0000
1010
1010
0000
,
1010
0010
0110
0100
0101
0001
0010
0100
,
1000
0001
0100
0010
1000
0100
0010
0001
,
0011
0010
0110
0100
1100
0001
0010
0100
,
1000
0001
0100
0010
1000
0100
0010
0001
,
0011
0010
0110
0100
1100
0100
0010
0001
,
0010
0100
1000
0100
0010
0001
0001
0010
,
0011
0010
0110
0100
1100
1000
1100
0110
,
0000
0011
0000
0101
0000
1010
1010
0000
,
1010
0010
0110
0100
0101
0001
0010
0100
,
1000
0001
0100
0010
1000
0100
0010
0001
,
0011
0010
0110
0100
1100
0001
0010
0100
,
1000
0001
0100
0010
1000
0100
0010
0001
,
1000
1000
1000
1000
,
0001
0001
0001
0001
,
2002
0000
0000
0000
0000
0000
0000
3003
;

//---------------dance-single - ----------------
#NOTES:
     dance-single:
     :
     Easy:
     1:
     0.247,0.285,0.646,0.237,0.000,122.000,98.000,36.000,0.000,3.000:
0000
0000
0000
0000
,
1000
0100
0010
0001
,
0010
0100
1000
0100
,
0010
0001
0010
0100
,
1000
0100
0010
0001
,
0010
0100
1000
0100
,
0000
1001
0000
1001
,
0000
1001
0000
1001
,
0000
1001
0000
1001
,
0000
1001
0000
1001
,
0000
1001
0000
1001
,
0000
0110
0000
0110
,
0000
0110
0000
0110
,
0000
0110
0000
0110
,
0000
0110
0000
0110
,
0000
1100
0000
0011
,
0000
1100
0000
0011
,
0000
1100
0000
0011
,
0000
2222
0000
0000
,
0000
0000
3333
0000
,
1100
0000
0011
0000
,
1100
0000
0011
0000
,
2222
0000
0000
0000
,
3333
0000
0220
0000
,
0330
0000
1100
0000
,
0011
0000
1100
0000
,
0110
0000
0110
0000
,
0110
0000
0110
0000
,
0110
0000
0110
0000
,
0220
0000
0330
0000
,
0110
0000
0110
0000
,
0220
0000
0000
0330
,
0000
0220
0000
0000
,
0000
0000
0000
0000
,
0000
0330
0000
0110
,
0000
0110
0000
0220
,
0000
0000
0000
0000
,
0330
0000
0110
0000
,
1100
0000
0011
0000
,
0220
0000
0000
0330
,
0000
1000
0100
0010
,
0001
0000
0110
0000
,
0110
0000
0110
0000
,
0110
0000
0110
0000
,
0110
0000
0110
0000
,
0110
0000
0110
0000
,
0110
0000
0110
0000
,
2222
0000
0000
0000
,
0000
0000
0000
3333
,
0000
0110
0000
0110
,
0000
0110
0000
0110
,
0000
0110
0000
0110
,
0000
0110
0000
0220
,
0000
0000
0000
0000
,
0000
0000
0000
0000
,
0000
0000
0000
0330
,
0000
0110
0000
1100
,
0000
0011
0000
1100
,
0000
0011
0000
1100
,
0000
0011
0000
1100
,
0000
0011
0000
1100
,
0000
0011
0000
1100
,
0000
0011
0000
1100
,
0000
0011
0000
1100
,
0000
0011
0000
1100
,
0000
0220
0000
0000
,
0000
0330
0000
0110
,
0000
2200
3300
0022
,
0033
0000
0110
0000
,
0110
0000
2200
3300
,
0022
0000
0000
0000
,
0000
0000
0000
0000
,
0033
0000
0000
0000
;
