#TITLE:IN MY DREAMS;
#SUBTITLE:(U.K. MIX);
#ARTIST:REBECCA;
#TITLETRANSLIT:;
#SUBTITLETRANSLIT:;
#ARTISTTRANSLIT:;
#CREDIT:;
#BANNER:in my dreams.png;
#BACKGROUND:in my dreams-bg.png;
#LYRICSPATH:;
#CDTITLE:dmx.gif;
#MUSIC:103-in_my_dreams_(u.k._mix).mp3;
#OFFSET:0.100;
#SAMPLESTART:43.680;
#SAMPLELENGTH:12.000;
#SELECTABLE:YES;
#BPMS:0.000=139.340;
#STOPS:;
#BGCHANGES:;
// cache tags:
#FIRSTBEAT:4.000;
#LASTBEAT:200.000;
#SONGFILENAME:Songs/toune 5/103-in_my_dreams_(u.k._mix)/103-in_my_dreams_(u.k._mix).sm;
#HASMUSIC:1;
#HASBANNER:1;
#MUSICLENGTH:89.031;
// end cache tags

//---------------dance-single - ----------------
#NOTES:
     dance-single:
     :
     Easy:
     4:
     0.348,0.337,0.427,0.022,0.000,177.000,38.000,2.000,0.000,0.000:
0000
0000
0000
0000
,
1000
0001
1000
1100
,
0001
1000
0001
0101
,
0100
0010
0100
1000
,
0001
0100
0010
1001
,
1000
1000
0001
0011
,
0001
0001
1000
1010
,
0100
0010
1000
0001
,
0010
0100
0001
1001
,
1100
0000
0100
0100
,
0101
0000
0100
0100
,
1001
0000
1000
0001
,
0100
0010
1000
0001
,
0011
0000
0010
0010
,
1010
0000
0010
0010
,
0110
0000
0010
0100
,
1000
0001
0010
0001
,
1000
1000
0100
0100
,
0001
0001
0100
0100
,
0010
0010
1000
1000
,
0001
0001
0010
0010
,
1000
1000
0001
0001
,
0100
0100
0010
0010
,
1000
0001
0100
0010
,
1000
0001
0010
1001
,
0101
0000
0100
1000
,
1100
0000
0100
0001
,
0101
0000
0100
1000
,
0001
0010
0100
1000
,
1010
0000
0010
0001
,
0011
0000
0010
1000
,
1010
0000
0010
0001
,
1000
0100
0010
0001
,
1100
0100
0100
0100
,
0011
0010
0010
0010
,
1001
0001
1000
0001
,
0110
0100
0010
0100
,
0011
0000
1100
0000
,
0100
0001
1000
1001
,
1010
0000
0101
0000
,
1000
0010
0100
0110
,
1001
0100
0100
0010
,
1001
0010
0010
0100
,
0011
0001
0010
1000
,
1010
1000
0010
0001
,
1001
0100
0010
0100
,
1001
0100
0010
0100
,
0110
0001
1000
0001
,
0110
0001
1000
0001
,
2002
0000
0000
0000
,
3003
0000
0000
0000
;

//---------------dance-single - ----------------
#NOTES:
     dance-single:
     :
     Medium:
     6:
     0.462,0.449,0.348,0.022,0.000,255.000,31.000,2.000,0.000,0.000:
0000
0000
0000
0000
,
1000
0000
0001
0000
1000
0001
0100
0000
,
0001
0000
1000
0000
0001
1000
0100
0000
,
1000
0000
0010
0000
1000
0001
0010
0000
,
0001
0000
1000
0000
0001
1000
0010
0100
,
0001
0000
0001
0000
0001
0100
1000
0000
,
1000
0000
1000
0000
1000
0100
0001
0000
,
0001
0000
0001
0000
0001
1000
0100
0000
,
1000
0000
1000
0000
1000
0001
0100
0010
,
0100
0000
0100
0000
0100
0001
0010
0000
,
0010
0000
0010
0000
0010
1000
0100
0000
,
0100
0000
1000
0000
0001
0100
0001
0000
,
0100
0000
0001
0000
1000
0100
1000
0100
,
0010
0000
0100
0000
0010
0100
1000
0000
,
0100
0000
0010
0000
0100
0010
0001
0000
,
0010
0000
1000
0000
0100
0010
1000
0000
,
0010
0000
0001
0000
0010
0100
0001
1000
,
0100
0000
0100
0000
0100
0001
0100
1000
,
0100
0000
0100
0000
0100
1000
0100
0001
,
0100
0000
0010
0000
0100
1000
0001
0100
,
1000
0000
0001
0000
0010
0100
1000
0010
,
0100
0000
0001
0000
0001
0100
1000
0100
,
0001
0000
0010
0000
1000
0100
0001
0100
,
1000
0000
0010
0000
0100
0010
1000
0001
,
0100
1000
0010
0001
0100
1000
0100
0010
,
0001
0000
1000
0100
0001
0100
1000
0000
,
0001
0000
1000
0100
0001
0100
1000
0000
,
0001
0000
0100
0000
0100
0010
1000
0000
,
0010
0000
0100
0001
0010
0001
0100
0000
,
1000
0000
0001
0010
1000
0010
0001
0000
,
1000
0000
0001
0010
1000
0010
0001
0000
,
1000
0000
0010
0000
0010
0100
0001
0000
,
0100
0000
0010
1000
0100
1000
0010
0000
,
1100
0000
0101
0000
0001
0010
0100
0000
,
0101
0000
1100
0000
1000
0010
0100
0000
,
1001
0000
1100
0000
0100
0010
0001
0000
,
1001
0000
0101
0000
0100
0010
1000
0000
,
1010
0000
0101
0000
,
1000
0000
0001
0000
1000
0001
1000
0000
,
0011
0000
1100
0000
,
0001
0000
1000
0000
0001
1000
0001
0000
,
1100
0110
0011
1001
,
1000
0100
1000
0000
0001
0100
0001
0000
,
0011
0110
1100
1001
,
0110
0000
0100
0010
0100
0010
0100
0000
,
0101
0110
1010
1001
,
0100
0001
0100
0000
0100
1000
0100
0000
,
1010
0110
0101
1001
,
0110
0000
1000
0001
1000
0001
1000
0000
,
2002
0000
0000
0000
,
3003
0000
0000
0000
;

//---------------dance-single - Copied from----------------
#NOTES:
     dance-single:
     Copied from:
     Hard:
     8:
     0.570,0.505,0.607,0.135,0.000,289.000,54.000,12.000,0.000,0.000:
0000
0000
0000
0000
,
1000
0100
1000
1000
0001
0100
0001
0000
,
0001
0100
0001
1000
1000
0100
1000
0000
,
1000
0100
0001
0100
1000
0100
0001
0000
,
0001
0100
1000
0100
0001
0100
1000
0000
,
0100
0010
0001
0100
0010
1000
0100
0000
,
0001
0010
0100
1000
0100
0010
0001
0000
,
0010
0100
1000
0010
0100
0001
0010
0000
,
1000
0100
0010
0001
0001
0010
0100
1000
,
1001
0000
1000
0000
1100
0100
0001
0000
,
1001
0000
0001
0000
0101
0100
1000
0000
,
0011
0001
0100
0000
1010
1000
0100
0000
,
0010
1000
0100
0010
0001
0100
0010
0100
,
1001
0000
1100
0000
1000
0100
0101
0000
,
1001
0000
0101
0000
0001
0100
1100
0000
,
0001
0010
0011
0000
1000
0010
1010
0000
,
0100
1000
0010
0100
0001
0010
0100
1000
,
1001
0000
0100
0000
0100
0010
0010
0100
,
1001
0000
0010
0000
0100
0010
0010
0100
,
1001
0000
1000
0000
0001
0001
1000
1000
,
0110
0000
0001
0000
1000
1000
0001
0001
,
0110
0000
1000
0100
0101
0000
0001
0100
,
1100
0000
0001
0010
1010
0000
1000
0010
,
0011
1100
0101
1001
,
1000
0100
0010
0001
0010
0100
1000
0100
,
0010
0001
0100
0010
1000
0100
0010
1001
,
0000
0100
0010
1000
0001
0100
0010
1001
,
0000
0100
1000
0001
0100
0010
0100
1000
,
0001
0010
0100
0010
0001
0010
0100
0010
,
0000
1000
0100
0010
0001
1000
0100
0011
,
0000
0001
0010
0100
1000
0001
0010
1100
,
0000
0100
0010
0001
1000
0100
0010
0000
,
1000
0100
0010
0100
1000
0100
0010
0100
,
0011
0000
1001
0000
1000
0100
0001
0100
,
1100
0000
0110
0000
0001
0010
1000
0010
,
1001
0000
1000
0100
0010
0100
1000
0000
,
0001
0010
1000
0100
1000
0010
0001
0000
,
2200
3300
0000
0202
0000
0000
0303
0000
,
1000
0001
0100
0010
1000
0002
0003
0000
,
0022
0033
0000
2020
0000
0000
3030
0000
,
0100
0010
1000
0001
0100
0020
0030
0000
,
1001
0000
0100
1000
0000
0101
0000
1001
,
0000
0000
0010
0100
0000
1100
0000
1001
,
0000
0000
0100
0010
0000
0110
0000
1001
,
0000
1000
0100
0010
0001
0000
0100
0000
,
1001
0000
0010
0100
0000
0011
0000
1001
,
0000
0000
0100
0010
0000
1010
0000
1001
,
0000
0000
0100
0010
0000
0110
0000
1001
,
0000
0001
0100
0010
1000
0000
0100
0000
,
2002
0000
0000
0000
,
3003
0000
0000
0000
;
