#TITLE:Momentary Life;
#SUBTITLE:;
#ARTIST:S.S.H.;
#TITLETRANSLIT:;
#SUBTITLETRANSLIT:;
#ARTISTTRANSLIT:;
#CREDIT:;
#BANNER:MomentaryLife-Banner.jpg;
#BACKGROUND:MomentaryLife-BG.jpg;
#LYRICSPATH:;
#CDTITLE:cdtitle.jpg;
#MUSIC:Momentary Life.mp3;
#OFFSET:-5.940;
#SAMPLESTART:131.480;
#SAMPLELENGTH:12.000;
#SELECTABLE:YES;
#BPMS:0.000=216.060;
#STOPS:;
#BGCHANGES:;
// cache tags:
#FIRSTBEAT:0.000;
#LASTBEAT:696.000;
#SONGFILENAME:Songs/StepmaniaFreak's Favorites/(DanTheMan) Momentary Life/Momentary Life.sm;
#HASMUSIC:1;
#HASBANNER:1;
#MUSICLENGTH:203.192;
// end cache tags

//---------------dance-single - ----------------
#NOTES:
     dance-single:
     :
     Hard:
     12:
     1.000,1.000,0.965,0.271,0.810,1617.000,196.000,55.000,0.000,0.000:
1000
0001
1000
0100
0010
0001
1000
0001
1000
0100
0010
0001
1000
0001
1000
0001
,
1000
0000
0101
0000
1000
1000
0101
1000
,
1000
1000
0101
0101
1000
1000
0101
0000
,
0001
0000
1010
0000
0001
0001
1010
0001
,
0001
0001
1010
1010
0001
0001
0220
0330
,
1000
0000
0100
0000
0010
0001
0010
0100
,
1000
0000
1000
0000
0001
1000
0010
0100
,
0001
1000
0010
0000
0010
0100
1000
0001
,
0010
0000
0010
0000
0010
0100
1000
0100
,
1000
0100
0010
0000
0010
0001
0010
0100
,
0010
0000
0010
0000
0010
0001
1000
0100
,
0010
0001
1000
0000
1000
0001
1000
0100
,
1000
0000
1000
0000
1000
0100
0010
0001
,
1000
0001
1000
0000
1000
0000
1000
0000
0100
0000
1000
0000
1000
0000
1000
0000
,
0100
0000
1000
0000
0100
0000
0010
0000
0001
0010
0100
0000
1000
0000
1000
0000
,
1000
0100
0010
0000
1000
0000
1000
0100
0010
0000
0001
0000
1000
0000
0001
0000
,
0001
1000
0001
0000
0001
0000
0001
0000
0010
0000
1000
0000
0100
0000
0010
0000
,
0001
1000
0001
0000
0001
0000
0001
0000
0010
0000
0001
0000
0001
0000
0001
0000
,
0010
0000
0001
0000
0010
0000
0100
0000
1000
0100
0010
0000
0100
0000
0100
0000
,
0100
1000
0010
0100
0001
1000
0010
0100
0001
1000
0010
0100
0001
1000
0010
0100
,
0001
1000
0010
0100
0001
1000
0100
0010
0001
0010
0100
1000
0001
1000
0010
0100
,
0001
0010
1001
0010
0100
1010
0100
1000
,
0101
0010
0001
1010
0100
1000
0101
0010
,
1000
0100
1010
0100
1010
0100
0010
0001
,
1000
0001
0010
0100
1000
0001
0010
0001
0010
0100
1000
0001
1000
0001
1000
0001
,
1000
0100
1000
0010
1000
0001
1000
0020
,
0000
0030
0001
0000
0010
0000
0200
0000
0000
0000
1300
0000
0100
0000
0010
0000
,
0001
0000
0001
0001
0000
0001
0010
0200
,
0000
0000
0000
0300
1000
0100
0010
0001
,
1000
0100
1000
0010
1000
0001
1000
0200
,
0000
0300
0010
0000
0001
0000
0020
0000
0000
0000
1030
0000
0001
0000
1000
0000
,
0002
0000
0000
0023
0000
0000
0230
0000
,
2300
0100
3010
0100
0000
0100
0010
0000
,
0001
0010
0001
0100
0001
1000
0001
0200
,
0000
0300
0010
0000
0001
0000
2000
0000
0000
0000
0100
3000
0010
0000
0001
0000
,
1000
0000
1000
1000
0000
1000
0100
2000
,
0000
3000
0101
0010
0101
0010
0101
0010
,
0100
0010
0100
1000
0100
0001
0100
0020
,
0000
0000
0130
0000
1000
0000
0200
0000
0000
0300
0010
0000
0100
0000
0001
0000
,
0020
0000
0000
0000
0000
0000
0230
0000
0000
0000
0000
0000
2300
0000
0000
3000
,
0011
0000
0000
0100
0000
0000
0100
0000
0000
0011
0000
0000
0000
0000
0000
1000
0100
0010
0101
0000
0000
0000
0000
0000
,
1000
0000
0110
1000
0100
0010
0101
0010
,
0001
0000
0010
0000
1010
0000
0100
0000
1000
0100
0010
0000
0101
0000
0010
0000
,
2100
0000
0000
3000
0110
0000
0001
0000
1000
0000
0100
0000
1010
0000
0100
0000
,
0010
0001
1010
1010
0100
1000
0102
0003
,
1010
0100
1010
0100
1010
0100
0010
0001
,
0110
0001
0010
0100
1000
0100
1001
0100
,
0011
1000
0011
1000
0011
1000
0100
0010
,
1100
0000
0010
0000
0100
0000
1000
0000
0100
0000
1000
0001
1000
0000
0001
0000
,
0102
0000
0003
0100
1000
0100
0010
0100
,
0001
0100
1000
0100
0010
0001
0020
0030
,
0000
0010
0100
0010
1000
0010
0100
0010
,
0100
1000
0100
0020
0030
0001
2000
3000
,
0010
0010
0101
0010
0010
0101
0010
0010
,
1100
0000
0000
0100
0000
0000
0010
0000
0000
0101
0000
0000
0010
0000
0000
0001
0000
0000
1010
0000
0000
1000
0100
0010
,
0001
0000
0001
0000
1100
0000
0010
0000
1000
0001
0100
0000
1010
0000
0100
0010
,
0001
0000
0000
0000
0000
0000
0010
0000
0000
0000
0000
0000
0101
0000
0000
0000
0000
0000
0010
0000
0000
0000
0000
0000
0001
0000
0000
1000
0000
0000
0100
0000
0000
0000
0000
0000
1010
0000
0000
0000
0000
0000
1000
0000
0001
0000
1000
0000
,
0100
0000
0010
0000
0101
0000
0010
0000
1000
0100
1000
0000
0101
0000
0010
0001
,
0010
0000
0000
0000
0000
0000
0100
0000
0000
0000
0000
0000
1010
0000
0000
0000
0000
0000
0100
0000
0000
0000
0000
0000
0010
0000
0000
0100
0000
0000
0010
0000
0000
0000
0000
0000
0101
0000
0000
0000
0000
0000
0001
0000
0010
0000
0100
0000
,
1000
0000
0100
0000
1010
0000
0100
0000
0001
1000
0001
0000
0101
0000
0010
0100
,
0001
0000
0010
0000
1100
0000
0010
0000
1000
0001
0100
0000
1010
0000
0001
0000
,
0100
0000
0010
0000
1100
0000
0010
0000
1000
0100
0010
0000
0101
0000
0010
0000
,
1100
0000
0010
0000
0010
0000
1100
0000
0010
0000
1000
0100
1001
0000
1001
0000
,
0100
0000
1000
0000
0101
0000
0010
0000
0001
1000
0001
0000
0110
0000
1000
0001
,
0100
0000
0000
0000
0000
0000
0010
0000
0000
0000
0000
0000
1001
0000
0000
0000
0000
0000
0010
0000
0000
0000
0000
0000
0100
0000
0000
1000
0000
0000
0100
0000
0000
0000
0000
0000
1010
0000
0000
0000
0000
0000
0001
0000
0010
0000
0100
0000
,
1000
0000
0100
0000
0011
0000
0100
0000
0001
0010
0100
0000
1001
0000
0010
0100
,
1000
0000
0000
0000
0000
0000
0100
0000
0000
0000
0000
0000
1100
0000
0000
0000
0000
0000
0010
0000
0000
0000
0000
0000
0001
0000
0000
1000
0000
0000
0100
0000
0000
0000
0000
0000
1010
0000
0000
0000
0000
0000
1000
0000
0100
0000
0010
0000
,
0001
0000
0000
0000
0000
0000
0010
0000
0000
0000
0000
0000
0101
0000
0000
0000
0000
0000
0010
0000
0000
0000
0000
0000
1000
0000
0000
0001
0000
0000
0100
0000
0000
0000
0000
0000
1010
0000
0000
0000
0000
0000
1000
0000
0010
0000
0100
0000
,
0001
0000
0000
0000
0000
0000
0010
0000
0000
0000
0000
0000
1001
0000
0000
0000
0000
0000
0010
0000
0000
0000
0000
0000
1000
0000
0000
0100
0000
0000
0010
0000
0000
0000
0000
0000
0101
0000
0000
0000
0000
0000
0001
0000
0010
0000
0100
0000
,
1000
0000
0100
0000
0011
0000
0010
0000
0001
1000
0001
0000
0110
0000
0010
0000
,
1001
0000
0100
0000
1001
0000
0100
0000
1001
0010
0100
0000
1001
0000
0100
0000
,
1000
0100
0010
0001
0010
0100
0100
0100
,
1000
0010
0100
0001
0010
0100
0100
0100
,
1000
0100
0010
0001
0010
0100
0100
0100
,
1000
0010
0100
0001
0010
0100
0100
0100
,
1000
0001
1000
0001
1000
0001
1000
0001
1000
0010
1000
0010
1000
0010
1000
0010
,
0100
0001
0100
0001
0100
0001
0100
0001
0010
0001
0010
0001
0010
0001
0010
0001
,
1000
0001
1000
0001
1000
0001
1000
0001
0010
0100
0010
0100
0010
0100
0010
0100
,
1000
0010
0100
0010
0100
0001
0100
0001
0100
0010
1000
0001
,
0200
0000
0301
0001
0010
0001
0010
0100
,
1000
0000
0100
0000
1000
0000
0010
0000
1000
0001
0100
0000
0010
0000
0001
0000
,
0010
0100
1000
0000
0100
0000
0010
0100
1000
0000
0100
0000
0010
0000
0001
0000
,
1000
1000
1000
1000
0100
0010
0001
0010
,
0001
0001
0001
0001
0010
0100
0010
0100
,
1000
0000
0100
0000
1000
0000
0010
0000
0100
0001
0100
0000
0010
0000
0001
0000
,
1000
0001
0100
0010
1000
0001
0100
0010
1000
0001
0100
0010
1000
0001
0100
0010
,
1000
0001
0100
0010
1000
0100
0010
0001
1000
0010
0100
0001
1000
0100
0010
0001
,
1000
0100
0010
0000
0101
0000
0100
0000
0010
0000
0001
1000
0110
0000
1000
0100
,
1000
0000
0100
0000
0011
0000
0100
0000
0001
1000
0010
0100
0001
1000
0100
0010
,
0001
1000
0010
0100
0001
0000
1000
0000
0100
0000
1000
0100
0010
0001
1000
0001
,
0010
0000
0010
0000
0100
0000
0010
0000
1000
0001
0100
0000
0010
0000
0100
0000
,
1000
0100
0010
0001
1000
0001
0010
0100
1000
0100
0010
0001
1000
0001
0010
0100
,
1000
0100
0010
0100
0010
0001
0010
0001
0010
0100
1000
0100
,
0010
0010
0100
0010
0001
0001
1000
0001
,
0001
0100
0010
1000
0001
0100
0010
1000
0001
0100
0010
1000
0001
0010
0100
1000
,
0001
0000
0010
0100
1000
0000
0001
0000
0010
0100
1000
0000
0001
0000
0010
0100
,
0010
0000
0100
1000
0001
0000
0010
0000
0100
1000
0001
0000
0010
0000
0100
0010
,
0001
0000
0001
0100
0010
0000
1000
0000
0001
0100
0010
0000
0010
0000
0010
0100
,
0001
0000
0100
0000
0010
0000
1000
0000
0100
0010
0001
0000
0010
0000
0100
0000
,
1000
0000
0100
0010
0001
0000
1000
0000
0100
0010
0001
0000
1000
0000
0010
0100
,
0010
0000
0010
1000
0100
0000
0010
0000
0010
0001
0100
0000
0010
1000
0001
0100
,
0010
1000
0001
1000
0010
0100
0001
1000
0001
0010
0100
0010
0001
0010
0100
1000
,
0001
1000
0100
0010
0001
0100
0010
1000
0001
1000
0010
0100
0001
1000
0100
0010
,
0001
0001
1010
0001
0001
1010
0001
0001
,
1010
0000
0100
0000
0010
0000
0101
0000
0010
0000
1001
0000
0010
0000
1000
0001
,
1000
0000
0101
0010
0001
0010
0101
0010
,
1000
0000
0100
0000
1010
0000
0100
0000
0001
1000
0001
0000
0110
0000
0001
0000
,
2000
0000
0000
3000
0110
0000
0001
0000
1000
0000
0100
0000
1001
0000
0010
0000
,
0001
0010
0101
0101
1000
0010
1001
0000
,
1010
0100
1010
0100
1010
0100
0010
0001
,
0110
0001
1000
0100
0010
0001
0110
1000
,
0101
0010
0101
0010
0101
0010
0001
0010
,
1100
0000
0010
0000
1000
0000
0100
0000
1001
0000
1000
0100
0010
0000
0100
0000
,
0120
0030
0101
0010
0001
0010
1001
0100
,
0010
0001
1010
0100
1000
0100
0020
0030
,
0000
0001
0110
0001
0100
0001
1010
0001
,
0010
0001
0011
0012
0103
0010
2001
3000
,
0010
0010
0101
0010
0010
1001
0010
0010
,
1100
0000
0000
0010
0000
0000
0001
0000
0000
0110
0000
0000
0001
0000
0000
1000
0000
0000
0110
0000
0000
1000
0100
0010
,
0001
0000
0001
0000
1010
0000
0100
0000
0001
1000
0010
0000
0101
0000
0010
0100
,
0001
0000
0000
0000
0000
0000
0100
0000
0000
0000
0000
0000
1010
0000
0000
0000
0000
0000
0100
0000
0000
0000
0000
0000
1000
0000
0000
0001
0000
0000
0010
0000
0000
0000
0000
0000
0101
0000
0000
0000
0000
0000
0001
0000
0010
0000
0100
0000
,
1000
0000
0100
0000
1010
0000
0100
0000
0001
0010
0001
0000
1010
0000
0100
1000
,
0100
0000
0000
0000
0000
0000
0010
0000
0000
0000
0000
0000
0101
0000
0000
0000
0000
0000
0010
0000
0000
0000
0000
0000
0100
0000
0000
0010
0000
0000
0100
0000
0000
0000
0000
0000
1010
0000
0000
0000
0000
0000
1000
0000
0100
0000
0010
0000
,
0001
0000
0010
0000
0101
0000
0010
0000
1000
0001
1000
0000
1010
0000
0100
0010
,
0100
0000
1000
0000
0011
0000
0100
0000
0001
1000
0010
0000
0101
0000
1000
0000
,
0010
0000
0100
0000
0011
0000
0100
0000
0001
0010
0100
0000
1010
0000
0100
0000
,
0011
0000
0100
0000
0100
0000
0011
0000
0100
0000
0001
0010
1001
0000
1001
0000
,
0010
0000
0001
0000
1010
0000
0100
0000
1000
0001
1000
0000
0110
0000
0001
1000
,
0010
0000
0000
0000
0000
0000
0100
0000
0000
0000
0000
0000
1001
0000
0000
0000
0000
0000
0100
0000
0000
0000
0000
0000
0010
0000
0000
1000
0000
0000
0010
0000
0000
0000
0000
0000
0101
0000
0000
0000
0000
0000
1000
0000
0100
0000
0010
0000
,
0001
0000
0010
0000
1100
0000
0010
0000
1000
0100
0010
0000
1001
0000
0100
0010
,
1000
0000
0000
0000
0000
0000
0010
0000
0000
0000
0000
0000
0011
0000
0000
0000
0000
0000
0100
0000
0000
0000
0000
0000
1000
0000
0000
0001
0000
0000
0010
0000
0000
0000
0000
0000
0101
0000
0000
0000
0000
0000
0001
0000
0010
0000
0100
0000
,
1000
0000
0000
0000
0000
0000
0100
0000
0000
0000
0000
0000
1010
0000
0000
0000
0000
0000
0100
0000
0000
0000
0000
0000
0001
0000
0000
1000
0000
0000
0010
0000
0000
0000
0000
0000
0101
0000
0000
0000
0000
0000
1000
0000
0100
0000
0010
0000
,
0001
0000
0000
0000
0000
0000
0100
0000
0000
0000
0000
0000
1001
0000
0000
0000
0000
0000
0100
0000
0000
0000
0000
0000
0001
0000
0000
0010
0000
0000
0100
0000
0000
0000
0000
0000
1010
0000
0000
0000
0000
0000
1000
0000
0100
0000
0010
0000
,
0001
0000
0010
0000
1100
0000
0100
0000
1000
0001
1000
0000
0110
0000
0100
0000
,
1001
0000
0010
0000
1001
0000
0010
0000
1001
0100
0010
0000
1001
0000
0010
0000
,
0001
0001
2010
0001
0010
0100
3100
0100
,
0120
1000
0100
1000
0100
1030
1000
1000
,
0210
0001
0301
0020
1000
0130
0102
0103
,
1020
0100
1030
0200
0010
0301
2001
3001
,
0210
0010
0001
0010
0001
0010
0010
0310
,
1002
1000
0100
1000
0010
0100
0100
0103
,
1020
1000
0130
0200
0010
0301
2001
3001
,
0002
0003
0020
0030
0002
0003
0020
0030
,
1100
0000
0010
0101
0000
0010
1001
0000
,
0010
0000
0101
0000
0000
0000
0100
0000
1010
0000
0001
0000
0110
0000
1000
0100
,
1000
0000
0100
0000
1001
0000
0001
0010
0001
0010
0100
0010
0100
1000
0100
1000
,
0001
0000
0010
0000
0101
0000
0020
0000
0000
0030
1000
0001
0010
0000
0100
0000
,
1001
0100
1010
0100
0011
0100
1010
0100
,
0011
0000
0000
0100
0000
0000
1010
0000
0000
0100
0000
0000
1000
0000
0001
0000
0100
0000
0010
0000
1000
0000
0001
0000
,
1100
0000
0110
0000
0011
0000
1100
0000
0101
0000
1010
0000
,
0001
1000
0001
1000
0010
1000
0010
1000
0001
0100
0001
0100
0010
1000
0010
0100
,
0002
0000
0023
0230
0000
0010
0010
0310
,
1000
0000
0000
0100
0000
0000
1010
0000
0000
0100
0000
0000
0010
0000
0000
0010
0000
0000
0101
0000
0000
1000
0010
0100
,
0001
0000
0010
0000
0101
0000
0010
0000
1000
0100
1000
0000
0001
0010
0001
0000
,
1000
0010
0100
0000
0001
0100
0010
0000
1000
0001
1000
0010
1000
0001
1000
0001
,
1000
0000
0010
0000
0100
0000
0010
0000
0001
1000
0010
0000
1000
0100
0010
0001
,
1000
0000
0010
0000
0100
0000
0001
0000
1000
0000
0010
0000
1000
0000
0000
0100
0000
0000
0010
0000
0000
0001
0000
0000
,
1000
0100
0010
0001
1000
0010
0100
0001
1000
0001
1000
0010
0100
0001
1000
0001
,
1000
0100
0010
0001
1000
0001
0010
0100
1000
0010
0100
0001
1000
0001
0100
0010
,
2000
0010
0010
0010
3010
0001
0010
0001
,
0010
0000
0001
0000
0100
0000
0001
0000
1000
0001
0100
0000
0010
0000
0001
0000
,
1000
0100
0010
0000
1000
0000
1000
0100
0010
0000
1000
0000
0001
0000
1000
0000
,
0001
0001
0001
0001
0010
0100
0010
1000
,
0001
1000
0001
0000
0001
0000
0001
0000
0010
0000
0100
0000
1000
0000
0100
0000
,
1000
0000
0100
0000
1000
0000
0010
0000
0100
0001
0100
0000
0010
0000
0001
0000
,
1000
0100
0010
0001
1000
0100
0010
0001
1000
0100
0010
0001
1000
0100
0010
0001
,
1000
0100
0010
0001
1000
0010
0100
0001
0010
0100
1000
0010
0100
0001
1000
0010
,
0100
0100
0100
0100
0010
0001
0010
0100
,
1000
0100
1000
0010
1000
0001
0010
0100
,
0001
0010
0001
0100
0001
0010
0100
1000
,
0100
0010
0100
1000
0100
0001
0010
0100
,
1000
0001
0010
0100
1000
0001
0010
0100
1000
0001
0010
0100
1000
0001
1000
0001
,
1000
0010
0100
0001
1000
0010
0100
0001
0010
0000
0000
0000
0110
0000
2002
0000
,
0000
0000
0000
0000
0000
0000
0000
0000
0000
0000
0000
0000
0000
0000
0000
0000
0000
0000
3003
0000
0000
1000
0100
0010
,
0001
0000
0000
0000
;
