#TITLE:Now You're Gone;
#SUBTITLE:;
#ARTIST:Basshunter;
#TITLETRANSLIT:;
#SUBTITLETRANSLIT:;
#ARTISTTRANSLIT:;
#CREDIT:;
#BANNER:Now You're Gone-bn.png;
#BACKGROUND:Now You're Gone-bg.png;
#LYRICSPATH:;
#CDTITLE:;
#MUSIC:01-basshunter-now_youre_gone_(radio_edit).ogg;
#OFFSET:0.370;
#SAMPLESTART:15.863;
#SAMPLELENGTH:20.000;
#SELECTABLE:YES;
#BPMS:0.000=74.015,21.000=148.030,205.000=74.015,239.000=148.030;
#STOPS:;
#BGCHANGES:;
// cache tags:
#FIRSTBEAT:2.000;
#LASTBEAT:306.000;
#SONGFILENAME:Songs/lvsb tourney pack/Now You're Gone-ITGREADY/Now You're Gone.sm;
#HASMUSIC:1;
#HASBANNER:0;
#MUSICLENGTH:105.000;
// end cache tags

//---------------dance-single - EvilDave219----------------
#NOTES:
     dance-single:
     EvilDave219:
     Challenge:
     10:
     1.000,1.000,0.438,0.352,1.000,704.000,46.000,37.000,83.000,0.000:



0000
0000
0000
0000
0000
0000
0000
0000
0000
0000
0000
0000
0010
0000
0000
0100
0000
0000
2002
0000
0000
0000
0000
3003
,
0000
0000
1000
0100
0000
0010
0001
0000
0100
0010
0000
1000
0001
0000
0100
0010
0000
1000
0000
0000
2002
0000
0000
0000
,
0000
3003
0000
0010
0000
1000
0100
0000
0010
0001
0000
0100
0010
0000
1000
0000
0100
0000
2200
0000
0000
0000
0000
3300
,
0000
0000
0000
0010
0000
0100
0001
0000
1000
0100
0000
1000
0001
0000
0100
0000
0010
0000
0220
0000
0000
0000
0000
0330
,
0000
0000
0000
0100
0000
0001
1000
0000
0010
0100
0000
0001
0100
0000
0010
1000
0000
0100
0020
0000
0000
0000
0000
0000
,
0001
0000
0000
0130
0000
0000
0001
0000
0000
0000
0001
0000
0100
0000
0000
0000
0100
0000
0010
0000
0000
0000
0010
0000
,
1000
0000
1000
0100
0000
0100
0010
0000
0010
0001
0000
0001
,
1000
0000
0001
0000
0000
0120
0030
0000
0010
1000
0000
1000
,
0100
0000
0100
1000
0000
1000
0010
0000
0010
0100
0000
0001
,
0000
0100
0000
1020
0030
1000
1001
0000
1000
0010
0000
0100
,
0101
0000
0100
0001
0000
0010
0110
0000
0100
1000
0000
0001
,
1001
0000
0001
0010
0000
0100
1100
0000
0010
0100
0000
0001
,
0101
0000
0100
0010
0000
1000
1100
0000
0100
0010
0000
0001
,
0101
0000
0000
1000
0100
0010
0001
1000
0010
0100
0001
0010
,
0100
1000
0100
1000
0100
0000
0020
0000
0000
0000
0030
0000
0002
0000
0000
0000
2003
0000
0000
0000
3000
0200
0000
0000
,
0010
0300
0001
0000
1000
0000
0100
0000
0010
0000
0100
0000
1000
0000
0100
0000
0010
0000
0100
0000
1000
0000
0100
0000
,
0010
0100
1000
0001
0100
0010
0100
0001
0100
0010
0100
0001
,
1000
0100
0010
0001
0100
0010
0100
0001
0010
0100
0010
0001
,
1000
0100
1000
0010
0100
0001
0100
0001
0010
0001
0010
0001
,
0100
0001
0100
0001
1000
0100
1000
0100
1000
0010
1000
0010
,
0100
0010
0100
0001
0100
0001
1000
0010
1000
0001
1000
0010
,
1000
0001
0100
0010
1000
0100
0010
0001
0100
0001
0100
0010
,
1000
0100
0010
0001
0010
0001
0010
0001
0010
0001
0000
0000
,
1000
0000
0000
1100
0000
0100
1000
0000
0100
0001
0000
0100
,
1000
0000
0010
1000
0000
0010
0001
0000
0010
1000
0000
0010
,
0001
0000
0010
0000
0000
0120
0000
0030
0100
0001
0000
0100
,
1000
0000
0010
0001
0000
0010
1000
0000
1000
0100
0000
0100
,
0000
0010
0000
0201
0300
0001
1001
0000
0001
0100
0000
0010
,
1010
0000
0010
1000
0000
0100
0110
0000
0010
0001
0000
1000
,
1001
0000
1000
0100
0000
0010
0011
0000
0100
0010
0000
1000
,
1010
0000
0010
0100
0000
0001
0011
0000
0010
0100
0000
1000
,
1010
0000
0000
0000
1000
0100
1000
0000
0000
0000
1000
0000
1001
0000
0000
0000
0100
0001
0100
0000
0000
0000
1000
0000
,
1001
0000
0000
0000
1000
0100
1000
0000
0000
0000
0010
0000
0011
0000
0000
0000
1000
0001
1000
0000
0000
0000
0010
0000
,
0110
0000
0000
0000
0001
0100
0001
0000
0000
0000
1000
0000
1010
0000
0000
0000
0001
1000
0001
0000
0000
0000
1000
0000
,
1100
0000
0000
0000
0001
0010
0001
0000
0000
0000
0100
0000
0110
0000
0000
0000
1000
0000
0010
0000
0000
0000
0000
0000
,
0100
0000
1001
0000
0000
0000
0010
1000
0100
0010
0000
0001
,
0102
0000
0000
0003
0000
0000
0010
0001
0100
0010
0000
1000
,
2100
0000
0000
3000
0000
1000
0001
0000
1000
0001
0000
1000
,
0001
0000
1000
0001
1000
0001
1000
0001
1000
0001
1000
0001
,
1000
0100
0010
0001
0000
000M
00M0
0M00
M000
0M00
00M0
000M
,
0000
0000
0000
0000
0000
0000
0000
0000
0000
0000
0000
0010
,
1000
0100
0010
0001
0100
0001
0010
0001
0100
0001
0010
0001
,
0100
0010
1000
0100
0010
0001
0010
0100
0010
0001
0010
0001
,
1000
0100
0010
0001
0100
0010
0100
0001
0010
0100
0010
0001
,
1000
0100
1000
0010
0100
0001
0100
0001
0010
0001
0010
0001
,
0100
0001
0100
0001
1000
0100
1000
0100
1000
0010
1000
0010
,
0100
0010
0100
0001
0100
0001
1000
0010
1000
0001
1000
0010
,
1000
0001
0100
0010
1000
0100
0010
0001
0100
0001
0100
0010
,
1000
0100
0010
0001
0010
0001
0010
0001
0010
0001
0010
0001
,
0010
0100
1000
0100
0010
0001
0001
0000
0000
MMMM
0000
0000
,
0000
0000
0000
1000
1000
0100
0100
0000
0000
11MM
0000
0000
,
MM11
0000
0000
0000
0000
0000
2002
00M0
0000
0M00
0000
00M0
3003
0000
10M0
0100
0000
M010
0001
0000
010M
0010
0000
1M00
,
0001
0000
010M
0010
0000
10M0
0000
0000
2002
0M00
0000
00M0
0000
3M03
0000
0010
0000
10M0
0100
0000
M010
0001
0000
010M
,
0010
0000
1M00
0000
0100
000M
2200
00M0
0000
000M
0000
33M0
0000
0000
0M00
0010
0000
01M0
0001
0000
100M
0100
0000
1M00
,
0001
0000
010M
0000
0010
M000
0220
000M
0000
M000
0000
033M
0000
0000
00M0
0100
0000
0M01
1000
0000
M010
0100
0000
00M1
,
0100
0000
0M10
1000
0000
010M
0020
0000
M000
0000
000M
0000
M030
0000
000M
0100
0000
00M1
0100
0000
01M0
1000
0000
M010
,
0001
0000
0M10
1000
0000
M100
0000
0022
M000
0000
0M00
0000
M033
0000
00M0
0100
0000
100M
0100
0000
0M01
0010
0000
1M00
,
0010
0000
010M
0010
0000
00M1
0200
M000
0000
000M
0000
M300
0000
0000
100M
0100
0000
0M01
0010
0000
001M
1000
0000
M100
,
0001
0000
01M0
1000
0000
0220
M000
0000
000M
0000
M330
0000
0000
0000
0000
0010
0000
1000
0100
0000
0010
0000
0000
0000
,
0001
0000
0000
1000
0000
2002
0000
0000
0000
0000
0000
0000
0000
3003
0000
0000
0000
0000
1001
0000
0000
0000
0001
0000
,
0100
0000
0100
0010
0000
0010
1000
0010
1000
0100
0000
0010
,
0001
0000
0001
0100
0000
0100
0010
0100
0010
1000
0000
1000
,
0001
0000
0001
0100
0000
0100
0001
0100
0001
0010
0000
0010
,
0100
0000
0100
1000
0000
1000
0010
1000
0010
0100
0000
0100
,
0001
0000
0001
1000
0000
1000
0100
1000
0100
0010
0000
0010
,
0001
0000
0001
0100
0000
0100
0010
0100
0010
1000
0000
1000
,
0010
0000
0010
0100
0000
0100
0001
0100
0001
0010
0100
1000
,
0100
0000
0000
0000
0010
0000
0000
0000
0001
0000
0000
0000
0100
0000
0000
0000
0010
0000
0000
0000
1000
0000
0000
0000
0100
0000
0000
0000
0010
0000
0000
0000
0001
0000
0000
0000
0000
0000
0000
MMMM
0000
0000
0000
0000
0010
0000
0000
0000
,
1000
0100
1000
0010
0100
0001
0010
0100
1000
0100
0010
0100
,
0001
0100
1000
0010
0100
0001
0100
0010
1000
0010
1000
0010
,
0001
0010
1000
0100
0010
0001
0010
0100
0001
0100
1000
0010
,
1000
0100
0010
0001
0100
0010
0001
0010
1000
0100
1000
0010
,
1000
0001
0100
0010
1000
0100
1000
0100
0001
0100
1000
0010
,
0100
0001
0100
0010
1000
0001
0010
0100
0001
0100
1000
0010
,
0100
0001
0100
1000
0100
0010
1000
0100
0010
2002
0000
0000
,
0000
0000
0000
0000
,
0000
0000
3003
0000
;
