#TITLE:The Wrong Side-Abney Park;
#SUBTITLE:;
#ARTIST:Abney Park;
#TITLETRANSLIT:;
#SUBTITLETRANSLIT:;
#ARTISTTRANSLIT:;
#CREDIT:;
#BANNER:Abney Park-bn.png;
#BACKGROUND:The Wrong Side-bg.png;
#LYRICSPATH:;
#CDTITLE:;
#MUSIC:The Wrong Side- Abney-park.mp3;
#OFFSET:0.222;
#SAMPLESTART:58.714;
#SAMPLELENGTH:15.000;
#SELECTABLE:YES;
#BPMS:0.000=131.500,32.500=134.000,65.000=132.500,98.000=135.000,128.000=80.500,149.000=134.760,180.500=132.500,213.000=82.540,274.000=136.700,339.000=82.540;
#STOPS:;
#BGCHANGES:;
// cache tags:
#FIRSTBEAT:1.000;
#LASTBEAT:387.000;
#SONGFILENAME:Songs/toune 6/the wrong side/The Wrong Side.sm;
#HASMUSIC:1;
#HASBANNER:1;
#MUSICLENGTH:208.803;
// end cache tags

//---------------dance-single - ----------------
#NOTES:
     dance-single:
     :
     Easy:
     4:
     0.333,0.371,0.115,0.402,0.117,379.000,24.000,84.000,0.000,0.000:
0000
0000
2000
0000
0000
0000
0000
3000
,
0100
0020
0000
0000
0000
0000
0000
0030
,
0001
0200
0000
0000
0000
0000
0000
0300
,
0010
0002
0000
0000
0000
0000
0000
0000
,
0003
0020
0000
0000
,
0100
2000
0000
0000
0000
0000
3030
0010
,
2020
0000
3000
0000
0100
1000
0030
0001
,
0000
0220
0000
0000
,
0330
2002
0000
0000
0000
0000
0000
0000
,
3003
0010
0200
0000
,
0000
0300
0110
1001
,
0011
0110
1100
2002
,
0000
0000
3003
0210
,
0010
0010
0010
0010
,
0010
0010
0010
0010
,
0010
0010
0010
0010
,
0010
0000
0000
0000
0310
0000
0000
0001
0000
0000
0001
0000
0010
0000
0001
0000
,
1000
0000
0000
0000
0000
0100
0000
0000
0000
0000
0010
0000
1000
0000
0010
0000
,
1000
0000
0000
0000
0000
0001
0000
0000
0000
0000
0100
0000
0010
0000
0100
0000
,
0010
0000
0000
1000
0000
0010
0001
0010
,
0100
0000
0000
0100
0000
0010
0100
0010
,
0100
0000
0000
0000
0000
0001
0000
0000
0000
0000
0010
0000
0100
0000
1000
0000
,
0010
0000
0000
0000
0000
0000
0000
0010
0000
0000
0001
0000
0010
0000
0001
0000
,
1000
0000
0000
0010
0000
0001
1000
1000
,
0001
0100
0000
0000
1000
0200
0300
0010
,
0001
0010
0000
1000
0100
1000
0000
0001
,
0010
0001
0000
0100
1000
0100
0000
0000
,
0001
0100
1000
0000
0100
0000
0110
0000
,
0000
0000
0000
0000
0010
0000
2000
3000
,
0100
0001
0001
0010
0001
0000
1000
0000
,
0010
0100
0001
0000
0100
1000
0010
0000
,
0001
0010
0100
0000
1000
0000
0010
0000
,
0000
0000
2000
0000
0000
3000
0100
0200
,
0000
0000
0300
0001
0020
0000
0000
0030
,
0100
2002
0000
0000
0000
3003
0020
0000
,
0000
0000
0030
0000
0100
0000
0002
0000
0000
0000
0000
0000
0000
0010
0000
2000
,
0000
0000
3000
0100
2000
0000
3000
0100
0000
0020
0000
0000
0000
0000
0000
0000
,
0033
0000
0000
1000
0200
0300
0010
0001
,
0010
1000
0000
0100
0000
0000
0001
0010
,
0001
0000
0100
1000
0100
0000
0001
0010
,
1000
0100
0110
0000
,
0000
0000
0000
0010
0000
2000
3000
0100
,
0001
0001
0010
0001
0000
1000
0000
0010
,
0100
0001
0000
0100
1000
0010
0000
0001
,
0010
0100
0000
1000
0000
0020
0000
0000
,
0030
0000
0000
0000
0000
0000
0000
0001
0000
0000
0001
0000
0010
0000
0001
0000
,
1000
0000
0000
0000
0000
0100
0000
0000
0000
0000
0010
0000
1000
0000
0010
0000
,
1000
0000
0000
0000
0000
0001
0000
0000
0000
0000
0100
0000
0010
0000
0100
0000
,
0010
0000
0000
1000
0000
0010
0001
0010
,
0100
0000
0000
0100
0000
0010
0100
0010
,
0100
0000
0000
0000
0000
0001
0000
0000
0000
0000
0010
0000
0100
0000
1000
0000
,
0010
0000
0000
0000
0000
0000
0000
0010
0000
0000
0001
0000
0010
0000
0001
0000
,
1000
0000
0000
0010
0000
0001
1000
1000
,
0001
0100
2000
0000
0000
3000
0100
0200
,
0000
0000
0300
0001
0020
0000
0000
0030
,
0100
0000
2002
0000
3000
0100
0020
0000
0000
0000
0033
0000
0020
0000
0000
0000
,
0000
0000
0030
0000
0100
0000
0002
0000
0000
0000
0000
0000
0000
0010
0000
2000
,
0000
0000
0000
0000
0000
3000
0000
0100
0000
0020
0000
0000
0000
0000
0000
0000
,
0033
0000
0002
0000
0000
0003
1000
0002
,
0003
0000
0100
0010
2000
0000
0000
3000
,
0100
2000
3000
0200
0300
2000
3200
0000
,
0000
0000
0300
0000
0010
0000
2002
0000
0000
0000
0000
0000
0000
0000
3003
0010
,
0100
2000
0000
0000
0000
0000
0000
0000
3000
1000
0100
0020
0000
0000
0000
0000
,
0000
0000
0000
0000
0032
0000
0000
0000
0000
0000
0003
0000
0001
1000
0020
0000
,
0000
0000
0000
0030
0000
0000
0010
1000
0200
0000
0000
0300
0010
0200
0300
0000
,
0010
0000
0001
0000
0000
0000
0001
0010
1000
0100
0001
0020
0000
0000
0000
0000
,
0000
0000
0000
0030
0001
0010
2000
0000
0000
0000
0000
0000
0000
3000
1000
0001
,
0020
0000
0000
0000
0000
0000
0000
0000
0000
0000
0000
0000
0000
0000
0000
0030
0001
0010
1000
0100
0001
0010
0100
1000
,
0000
0100
0001
0020
0000
0000
0000
0000
0000
0000
0000
0000
0030
0000
0000
0000
0000
0000
0100
0000
0000
0000
0000
0000
,
0010
0100
0001
1000
,
0010
0100
1000
0010
,
0100
0001
0010
0010
,
0100
2100
0010
0010
,
0001
0010
0001
3001
,
0100
0010
0010
0100
,
0010
0001
0100
0001
,
0100
1000
0100
0010
,
0001
1000
0100
0010
,
0001
1000
0100
0010
,
0001
0001
0010
0100
,
1000
1000
0100
1010
,
0101
0210
0001
0010
,
0001
0310
0001
0010
,
0001
0010
0100
1000
,
0010
1001
1001
2000
,
0000
3000
0100
0200
0000
0000
0300
0001
,
0020
0000
0000
0000
0000
0000
0030
0000
0100
0000
2002
0000
3000
0100
0020
0000
,
0000
0033
0020
0000
0000
0030
0100
0002
,
0000
0000
0000
0000
0000
0010
0000
2000
0000
0000
0000
0000
0000
3000
0000
0100
,
0000
0020
0000
0000
0000
0000
0000
0000
0033
0000
0000
0000
2000
0000
0000
0000
,
0000
3000
0100
0200
0000
0000
0300
0001
,
0020
0000
0000
0000
0000
0000
0030
0000
0100
0000
2002
0000
3000
0100
0020
0000
,
0000
0033
0020
0000
0000
0030
0100
0002
,
0000
0000
0000
0000
0000
0010
0000
2000
0000
0000
0000
0000
0000
3000
0000
0100
,
0020
0000
0033
2002
,
0000
0000
0000
0000
,
0000
0000
0000
3003
;

//---------------dance-double - ----------------
#NOTES:
     dance-double:
     :
     Easy:
     3:
     0.118,0.178,0.048,0.086,0.000,144.000,10.000,18.000,0.000,0.000:
00000000
00000000
00000000
00000000
,
00000000
00000000
00000000
00000000
,
00000000
00000000
00000000
00000000
,
00000000
00000000
00000000
00000000
,
00100000
00000000
00000000
00000000
,
00020000
00000000
00000000
00000000
,
00130000
00000000
00000000
00000000
,
00002000
00000000
00000000
00000000
,
00103000
00000000
00000000
00000000
,
00020000
00000000
00000000
00000000
,
00030100
00000000
00000000
00000000
,
00020000
00000000
00000000
00000000
,
00030010
00000000
00000100
00000000
,
00001000
00000000
00100000
00000000
,
00010000
00000000
01000000
00000000
,
00010000
00000000
01000000
00000000
,
00001000
00000000
00010000
00000000
,
00000100
00000000
00001000
00000000
,
00000010
00000000
00001000
00000000
,
00000200
00000000
00000000
00000000
,
00020300
00000000
00000000
00000000
,
00002000
00000000
00030000
00000000
,
00020000
00000000
00000000
00000000
,
00000000
00000000
00033000
00000000
,
00010000
00000000
00100000
00000000
,
00001000
00000000
00010000
00000000
,
00000010
00000000
00000000
00000000
,
00001000
00000000
00001000
00000000
,
00010000
00000000
00000000
00000000
,
00010000
00000000
01000000
00000000
,
00011000
00000000
00010000
00000000
,
00000000
00000000
00010000
00000000
,
00000100
00000000
00000000
00000000
,
00000100
00000000
00001000
00000000
,
00000010
00000000
00000000
00000000
,
00000010
00000000
00010000
00000000
,
00001000
00000000
00000000
00000000
,
01000000
00000000
00010000
00000000
,
01010000
00000000
00001000
00000000
,
00000000
00000000
00010000
00000000
,
00011000
00000000
00100000
00000000
,
00000000
00000000
00100000
00000000
,
01000000
00000000
01000000
00000000
,
00000000
00000000
00010000
00000000
,
00000000
00000000
00002000
00000000
,
00000000
00000000
00023000
00000000
,
00030100
00000000
00010100
00000000
,
00000000
00000000
00001000
00000000
,
00100000
00000000
00110000
00000000
,
00000000
00000000
00010000
00000000
,
01000000
00000000
01010000
00000000
,
00000000
00000000
00001000
00000000
,
01000000
00000000
00010000
00000000
,
00000000
00000000
00001000
00000000
,
00100000
00000000
00010000
00000000
,
01000000
00000000
00001000
00000000
,
00010000
00000000
00000100
00000000
,
00001000
00000000
00000010
00000000
,
00020000
00000000
00000000
00000000
,
00000000
00000000
00030100
00000000
,
00001000
00000000
00000110
00000000
,
00000000
00000000
00001000
00000000
,
00000010
00000000
00001000
00000000
,
00000010
00000000
00001000
00000000
,
00000010
00000000
00001000
00000000
,
00000010
00000000
00001000
00000000
,
00022000
00000000
00000000
00000000
,
00000000
00000000
00033000
00000000
,
00000100
00000000
00010000
00000000
,
00000100
00000000
00010000
00000000
,
00000100
00000000
00010000
00000000
,
00000100
00000000
00010000
00000000
,
00001000
00000000
01000000
00000000
,
00001000
00000000
01000000
00000000
,
00001000
00000000
01000000
00000000
,
00001000
00000000
01000000
00000000
,
00010000
00000000
00100000
00000000
,
00010000
00000000
00100000
00000000
,
00002000
00000000
00000000
00000000
,
00000000
00000000
00000000
00000000
,
00023000
00000000
00000000
00000000
,
00000000
00000000
00000000
00000000
,
00030000
00000000
00000110
00000000
,
00001000
00000000
00000000
00000000
00000100
00000000
00000000
00002000
,
00000000
00000000
00000000
00000000
00000000
00000000
00000000
00003200
,
00000000
00000000
00000000
00000000
00000000
00000300
00000000
00011000
,
00000000
00000000
00000000
00100000
00000000
00000000
00000000
00010000
,
00000000
00001000
00000000
00010000
00000000
00001000
00000000
00000200
,
00000000
00000000
00000000
00000000
00000000
00000300
00000000
00001000
,
00000000
00010000
00000000
00001000
00000000
00010000
00000000
00100000
,
00000000
01000000
00000000
00100000
00000000
01000000
00000000
00010000
,
00000000
10000000
00000000
00010000
00000000
10000000
00000000
01000000
,
00000000
00100000
00000000
01000000
00000000
00100000
00000000
00001000
;

//---------------dance-double - Copied from----------------
#NOTES:
     dance-double:
     Copied from:
     Medium:
     6:
     0.179,0.222,0.101,0.086,0.005,223.000,21.000,18.000,0.000,0.000:
00000000
00000000
00000000
00000000
,
00000000
00000000
00000000
00000000
,
00000000
00000000
00000000
00000000
,
00000000
00000000
00000000
00000000
,
00100000
00000000
01000000
00000000
,
00020000
00000000
00000000
00000000
,
00130000
00000000
00001000
00000000
,
00020000
00000000
00000000
00000000
,
00030010
00000000
00001000
00000000
,
00000200
00000000
00000000
00000000
,
00010300
00000000
00001000
00000000
,
00020000
00000000
00000000
00000000
,
00031000
00000000
00100000
00000000
,
01000000
00100000
00100000
00000000
,
00010000
00000000
01000000
00000000
,
00001000
00010000
00001000
00000000
,
00010000
00000000
00000100
00000000
,
00000010
00000100
00000010
00000000
,
00000100
00000000
00001000
00000000
,
00000020
00000000
00000000
00000000
,
00020030
00000000
00000000
00000000
,
00000200
00000000
00030000
00000000
,
00020000
00000000
00000000
00000000
,
00000000
00000000
00030300
00000000
,
00001000
00000000
00011000
00000000
,
00001000
00100000
00010000
00000000
,
01000000
00000000
00001000
00010000
,
00000100
00000000
00010000
00000000
,
00010010
00000000
00010000
00001000
,
00100000
00010000
01000000
00000000
,
01010000
00000000
00000000
00000000
01000000
00000000
00000000
00010000
,
00000000
01000000
00010000
00000000
,
00100000
00000000
00001000
00010000
,
00001000
00000000
00010000
00100000
,
00001000
00000000
00010000
00000010
,
00010000
00000000
00000100
00000000
,
00001000
00000010
00010000
00000000
,
00001000
00000000
00100000
00000000
,
00110000
00000000
01000000
00000000
,
00100000
00000000
00010000
00000000
,
00100000
00000000
00001000
00000000
00100000
00000000
00000000
00001000
,
00000000
00010000
00000100
00010000
,
00000100
00000000
00000000
00000000
00001000
00000000
00000000
00010000
,
00000000
00000010
00010010
00000000
,
00011000
00000000
00000100
00000000
,
00011000
00000000
00020000
00000000
,
00031000
00000000
00110000
00000000
,
00100000
00010000
01000000
00000000
,
00100000
00000000
00011000
00000000
,
00000100
00001000
00000010
00000000
,
00000100
00000000
00011000
00000000
,
00001000
00000100
00000010
00000000
,
00000100
00000000
00001000
00000000
,
00000010
00000010
00000100
00000000
,
00001000
00010000
00000000
01000000
,
00000000
00100000
00000000
00001000
,
00010000
00000010
00000000
00000100
,
00001000
00000000
00100000
00010000
,
02000000
00000000
00000000
00001000
00000000
00000000
00001000
00000000
,
03001000
00000000
00000000
00000000
01000000
00001000
00000000
00000000
,
00100000
00000000
00011000
00000000
,
00000100
00000000
00000110
00000000
,
00000010
00000100
00001000
00000000
,
00100000
00010000
00000000
00001000
,
01000000
00100000
00010000
00000000
,
00001000
00000000
00011000
00000000
,
00002000
00000000
00023000
00000000
,
01030000
00000000
00000000
00000000
00000000
00000000
01000000
00000000
00100000
00000000
00010000
00000000
,
01000000
00000000
00011000
00000000
,
00000100
00000010
00001000
00000000
,
00100000
00000000
00101000
00000000
,
00010000
00001000
00100000
00000000
,
01002000
00000000
00010000
00000000
,
00103000
00001000
01000000
00000000
,
00020100
00000000
00001000
00000000
,
00030010
00010000
00000100
00000000
,
00011000
00000000
01000000
00000000
,
00001000
01000000
00100000
00000000
,
00020000
00000000
01000000
00000000
,
00000000
00000000
01000000
00000000
,
02030000
00000000
00001000
00000000
,
00001000
00000000
03001000
00000000
,
00010000
00000000
00000100
00000000
,
00011000
00000000
00000000
00000000
00000110
00000000
00000000
00002000
,
00000000
00000000
00000000
00000000
00000000
00000000
00000000
00013000
,
00000000
00010000
00000000
00000100
00001000
00010000
00000000
00100000
,
00000000
01000000
00000000
01000000
00010000
00001000
00000000
00000100
,
00000000
00001000
00000000
00010000
00100000
00010000
00000000
00002000
,
00000000
00000000
00000000
00000000
00000000
00003000
00000000
00011000
,
00000000
00010000
00000000
01000000
00001000
00100000
00000000
00001000
,
00000000
00010000
00000000
00000100
00010000
00000010
00000000
00001000
,
00000000
00000100
00000000
00001000
00000010
00010000
00000000
00001000
,
00000000
00100000
00000000
01000000
00010000
00001000
00000010
00000100
;

//---------------dance-double - Copied from----------------
#NOTES:
     dance-double:
     Copied from:
     Hard:
     7:
     0.228,0.356,0.110,0.057,0.062,298.000,23.000,12.000,0.000,0.000:
00000000
00000000
00000000
00000000
,
00000000
00000000
00000000
00000000
,
00000000
00000000
00000000
00000000
,
00000000
00000000
00000000
00000000
,
00010000
00000000
01000000
00000000
,
00020000
00000000
01000000
00000000
,
00130000
00000000
01000000
00000000
,
00002000
00000000
00010000
00000000
,
00103000
00000000
00010000
00000000
,
00000200
00000000
00001000
00000000
,
00000310
00000000
00000001
00000000
,
00002000
00000000
00000100
00000000
,
00003010
00000010
00000010
00000000
,
00000100
00000000
00000001
00000010
00000000
00000010
00000000
00000000
,
00000100
00000100
00000100
00000000
,
00010000
00000000
00001000
01000000
00000000
00000000
00000000
00000000
,
00100000
00100000
00100000
00000000
,
10000000
01000000
00100000
00000000
,
00010000
00001000
00010000
00000000
,
00000100
00010000
00000100
00000000
,
00020000
00000000
00000000
00000000
,
00002000
00000000
00030000
00000000
,
00020000
00000000
00000000
00000000
,
00000000
00000000
00033000
00000000
,
00011000
00000000
00100000
00010000
,
01000000
00000000
00010000
10000000
,
00100000
00000000
01000000
00001000
,
00100000
00000000
00011000
00000000
,
00010000
00000100
00001000
00000010
,
00010000
00001000
01000000
00001000
,
00011000
00000000
00000000
00000000
01000000
00000000
00000000
00100000
,
00000000
00010000
01000000
00010000
,
01000000
00000000
00001000
00100000
00000000
00000000
01000000
00000000
,
00100000
00000000
00001000
00000100
,
00001100
00000000
00000010
00000001
,
00000100
00000000
00001000
00010000
,
00000100
00000000
00010000
00001000
00000000
00000000
00100000
00000000
,
00010000
01000000
00001000
00010000
,
00010100
00000100
00001000
00000001
,
00000000
00000100
00000010
00000000
00000000
00000000
00001000
00000000
,
00000100
00000010
00001000
00010000
,
00010000
00000000
00001000
01000000
,
01010000
00000000
00000000
00000000
00100000
00000000
00000000
01000000
,
00000000
00010000
01010000
00000000
,
00011000
00000000
00000000
00000000
00001000
00010000
00000000
00001000
,
00000000
00100000
00001000
00000000
00000010
00001000
00010000
00100000
,
00010000
00000000
00110000
00010000
,
00001000
00100000
01000000
00000000
,
00100000
00000000
00011000
00000100
,
00000010
00001000
00010000
00000000
,
01000000
00001000
00011000
00000000
,
00001000
00010000
00000010
00000000
,
00001000
00000100
00000010
00000001
,
00000010
00000100
00010000
00000000
,
00000000
00000000
00101000
00000000
00000000
00010000
00000000
00000000
,
00000010
00000000
00000000
00001000
00000000
00000000
00000101
00000000
,
00000000
00000010
00000000
00000100
,
00000001
00001000
00000100
00010000
,
00002000
00000000
00000000
00100000
00000000
00000000
01000000
00000000
,
00013000
00000000
00000000
00000000
00001000
00010000
00000000
00000000
,
00000010
00000000
00000110
00000001
,
00000001
00000000
00000000
00000000
00000100
00000010
00000000
00000000
,
00001000
00000100
00010000
00001000
,
00000000
01000000
00010000
00100000
,
01000000
00000000
00000000
11000000
00000000
00000000
10000000
00000000
,
00100000
01000000
00000000
00000000
01100000
00000000
00000000
00000000
,
10000000
00000000
01000000
00000000
10000000
00000000
00010000
00000000
01000000
00000000
00010000
00000000
,
00100000
00000000
00001000
00000000
00100000
00000000
00001000
00000000
00010000
00000000
00001000
00000000
,
00010000
00000100
00010100
00000000
,
00000100
00001000
00000010
00000000
,
00000100
00000000
00000000
00000000
00000101
00000000
00000000
00000100
,
00000010
00010000
00001000
00000000
,
01000000
00010000
00100000
01000000
,
10000000
00100000
01000000
00000000
,
00010000
01000000
00001000
00100000
,
00010000
01000000
00100000
00000000
,
00010000
00001000
00011000
00000000
,
00001000
00000100
00000010
00000000
,
00020000
00000000
00000100
00000000
,
00001000
00000000
00000010
00000000
,
00031000
00000000
01010000
00000000
,
01010000
00000000
00000000
01000000
00010000
00000000
00100000
00000000
,
00002000
00000000
01000000
00000000
,
00013000
00000000
00000000
00000000
00000000
00000000
00000000
00000000
00010100
00000000
00000000
00000000
00000000
00000000
00001000
00000010
,
00000000
00002000
00000000
00000000
00000000
00003000
00000000
00010000
,
00010000
00000000
00010000
00000000
00000000
00000000
00001000
00000000
00010000
00001000
00000000
00010000
00000000
00000000
00000100
00000000
,
00000100
00000000
00000100
00000000
00000000
00000000
00001000
00000001
00000100
00000001
00000000
00000000
00000000
00000000
00000010
00000000
,
00000010
00000000
00000010
00000000
00000000
00000000
00000100
00000000
00010000
00001000
00000000
00001000
00000000
00000000
02000000
00000000
,
00000000
00000000
00000000
00010000
00000000
03010000
00000000
10010000
,
00010000
00000000
00010000
00000000
00000000
00000000
01000000
00001000
00010000
00001000
00000000
00000100
00000000
00000000
00000001
00000000
,
00000001
00000000
00000001
00000000
00000000
00000000
00000001
00001000
00000100
00010000
00000000
00000000
00000000
00000000
00001000
00000000
,
00001000
00000000
00001000
00000000
00000000
00000000
01000000
00010000
10000000
00010000
01000000
00000000
00000000
00000000
00100000
00000000
,
00100000
00000000
00100000
00000000
00000000
00000000
01000000
00001000
00000000
00010000
00100000
00010000
00000000
00001000
00000010
00000000
;

//---------------dance-double - Copied from----------------
#NOTES:
     dance-double:
     Copied from:
     Challenge:
     11:
     0.307,0.467,0.134,0.235,0.072,370.000,28.000,49.000,0.000,32.000:
00000000
00000000
00000000
00000000
,
00000000
00000000
00000000
00000000
,
00000000
00000000
00000000
00000000
,
00000000
00000000
00000000
00000000
,
10000000
01000000
00010000
00000000
00001000
00000100
00000000
00000001
,
00000010
00000000
00000010
00001000
00000000
00001000
00010000
00100000
,
10000000
01000000
00010000
00000000
00001000
00000100
00000000
00000001
,
00000010
00000000
00000010
00001000
00000000
00001000
00010000
00100000
,
10000000
01000000
00010000
00000000
00001000
00000100
00000000
00000001
,
00000010
00000000
00000010
00001000
00000000
00001000
00010000
00100000
,
10000000
01000000
00010000
00000000
00001000
00000010
00000000
00000001
,
00000100
00000000
00000100
00001000
00000000
01000000
00010000
01000000
,
00100000
01000000
02200000
00000000
,
00000100
00000010
00000100
00000010
00000000
00000200
03300000
00000000
,
01000000
00010000
01000000
00000000
,
00010000
01000000
00010000
02000000
00000300
00000000
00000000
00000000
,
00010000
00001000
00010000
00001000
,
00000010
00001000
00000010
00001000
,
03010000
00000000
00010000
00000000
00010000
00000000
10000000
01000000
,
00010000
00000000
00001000
00000100
00000001
00000000
00000000
00000000
,
00000020
00000000
00002000
00000000
,
00020000
00000000
00033030
00000000
,
00001010
00010000
10000000
00000000
,
00100000
10000000
01000000
00100000
,
00110000
00000000
00002000
00000000
,
01000000
00100000
00010000
01000000
,
00203000
00000000
00000200
00300000
,
00001000
00000000
00010000
00000000
00000010
00001000
00000000
00000000
,
00000311
00000000
00020000
00000000
,
00000100
00000000
00000010
00000000
00000001
00000010
00030000
00000000
,
01000110
00000000
00000000
00000100
00000010
00000000
00000000
00000001
,
00000000
00001000
00001100
00010000
,
00011000
00000000
01000000
00100000
00000000
00000000
10000000
00000000
,
01000000
00000000
01000000
00100000
00000000
00000000
00000000
00000000
,
00011000
00000000
00000000
00000200
00010000
00000000
00001000
00000000
,
00010310
00000000
00001000
00000000
,
00000100
00000010
00020000
00000100
,
00000010
00000001
00001000
00000100
,
00030010
00000000
00000012
00000000
,
00011000
00000000
00000103
00000000
,
00010000
00000000
00001000
00000000
00010000
00000000
00000000
00010000
,
00000000
00010000
20000000
00000000
,
01010000
00000000
30000000
00000000
10000000
01000000
00000000
00010000
,
00000000
00001000
00000010
00000000
00010000
00000000
00000000
01000000
,
00000000
00000000
00100000
00000000
10000000
00100000
00000000
01000000
,
00000000
01000000
10000000
00000000
20000000
02000000
00020000
00002000
,
33030000
00000000
01103000
00000000
,
00010000
00100000
00000010
00002000
,
00000200
00000000
00013300
00000000
,
00000010
00001000
01000000
00100000
,
02000000
00100000
00000100
00000010
,
03001000
10000000
00001000
00100000
,
02000000
00020000
00001000
00030100
,
03100000
00000000
00010000
01000000
,
20000000
00000000
01000000
00000000
00000000
00011000
00000000
00000000
,
00100000
00000000
00000000
00010000
30000000
00000000
00001000
00000000
,
01100000
00000000
00000000
01000000
00000000
00001000
00000000
00010000
,
00000000
00000100
01000000
00000000
00000010
00000200
00000000
00000000
,
00002000
00000000
00000000
00010000
00000000
00000000
00010000
00000000
,
00010000
00000000
00003300
00000000
00001000
00000100
00000000
00000000
,
00000001
00000000
00000010
00000000
00001100
00000000
00000010
00000100
,
00002000
00000000
00010100
00000000
,
00003100
00100000
01000000
00010000
,
00001000
00000010
00000100
00100000
,
00001000
00010000
00100000
01000000
,
00010000
00100000
01000000
10000000
,
01000000
00000000
00010000
00000000
00001000
00000000
00000010
00000000
00000001
00000000
00000100
00000000
,
00001000
00000000
00100000
00000000
10000000
00000000
01000000
00000000
00010000
00000000
00001000
00000000
,
00100000
00010000
01000000
00000000
00011000
00000000
00000000
00000000
,
02000000
00000000
00000100
00001000
,
03000010
00000000
00010000
00001000
,
00100000
00000000
00000200
01000000
,
00010000
10000000
00010300
00000000
,
20000000
00000000
00100000
00100000
,
00010000
01000000
30001000
00100000
,
00020000
01000000
00100000
10000000
,
01000000
00000000
01030100
00000000
,
00020000
00000001
00000100
00000001
,
00001000
00000100
00000010
00000100
,
01030000
00000000
02000000
00010000
,
03001000
00000000
00000200
01000000
,
00010000
10000000
00001000
01000000
,
00200000
00001300
10000000
00010000
,
01000000
00000000
00001000
00000000
00000100
00000000
00001000
00300002
,
00000000
20000000
00000000
00000000
00000000
30000003
00000000
00000002
,
00001000
00000000
00001000
00000000
00000000
00000000
00000100
00010000
00001000
00100000
00000003
00100000
00000000
00000000
20000000
00000000
,
00101000
00000000
00101000
00000000
00000000
00000000
00100000
00010000
01000000
00001000
30000000
00000000
00000000
00000000
00000200
00000000
,
01000000
00000000
01000000
00000000
00001000
00100000
00000000
10000000
00010000
01000000
00001000
00100300
00000000
00000000
22000000
00000000
,
00000000
00000000
00000000
00000000
00000000
00010000
00000200
00000000
00010000
00000000
33001000
00000000
00010300
00000000
00001000
00000000
,
00010000
00000000
11000000
00000000
00000000
00000000
01000000
10000000
00001000
00100000
00000000
00010000
00000000
00000000
00000100
00000000
,
00010000
00000000
00000101
00000000
00000000
00000000
00010000
00000100
00000010
00002000
00000000
00000000
00000000
00000000
00010000
00000000
,
00013000
00200200
00000000
01300300
00000010
00011000
00000000
01000000
,
00010000
00000000
00000000
00000000
01001000
00000000
00000000
00000000
00000100
00000000
00000010
00001000
00010000
00000000
00100000
00000000
10000000
00000000
01000000
00010000
00001000
00000000
00000010
00000000
00000002
00000000
00000200
00000000
10100303
00000000
00000000
00000000
;
