#TITLE:Kill Us All;
#SUBTITLE:(Cranked Cut);
#ARTIST:Twista;
#TITLETRANSLIT:;
#SUBTITLETRANSLIT:;
#ARTISTTRANSLIT:;
#CREDIT:;
#BANNER:Kill Us All Banner.png;
#BACKGROUND:Kill Us All.png;
#LYRICSPATH:;
#CDTITLE:2kM Index.png;
#MUSIC:kill us all.ogg;
#OFFSET:-0.100;
#SAMPLESTART:53.580;
#SAMPLELENGTH:12.000;
#SELECTABLE:YES;
#BPMS:0.000=141.580;
#STOPS:;
#BGCHANGES:;
// cache tags:
#FIRSTBEAT:0.000;
#LASTBEAT:288.000;
#SONGFILENAME:Songs/Fabulously Fresh Flock of Fantastic Files F5/(2kM) Kill Us All/Kill Us All.sm;
#HASMUSIC:1;
#HASBANNER:1;
#MUSICLENGTH:134.000;
// end cache tags

//---------------dance-single - Copied from----------------
#NOTES:
     dance-single:
     Copied from:
     Hard:
     11:
     0.990,0.940,1.000,0.239,1.000,751.000,146.000,32.000,0.000,0.000:
2000
0000
0000
3200
,
0000
0000
0000
0000
,
0320
0000
0000
0032
,
0000
0000
0000
0000
0000
0000
0000
0000
0000
0003
0000
0000
0000
0000
0000
1000
0100
0010
0001
0000
0000
1000
0000
0000
,
0020
0000
0000
0230
,
0000
0000
0000
0000
,
0302
0000
0000
2003
,
0000
0000
0000
0000
0000
0000
0000
0000
0000
3000
0000
0000
0000
0000
0000
0001
0010
0100
1000
0000
0000
0010
0000
0000
,
1001
0000
0010
0100
0001
0010
0100
1000
0010
0100
0001
0010
0100
0010
0001
0100
,
0010
1000
0100
0010
0100
1000
0010
0100
0001
0010
0000
0001
1000
0100
0010
0100
,
1000
0000
0001
0010
1000
0010
0001
1000
0010
0001
0010
0100
0001
1000
0100
0010
,
0001
0100
0010
1000
0100
1000
0100
0010
0001
0000
1000
0100
0010
0100
1000
0100
,
0010
0000
0001
1000
0100
0000
0010
0001
0000
0000
1000
0100
0010
0001
1000
0001
,
0010
0000
0001
0010
0100
0010
0001
1000
0001
0000
1000
0100
1000
0001
0010
0001
,
1000
0010
1000
0001
0100
0001
1000
0100
0010
0100
1000
0001
0010
0100
1000
0000
,
0001
0010
0100
1000
0001
0100
0010
1000
0100
0000
0000
0010
0001
0010
0100
0000
,
1100
0000
0110
0000
0011
0000
1001
0000
0110
0000
1001
0000
0100
0000
0001
0010
,
0100
1000
0100
0010
0001
0100
0010
1000
0001
0000
0010
0000
1001
0000
0110
0000
,
1001
1100
0011
0101
1010
1001
0100
0010
,
1100
0110
0011
0101
0110
1010
1001
0110
,
1001
0000
0101
0000
0011
0000
1010
0000
0101
0000
1010
0000
0001
0000
0010
0001
,
0100
1000
0100
0001
0010
0100
1000
0010
0100
0000
0001
0000
1010
0000
0101
0000
,
1010
1100
0011
0110
1001
1010
0100
0001
,
1100
0000
0101
0000
0011
0000
0110
0000
0101
0000
0000
0010
1000
0100
0010
0001
,
0100
0010
0000
1000
0100
0001
0100
1000
0001
0100
1000
0100
0001
0000
0000
0000
,
0000
1000
0001
0100
0010
1000
0100
0001
0100
0000
0010
0100
1000
0010
0001
0010
,
1000
0100
0010
0100
1000
0001
0100
0010
1000
0000
0001
0010
0100
1000
0010
0001
,
0010
1000
0100
0001
0100
1000
0010
0100
0001
0000
0000
1000
0100
0001
0100
0010
,
0001
0100
0000
0010
1000
0000
0100
0010
0000
0001
1000
0000
0001
0010
0100
1000
,
0100
0001
0100
1000
0001
0100
1000
0100
0001
1000
0010
0001
0010
1000
0001
0010
,
0100
1000
0000
0010
0100
0000
0001
1000
0000
0100
0010
0000
0001
1000
0100
0010
,
0001
0100
0010
1000
0100
0010
0100
1000
0000
0100
0010
0001
0010
0100
0010
1000
,
0010
0000
0001
1000
0100
0000
0010
0001
1000
0100
0010
0001
0100
0000
0010
0000
,
0000
0000
1100
0110
0022
0000
0033
0000
0011
0110
2200
0000
3300
0000
0101
0110
,
2020
0000
0000
0000
3030
0000
0000
0000
0000
0000
0000
0000
0000
0000
1000
0100
,
0001
0100
1000
0010
0100
0000
0001
1000
0100
0000
0011
0000
1001
0000
0010
1000
,
0100
0000
0010
0001
1000
0000
0100
0010
0001
1000
0000
0100
0000
0000
1001
0000
,
0000
0000
0011
0110
2002
0000
3003
0000
1100
0110
2002
0000
3003
0000
1001
0110
,
2002
0000
0000
0000
3003
0000
0000
0000
0000
0000
0000
0000
0000
0000
0010
1000
,
0010
0100
0001
0010
0100
0000
0010
0001
0100
0000
0001
0100
0001
0010
0100
1000
,
0100
0000
1000
0001
0010
0000
0100
1000
0001
0010
0100
1000
0010
0000
0100
0000
,
0000
0000
0011
0110
2200
0000
3300
0000
1100
0110
0022
0000
0033
0000
1010
0110
,
0202
0000
0000
0000
0303
0000
0000
0000
0000
0000
0000
0000
0000
0000
0001
0010
,
1000
0010
0001
0100
0010
0000
1000
0001
0010
0000
1100
0000
1001
0000
0100
0001
,
0010
0000
0100
1000
0001
0000
0010
0100
1000
0001
0000
0010
0000
0000
1001
0000
,
0000
0000
1100
0110
2002
0000
3003
0000
0011
0110
2002
0000
3003
0000
1001
0110
,
2002
0000
3003
0000
0000
0000
0000
0000
0000
0000
0000
0000
0000
0000
0001
0010
,
0100
1000
0100
0010
0100
0000
1000
0001
0010
0000
1100
0000
0011
0000
0101
0000
,
0000
0000
0001
0010
0100
1000
0100
0010
0001
0001
0001
1000
0010
0100
0001
1000
,
0001
0010
0100
0010
0100
0100
1000
1000
0000
0001
1000
0100
0010
0001
0100
0010
,
1000
0000
0001
0010
0001
0010
0100
1000
0010
0000
0100
0001
0010
0100
0010
0001
,
0010
0100
1000
0001
1000
1000
0100
0100
0000
0010
0001
0010
1000
0010
0001
1000
,
0010
0100
0001
1000
0001
0010
0100
0010
0001
1000
0010
0001
0010
1000
0100
0010
,
0001
0000
1000
0100
0010
0000
0001
0000
0000
1000
0010
0100
0001
0000
0010
0000
,
0100
1000
0001
0000
0010
0000
0100
0010
0001
0000
1000
0100
0000
0010
0001
0100
,
0010
0000
1000
0100
1000
0000
0001
0000
0000
0000
1000
0100
0010
0001
0100
0001
,
1010
0000
0101
0000
1100
0000
1010
0000
0101
0000
1010
0000
0001
0000
1010
0100
,
0001
0010
0001
0100
0010
1000
0100
0010
1001
0000
0100
0000
1010
0000
0101
0000
,
1010
0011
1100
1001
0110
1010
0001
0100
,
0011
0101
1100
1001
0101
0110
1010
0101
,
1010
0000
1001
0000
1100
0000
0110
0000
1001
0000
0110
0000
1000
0000
0110
1000
,
0001
0010
0001
1000
0010
0100
0001
0010
1001
0000
0001
0000
0110
0000
1001
0000
,
0110
0011
1100
0101
1010
0110
0001
1000
,
0011
1001
1100
0101
1001
1100
0101
0110
,
1001
0010
0100
1000
0010
0000
0100
0001
1000
0100
0010
0100
1001
0010
1000
0001
,
0100
0010
1000
0001
0010
0000
0100
0000
0000
1000
0100
0010
0001
1000
0010
0100
,
0011
0000
1000
0000
0010
1000
0001
1000
0010
0100
0001
0010
1100
0001
0010
0100
,
1000
0010
0100
0001
0010
0000
0100
0000
0000
0010
0100
0001
1010
0000
0110
0000
,
1001
0010
0100
0010
0100
1000
0001
0100
0010
0100
0001
0010
1001
0010
0100
0010
,
0001
0100
0010
1000
0100
0010
0100
0000
0000
1000
0100
0010
0100
0010
0001
1000
,
0011
0100
0001
0100
0010
0000
1000
0010
0100
0001
0100
0010
1100
0001
0010
0100
,
1000
1000
0100
0100
0010
0010
0001
0001
0100
0100
0010
0010
1000
1000
0100
0100
,
1001
0000
0000
0000
;
