#TITLE:agony;
#SUBTITLE:Kannazuki no Miko ED theme;
#ARTIST:KOTOKO;
#TITLETRANSLIT:;
#SUBTITLETRANSLIT:;
#ARTISTTRANSLIT:;
#CREDIT:ALICE_;
#BANNER:agony.png;
#BACKGROUND:agony.jpg;
#LYRICSPATH:;
#CDTITLE:cdtitle.png;
#MUSIC:agony.mp3;
#OFFSET:0.660;
#SAMPLESTART:4.740;
#SAMPLELENGTH:19.860;
#SELECTABLE:YES;
#BPMS:0.000=132.000;
#STOPS:;
#BGCHANGES:1.500=agony.avi=1.000=1=0=1,
99999=-nosongbg-=1.000=0=0=0 // don't automatically add -songbackground-
;
// cache tags:
#FIRSTBEAT:4.000;
#LASTBEAT:222.500;
#SONGFILENAME:Songs/alice 4th complete step/agony/agony.sm;
#HASMUSIC:1;
#HASBANNER:1;
#MUSICLENGTH:102.983;
// end cache tags

//---------------dance-single - ----------------
#NOTES:
     dance-single:
     :
     Hard:
     7:
     0.440,0.454,0.165,0.078,0.000,292.000,17.000,8.000,0.000,0.000:
0000
0000
0000
0000
,
0000
0000
0000
0000
,
0000
0000
0000
0000
,
1000
0000
1000
0000
0010
0000
0010
0100
,
0000
0001
0010
0000
1000
0000
0001
0000
,
0100
0000
0100
0000
0001
0000
0010
0100
,
0000
0100
1000
0000
0010
0000
0100
0000
,
0001
1000
0100
0000
0010
1000
0100
0000
,
0010
0001
1000
0001
0100
0010
1000
0100
,
0001
1000
0100
0000
0010
1000
0100
0000
,
0001
1000
0100
1000
0010
0100
0001
0010
,
0100
0100
1000
1000
,
0001
0001
0100
0100
,
0010
1000
0001
0100
1000
0100
0001
0010
,
0200
0000
0000
0300
,
1000
1100
0001
0101
,
1000
0010
1000
0001
0100
0010
1000
0100
,
0001
0101
1000
1100
,
0010
0001
0010
1000
0001
0100
0010
1000
,
0100
1010
0010
0101
,
1000
0001
0100
1000
0100
0001
0010
0100
,
0100
1000
0001
0100
0001
0010
0100
1000
,
0010
0100
0010
0001
0010
1000
0100
0010
,
0100
0000
1001
0000
0010
1000
0001
0000
,
0100
0010
0001
0000
0010
1000
0100
0010
,
0200
1300
0020
0130
,
0002
0000
0013
0000
1000
0001
0100
0020
,
0100
0000
0100
0000
0100
0000
0100
0030
,
1000
0001
1000
0100
,
0001
0000
1100
0000
1000
0010
0100
0001
,
0001
1000
0100
0000
1000
0001
0100
0001
,
0010
0010
0100
0100
,
1000
0000
0001
0000
0010
1000
0100
0000
,
1000
0000
0001
0000
0010
0001
0100
0000
,
0010
1000
0100
0001
,
1000
0100
1100
0000
0001
0100
0101
0000
,
1000
0010
0101
0000
0001
0010
0100
0010
,
1002
0000
0100
0000
0010
0003
0100
0001
,
1000
0100
0010
1000
0010
0001
0100
0010
,
1000
1000
0001
0001
,
1000
0000
0010
0000
1000
0100
0001
0000
,
0100
0000
1000
0000
0001
0010
0100
0000
,
1000
0001
0100
0010
,
1000
0100
1100
0000
0001
0100
0101
0000
,
0001
0010
1100
0000
1000
0010
0100
0010
,
2010
0000
0100
0000
0001
3000
0010
0100
,
1001
0000
0100
1000
0001
1000
0100
0010
,
0001
0100
0001
0000
0100
1000
0100
0000
,
1000
0010
1000
0000
0010
0001
0010
0000
,
1000
0100
0001
0000
0001
0100
1000
0000
,
1000
0010
0100
0001
0010
0001
1000
0010
,
0100
0001
0100
0000
1000
0100
1000
0000
,
0010
1000
0010
0000
0001
0100
0001
0000
,
1000
0100
1000
0010
0100
1000
0001
0100
,
0020
0000
0000
0000
,
0030
0000
0000
0000
;

//---------------dance-single - ----------------
#NOTES:
     dance-single:
     :
     Challenge:
     15:
     1.000,1.000,1.000,0.369,1.000,740.000,186.000,38.000,0.000,12.000:
0000
0000
0000
0000
,
0100
0010
0001
0000
0000
0000
0100
0000
0100
0010
0001
0000
0000
0000
0100
0000
,
0001
0010
1000
0000
0010
0100
1000
0000
0001
0010
1000
0000
0010
0100
1000
0000
,
1001
0100
0010
1000
1001
0010
0101
1010
,
0100
1001
0110
1000
1010
0100
0011
1100
,
1010
0100
1010
0001
0101
0100
1001
1010
,
0100
0000
0011
0000
1001
0100
0010
0000
0101
0000
0100
0000
1010
0000
0100
0000
,
1001
0000
0010
0001
0100
0000
1010
0000
1001
0000
0100
0010
1000
0000
1001
0010
,
0101
0000
0010
0001
1000
0010
0100
0010
2000
0000
3002
0000
1023
0000
0230
0000
,
1301
0000
0100
1000
0010
0000
0101
0000
1001
0000
0010
0100
0001
0000
1001
0100
,
1010
0000
0100
1000
0001
0010
1000
0010
0102
0000
2003
0000
3021
0000
0230
0000
,
1310
0100
0001
0010
1100
0001
0100
0010
1001
0100
0010
0100
1010
0001
0110
1000
,
0100
0010
1100
0001
1010
0100
0010
0100
1001
0010
0100
1000
0011
0100
0001
0010
,
1100
0001
0100
0010
1001
0100
1000
0010
0101
0010
1000
0001
1100
0010
0101
0010
,
1000
0100
0010
0001
0010
0100
1000
0100
0010
0001
0010
0100
1000
0100
0010
0001
0010
0100
1000
0100
0010
0001
0010
0100
,
1000
0000
0010
0000
1001
0000
0100
0010
1000
0000
1001
0000
0110
0000
0001
0000
,
1000
0100
0010
0000
0101
0000
0010
1000
0100
0000
0011
0000
0101
0000
0010
0001
,
1000
0000
0011
0000
1100
0000
0010
0001
0100
0000
1010
0000
0101
0000
0010
1000
,
0100
0000
0001
0000
1010
0000
0100
0001
1010
0000
0101
0000
1010
0000
1100
0010
,
1001
0000
0100
0000
0011
0000
1000
0010
0100
0000
1001
0000
0100
0001
1010
0000
,
0001
0000
1100
0000
0011
0000
0100
1000
0010
0000
0101
0000
1000
0000
0110
0000
,
1000
0100
0010
0001
0010
0100
1000
0100
0010
0000
0000
0000
0100
0000
0100
0000
0001
0010
0100
1000
0100
0010
0001
0010
0100
0000
0000
0000
0010
0000
0010
0000
,
0100
1001
0010
1000
0101
0000
1001
0000
1010
0100
0001
0010
1000
0100
0001
0010
,
1000
0100
0001
0100
1000
0100
0010
0100
1000
0100
0001
0100
1000
0100
0010
0100
,
1000
0010
0001
0010
0100
0010
0001
0010
1000
0010
0001
0010
1000
0100
1001
0110
,
1002
0000
0100
0010
1000
0003
0110
1001
0210
0000
0001
1000
0010
0300
1001
0110
,
2001
0000
0100
0001
0010
3000
0101
0010
1001
0000
1010
0100
0001
1000
0010
0100
,
1001
0010
0100
1000
0101
0010
0100
1000
0101
0010
0001
1000
0110
0001
0010
1000
,
0101
0000
0010
0000
0001
0000
0100
0000
1010
0000
0100
0000
0001
0000
0010
0000
1100
0000
0001
0000
0010
0000
0100
0000
1001
0000
0010
0000
0100
0001
0010
0000
,
1001
0000
0100
1000
0100
0010
1100
0100
1001
0010
0001
1000
0010
0100
2002
0000
,
3003
0000
0000
0100
0000
0000
1001
0000
0000
0000
0000
0000
1001
0000
0000
0000
0000
0000
0010
0000
0000
0010
0000
0000
1000
0000
0100
0000
0010
0000
0001
0000
0010
0000
0100
0000
1000
0000
0100
0000
0010
0000
0001
0000
0010
0000
0100
0000
,
1001
0010
0100
0001
1010
0100
0011
0100
1000
0010
0101
0010
1000
0010
1100
0002
,
0010
1000
0100
0010
0103
1000
0011
0100
1010
0001
0101
1000
0110
0001
1100
0020
,
1000
0001
0100
0001
1000
0130
0001
1000
0110
0001
0010
0100
1010
0001
1100
0020
,
0100
0001
0100
1000
0100
0031
1010
0100
1001
0010
0100
0001
1010
0100
0001
0010
,
1001
0100
0011
2100
0010
0001
3010
0100
1001
0010
1000
0201
0010
0001
1000
0310
,
1001
0010
0101
2000
0010
0100
0001
3100
0010
0001
1100
0010
0101
1000
0011
0100
,
2001
0010
0001
0100
0011
3000
1010
0010
0102
1000
0100
0010
1103
0001
0110
0000
,
1000
0100
1000
0010
0100
0000
0000
0000
1001
0000
0000
0000
0011
0000
0000
0000
0202
0000
0000
0000
0303
0000
0101
0000
1001
0000
0010
0000
0100
0000
0010
0000
,
1001
0100
0010
1000
0101
0010
1001
0100
0010
0001
1100
0010
0001
0100
0011
2000
,
0100
0010
0001
0100
3001
0010
1100
0010
0101
1000
1010
0001
0110
1000
0011
2000
,
0001
0100
0010
0100
0001
3010
1000
0100
0011
1000
0010
0100
1001
0100
0011
0200
,
0010
1000
0001
0010
0001
1300
0110
1000
0012
0100
0010
1003
0201
0010
1000
0010
,
0301
1000
0110
1002
0010
0100
1003
0100
1010
0001
0100
0021
0100
1000
0100
0031
,
1010
0001
1100
0002
0010
0100
1003
0010
0200
1000
0001
0310
0002
1000
0100
0013
,
2001
0000
0100
3012
0000
0000
0100
1000
0010
0100
1010
0100
1000
0000
0110
0103
,
2002
0000
0000
0000
0000
0000
0000
0000
0000
0000
0000
0000
0010
0000
0000
0000
0000
0000
0100
0000
0000
3013
0000
0000
0100
0000
0000
0000
0000
0000
0010
0000
0000
0001
0000
0000
1000
0000
0100
0000
0010
0000
0100
0000
0010
0000
0001
0000
,
1000
0000
1100
0000
1001
0001
0100
0010
1000
0000
0101
0000
1001
1000
0010
0100
,
0001
0000
0011
0000
1001
1000
0010
0100
0001
1000
0110
0100
1001
0001
0100
0010
,
1000
0000
0101
0000
1010
1000
0100
0010
1000
0000
0101
0000
0011
0010
0100
0001
,
1000
0100
0011
0100
1010
1000
0100
0010
0001
0100
1010
0100
0011
0001
1000
0010
,
0100
0001
1010
0100
0011
0001
0100
0001
0010
1000
0101
0010
1100
1000
0001
0010
,
1000
0100
0011
0100
1010
1000
0100
0010
0001
0100
1010
0100
0011
0001
0100
0010
,
1000
0100
1000
0001
0010
0001
1000
0100
1000
0001
0010
0001
1000
0100
1000
0001
0010
0001
1000
0100
1000
0001
0010
0001
,
0200
0000
0000
0000
,
0000
0000
0000
0000
0000
0300
0000
0000
;

//---------------dance-single - ----------------
#NOTES:
     dance-single:
     :
     Medium:
     5:
     0.314,0.347,0.029,0.097,0.000,213.000,3.000,10.000,0.000,0.000:
0000
0000
0000
0000
,
0000
0000
0000
0000
,
0000
0000
0000
0000
,
0000
0000
0000
0000
,
0000
0000
0000
0000
,
0000
0000
0000
0000
,
0000
0000
0000
0000
,
1000
0000
1000
0000
0010
0000
0010
0100
,
0000
0001
0010
0000
1000
0000
0001
0000
,
0100
0000
0100
0000
0001
0000
0010
0100
,
0000
0100
1000
0000
0010
0000
0100
0000
,
0001
1000
0001
0100
,
0010
1000
0010
0100
,
0001
1000
0100
0010
,
0002
0000
0000
0003
,
1000
0000
1000
0000
0100
0001
0100
0001
,
1000
1000
0010
0100
,
0001
0000
0001
0000
0100
1000
0100
1000
,
0001
0001
1000
0010
,
0100
0000
0100
0000
0001
1000
0100
1000
,
0010
0100
0001
1000
,
0001
0010
0001
0000
0001
0100
0001
0000
,
1000
0100
1000
0010
0100
0001
0100
0001
,
0010
0100
1000
0001
,
0100
0010
1000
0001
,
2000
3100
0002
0103
,
2000
0000
3001
0000
1000
0001
0100
0010
,
1000
0100
0100
0100
,
0100
0100
1000
0001
,
0100
0010
0100
0000
0001
1000
0001
1001
,
0000
0100
0100
0000
0000
0000
0000
0000
,
1000
0001
0010
0001
,
1000
1000
0100
1000
,
0001
0001
0100
0001
,
1000
0010
0001
0100
,
1000
0010
1000
0000
0100
1000
0100
0000
,
0010
0001
0010
0000
0001
0100
0001
0100
,
0020
0000
0000
0030
2000
0000
0000
3000
,
0001
0000
0100
0000
0001
1000
0001
0100
,
0010
1000
0100
0001
,
1000
1000
0010
0100
,
0001
0001
0010
0100
,
1000
0001
0010
0001
,
1000
0100
1000
0000
0001
0100
0001
0000
,
1000
0100
0010
0000
0001
0010
0001
0010
,
0100
1000
0001
0100
,
0020
0000
0000
0030
,
1000
0000
0001
0010
0000
0001
0000
0100
,
0000
0000
1000
0010
0000
1000
0000
0001
,
0000
0000
0100
0010
0000
1000
0000
0100
,
0000
0001
1000
0001
,
0101
0000
1000
0010
0000
0100
0000
0001
,
0000
0000
0001
0010
0000
0100
0000
2000
,
0000
3000
0001
0100
0010
1000
0100
0010
,
2002
0000
0000
0000
,
3003
0000
0000
0000
;

//---------------dance-single - Copied from----------------
#NOTES:
     dance-single:
     Copied from:
     Easy:
     3:
     0.216,0.240,0.019,0.078,0.000,146.000,2.000,8.000,0.000,0.000:
0000
0000
0000
0000
,
0000
0000
0000
0000
,
0000
0000
0000
0000
,
0000
0000
0000
0000
,
0000
0000
0000
0000
,
0000
0000
0000
0000
,
0000
0000
0000
0000
,
1000
1000
0001
0001
,
0010
0000
1000
0001
,
0100
0100
0001
0001
,
1000
0000
0010
0100
,
0001
0000
0001
0000
,
1000
0000
1000
0000
,
0010
1000
0001
0100
,
0002
0000
0000
0003
,
1000
0000
1000
0000
0000
0001
0000
0001
,
0000
1000
0010
0100
,
0001
0000
0001
0000
0000
1000
0000
1000
,
0000
0001
0100
0010
,
0100
0000
0100
0000
0000
0001
0000
1000
,
0000
0100
0001
1000
,
0002
0003
0200
0300
,
1000
0001
1000
0001
,
0010
0100
1000
0001
,
0100
0010
1000
0001
,
2000
3000
0002
0003
,
0010
0000
0001
1000
,
0100
0010
0100
0010
,
0100
0010
0001
1000
,
0200
0300
0001
1001
,
0000
0010
0000
0000
,
1000
0001
0010
0001
,
1000
0000
0100
1000
,
0001
0000
0100
0001
,
1000
0000
0001
0100
,
1000
1000
0000
0100
,
0000
0010
0001
0100
,
0010
0000
1000
0000
,
0001
0100
0001
0001
,
0010
1000
0100
0001
,
1000
0000
0010
0100
,
0001
0000
0010
0100
,
1000
0000
0001
1000
,
0100
0100
0000
0010
,
0000
0001
0000
1000
,
0100
1000
0001
0100
,
0020
0000
0000
0030
,
1000
0000
0001
0000
0000
0000
0000
0010
,
0000
0000
0100
0000
0000
0000
0000
0010
,
0000
0000
1000
0000
0000
0000
0000
0001
,
0000
0100
0001
0100
,
1001
1000
0001
1000
,
0010
0001
1000
0001
,
0100
0010
1000
0001
,
0020
0000
0000
0000
0000
0000
0000
0030
;
