#TITLE:Wannabe;
#SUBTITLE:;
#ARTIST:Spice Girls;
#TITLETRANSLIT:;
#SUBTITLETRANSLIT:;
#ARTISTTRANSLIT:;
#CREDIT:;
#BANNER:../group banner.png;
#BACKGROUND:../zfallback-bg.png;
#LYRICSPATH:;
#CDTITLE:;
#MUSIC:Wannabe.ogg;
#OFFSET:-0.602;
#SAMPLESTART:74.000;
#SAMPLELENGTH:12.000;
#SELECTABLE:YES;
#BPMS:0.000=110.040,152.000=55.015,154.000=110.040,210.000=55.015,212.000=110.040;
#STOPS:;
#BGCHANGES:;
// cache tags:
#FIRSTBEAT:7.750;
#LASTBEAT:294.500;
#SONGFILENAME:Songs/SSSC Pack 2/Wannabe - [Kytsune]/Wannabe.sm;
#HASMUSIC:1;
#HASBANNER:0;
#MUSICLENGTH:170.614;
// end cache tags

//---------------dance-single - Blank----------------
#NOTES:
     dance-single:
     Blank:
     Challenge:
     11:
     0.703,0.755,0.592,0.334,0.610,681.000,101.000,57.000,32.000,5.000:

0000
0000
0000
0000
,
0000
0000
0000
0000
0000
0000
0000
0000
0000
0000
0000
0000
0000
0000
0000
1000
,
0M01
0010
M001
0100
001M
0000
M100
0010
M100
0001
1M00
0001
M010
0000
011M
0000
,
01M0
1000
010M
0010
0M01
0000
10M0
0001
M100
0010
100M
0100
0010
0001
1000
0001
,
0101
0001
1000
0001
0101
0001
1000
0001
0101
0001
1000
0001
0101
0001
1000
0001
,
0100
0010
0100
0010
1000
0010
1000
0010
1000
0100
0010
0000
0012
0000
0000
0000
,
0103
0000
0010
1000
0001
0000
0001
0000
0010
0000
0010
0000
0200
0000
0300
0000
,
1000
0000
0010
0000
0100
0000
0001
0000
1000
0100
0000
0100
2000
0000
3010
0000
,
0101
0000
0001
0010
0001
0000
1000
0000
0010
0000
0100
0000
0200
0000
0300
0000
,
0001
0000
1000
0010
1000
0000
0001
0000
0010
0100
0000
0100
0020
0000
0031
0000
,
1000
0010
0100
0001
0101
1001
2000
3000
,
0100
0000
0010
0000
0100
0000
1000
0000
0001
0010
0000
0010
0002
0000
0103
0000
,
0010
0000
0100
0000
0001
0000
1000
0001
0000
0000
0010
0000
0100
0000
1000
0000
,
0020
0000
0000
0200
0000
0000
2000
0000
0000
0000
0000
0000
3330
0000
0000
0100
,
00M1
1000
0M01
0010
M100
0000
0M10
0001
10M0
0001
M100
0010
100M
0000
1M01
0000
,
M001
0010
M001
0100
001M
0000
10M0
0100
M010
0001
M010
0100
10M0
0100
100M
0010
,
0110
0010
1000
0010
0110
0010
1000
0010
0110
0010
1000
0010
0110
0010
1000
0010
,
0100
0001
0100
0010
1000
0001
0010
0100
1000
0100
0010
0000
2001
0000
0000
0000
,
3001
0001
0001
1000
0100
0000
0110
0000
0011
0000
1001
0000
0200
0000
0300
0010
,
1000
0001
0100
0000
0101
0000
0110
0000
1001
1000
0100
0000
0010
0000
0001
0000
,
1001
0100
0010
1000
0001
0001
0000
0021
,
0000
0130
0000
0000
1000
0000
0010
0000
0101
0000
0001
0010
0200
0000
0300
0000
,
1000
1000
1000
0100
0010
0000
0110
0000
0011
0000
1001
0000
0002
0000
0003
0000
,
0100
0010
0110
1010
1100
0000
0020
0030
,
0011
1100
1010
0101
1001
1001
0100
2010
,
0000
3100
0000
0000
0010
0000
0001
0000
1001
0000
1000
0100
0020
0000
0030
0000
,
0001
0010
0100
0010
0001
0010
0100
0000
1100
0000
0MM0
0000
1000
0000
0001
0000
,
0101
0000
0010
0000
1000
0000
0100
0000
0010
0001
0000
1000
0020
0000
0030
0000
,
0100
0100
0001
1000
0100
0100
0010
0010
,
0000
0001
0010
0100
2000
0010
0001
0100
,
3002
0100
0100
0103
0010
1000
0200
0300
,
0000
0010
0001
0000
1000
0000
0010
0000
0100
0001
0000
1000
0200
0000
0300
0000
,
0010
0000
0001
1000
0000
0000
0010
0000
0100
0000
0001
0000
0010
0000
0100
0000
,
2000
0000
0000
0200
0000
0000
0002
0000
0000
0000
0000
0000
3313
0000
0000
0100
,
1000
0100
1000
0001
0100
0000
0010
0100
0001
1000
0001
0010
0100
0000
1100
0000
,
1000
0010
0100
0001
0010
0000
0001
0100
0010
1000
0100
0010
0001
0100
0001
1000
,
1010
1000
0001
1000
1010
1000
0001
1000
1010
1000
0001
1000
1010
1000
0001
1000
,
0100
0010
0100
1000
0010
0100
0001
0010
0100
1000
0010
0000
0210
0000
0000
0000
,
0310
0010
0010
1000
0001
0000
0011
0000
1001
0000
1100
0000
0020
0000
0030
0001
1000
0000
0100
0000
1000
0000
0000
0000
1010
0000
0000
0000
0110
0000
0000
0000
,
0101
0001
1000
0000
0100
0000
0010
0000
0002
0000
0010
0000
1000
0000
0103
0000
,
0110
0000
1001
0000
0002
0000
2003
0000
0000
3100
0000
0000
0110
0000
1001
0000
,
0110
0000
1000
0001
2000
0000
3000
0000
0001
0001
0001
0010
0100
0000
0110
0000
,
0011
1001
0200
0300
0110
1010
1001
1001
,
0201
1000
0010
0301
2010
0100
0010
0001
,
0010
0000
3100
0000
0010
0000
0011
0000
0000
1001
0000
0000
0110
0000
0110
0000
,
2000
0000
3100
0010
0002
0000
0000
0000
0113
0000
0010
0100
0000
0001
0100
0000
,
1010
0000
1000
0001
0000
1000
0001
0010
0100
0000
1000
0100
0000
1000
0010
0100
,
0001
0100
0010
1000
0001
1000
0100
0000
0110
0000
0010
0001
1000
0000
0010
0100
,
0000
0001
0100
0010
1000
0100
0010
0000
0011
0001
1000
0000
0100
0000
1000
0010
,
0000
0100
0001
0100
0020
0000
1000
2030
0000
0000
3100
0010
0001
0000
1000
0001
,
0000
0000
0100
0001
1000
0000
0010
0100
0001
0000
0010
0200
0000
0000
0000
0000
,
2300
0000
0200
0000
0001
0000
3300
0000
0100
1000
0010
0100
0001
0000
0010
0001
,
0000
0000
0100
0000
0010
0000
1000
0000
0001
0000
0000
0000
0000
0000
0000
0000
1000
0100
0001
0100
1000
0000
0010
0100
0000
0001
0100
1000
0100
0000
0000
0000
,
0001
0001
0001
1000
0100
0000
0110
0000
0011
0000
1001
0000
2000
0000
3010
0100
,
0001
0100
0010
0000
0110
0000
1010
0000
1001
1000
0100
0000
0010
0000
0001
0000
,
0010
0010
0100
1000
1010
0100
0000
0002
,
0000
0013
0000
0000
0001
0000
0100
0000
0110
0000
0010
1000
0200
0000
0300
0000
,
0010
0010
0010
0100
1000
0000
1001
0000
0101
0000
0011
0000
0020
0000
0030
0000
,
0100
1000
0100
0010
0002
0100
0100
1000
,
1003
0100
1000
0010
0110
0101
0001
0020
,
0000
0130
0000
0000
1000
0000
0001
0000
0101
0000
0001
1000
0020
0000
0030
0000
,
0100
0100
0100
0010
1000
0000
1001
0000
1001
0000
1001
0000
0000
0001
0010
0100
,
0000
1000
0001
0100
0000
0010
1000
0100
0000
0010
0001
1000
0000
0010
0100
0010
,
1000
1000
0001
0001
0010
0010
0110
0000
,
0100
1000
0001
0100
0010
0000
0100
0001
0000
1000
0100
0010
0001
0000
0000
0000
,
1000
0001
0100
0010
1000
0000
0001
0010
0000
0001
0100
0010
1000
0000
1001
0000
,
0000
0101
0000
1010
0000
1100
0000
1001
,
0001
0010
0001
0100
0010
0000
1000
0100
0000
0010
0100
1000
0010
0000
0000
0000
,
0100
0001
0100
0001
1000
0000
0100
0000
0010
0001
1000
0000
2002
0000
3003
0000
,
0002
0000
0000
0010
2003
0000
0000
0010
,
3200
0000
0000
0000
0000
0000
0010
0000
1300
0000
0000
0001
0000
0000
1000
0000
,
0020
0000
0000
0100
2030
0000
0000
0100
,
3002
0000
0000
0000
0000
0000
0010
0000
0103
0000
0000
0010
0000
0000
0100
0000
,
0010
0010
0010
1000
0001
0000
1001
0000
1001
0000
1001
0000
0000
0000
0000
0000
;
