#TITLE:Pa' Que La Pases Bien;
#SUBTITLE:;
#ARTIST:Arcangel;
#TITLETRANSLIT:;
#SUBTITLETRANSLIT:;
#ARTISTTRANSLIT:;
#CREDIT:;
#BANNER:banner.JPG;
#BACKGROUND:;
#LYRICSPATH:;
#CDTITLE:!tizaTitle.png;
#MUSIC:Arcangel - Pa que la pases bien (Prod. By Tainy) (ORIGINAL) (BY TINO - JiGcMaG).ogg;
#OFFSET:-0.280;
#SAMPLESTART:48.001;
#SAMPLELENGTH:17.500;
#SELECTABLE:YES;
#BPMS:0.000=110.000,276.000=55.000,284.000=110.000;
#STOPS:103.000=0.540
,261.000=1.100
,276.000=0.540
,328.000=2.200
;
#BGCHANGES:;
// cache tags:
#FIRSTBEAT:4.000;
#LASTBEAT:360.500;
#SONGFILENAME:Songs/Reggaeton and more/Pa Que La Pases Bien/paquelapasesbien.sm;
#HASMUSIC:1;
#HASBANNER:1;
#MUSICLENGTH:207.164;
// end cache tags

//---------------dance-single - ----------------
#NOTES:
     dance-single:
     :
     Challenge:
     10:
     0.672,0.696,0.830,0.159,0.584,769.000,172.000,33.000,0.000,27.000:

0000
0000
0000
0000
,
1100
0000
1000
0100
0010
0000
0001
0100
0010
0000
1000
0000
1001
0000
0000
0000
,
0200
1010
0011
0300
,
2000
0110
0011
3000
,
0002
1010
1100
0003
,
0020
1001
1001
0030
,
1000
0000
0010
0000
0100
0001
0100
0010
,
1000
0100
0010
0000
1001
1000
0010
0100
,
0202
0010
1000
0303
,
2002
0010
0010
3003
,
1000
0010
0100
0010
1000
0000
0100
0000
0000
0000
1000
0100
0010
0001
0010
0100
,
1000
0010
0100
0010
1000
0000
0100
0010
0100
0000
1000
0000
1010
0000
0000
0001
,
0010
0100
1000
0010
0100
0000
0001
0010
1000
0000
1000
0010
0001
0000
0100
0000
,
0000
1010
0000
0110
0000
0101
0000
0000
1000
0100
0001
0100
1000
0000
1001
0000
,
1000
0100
1000
0100
1000
0000
0011
0000
0000
1000
0000
0010
0100
0000
0101
0000
,
0000
1000
0100
0010
0100
1000
0010
0100
0010
1000
0100
0001
0100
0000
1000
0000
,
0000
1000
0010
0100
0001
0010
0100
0010
0001
1000
0100
0010
0100
0000
1100
0000
,
0001
0100
1000
0100
0001
0010
0100
1000
0010
0001
0010
1000
0100
0010
0001
1000
,
1100
0000
0110
0000
0011
0000
1001
0000
1000
0010
1000
0010
1000
0000
1001
0000
,
0000
1000
0100
0000
0000
0000
1000
0010
0100
0001
0100
0000
1010
0000
0000
0000
,
0000
0000
0000
0000
1000
0000
0100
0000
0010
0000
0000
0000
0010
0000
0100
0000
1000
0000
0000
0000
1000
0000
0010
0000
0100
0000
0000
0000
1000
0000
0000
0010
,
0000
0000
0100
0000
0000
0001
0000
0000
1000
0000
0100
0000
0010
0000
0001
0000
0011
0000
0000
0000
0001
0000
0100
0000
1010
0000
0000
0000
1000
0000
0100
0000
,
1001
0000
0110
0000
1001
0000
0110
0000
1001
0000
1000
0100
0010
0000
1001
0000
,
0000
1000
0100
0000
0000
0000
0010
0001
0100
0010
1000
0000
0110
0000
0000
0000
,
0000
0000
0000
0000
0001
0000
0010
0000
0100
0000
0000
0000
0100
0000
0010
0000
0001
0000
0000
0000
0001
0000
0100
0000
0010
0000
0000
0000
0001
0000
0000
0100
,
0000
0000
0000
0000
0010
0000
0000
0000
0000
0000
1000
0000
0000
0000
0000
0000
0001
0000
0000
0000
0010
0000
0000
0000
0100
0000
0000
0000
1000
0000
0000
0000
1100
0000
0000
0000
0000
0000
0000
0000
1000
0000
0000
0000
0010
0000
0000
0000
2002
3003
0000
0000
1000
0000
0000
0000
0100
0000
0000
0000
0010
0000
0000
0000
,
0100
1000
0001
0010
0100
0000
0010
0000
0011
0000
0000
0000
1100
0000
1000
0100
,
0110
0000
0100
0010
0011
0000
0110
0000
1100
0000
0000
0000
0000
0001
0010
0100
,
1000
0100
0010
0001
0010
0000
0100
0000
1100
0000
0000
0000
1001
0000
1000
0001
,
0101
0000
0001
0100
0110
0000
1010
0000
1100
0000
0000
0000
0000
1000
0010
0001
,
0010
1000
0010
0001
0010
0000
1000
0000
1001
0000
0000
0000
1010
0000
1000
0010
,
0101
0000
0001
0010
1100
0000
0011
0000
0110
0000
0000
0000
0000
1000
0100
0001
,
1000
0010
0001
1000
0100
0000
1000
0000
1010
0000
0000
0000
1100
0000
1000
0010
,
0110
0000
0100
0010
0101
0000
1001
0000
1100
0000
0000
1000
0010
0000
0000
0010
,
1000
0000
1000
0010
0100
0000
0100
0001
0010
0000
1001
0000
1100
1000
1001
0000
,
0101
0000
0001
0100
0110
0000
1000
0000
1100
0000
0001
0000
0101
0000
0000
0000
,
0000
0000
1000
0010
0001
0000
0001
0010
1000
0000
1000
0100
0000
0110
0000
0010
,
0001
0010
1000
0001
0100
0001
1000
0010
0001
0000
0100
0000
1010
0000
1000
0100
,
0100
0000
0010
0001
0001
0000
0100
0001
0010
0000
0100
0000
1010
0000
1001
0000
,
0101
0001
0100
0010
1000
0100
0010
0100
1000
0000
0001
0000
0000
1000
0000
0100
,
0010
0000
0001
0100
0010
1000
0010
0100
0001
0000
1001
0000
0000
0000
1000
0100
,
0010
0000
0000
0000
0000
0000
1000
0000
0000
0100
0000
0000
0001
0000
0000
0000
0000
0000
0010
0000
0000
0100
0000
0000
1000
0000
0000
0000
0000
0000
1001
0000
0000
0000
0000
0000
0000
0000
0000
0000
1000
0000
0000
0000
0100
0000
0000
0000
,
1000
0000
0010
0000
0100
0000
0001
0000
0000
0010
0000
0000
1000
0000
0000
0100
0000
0000
0000
0000
1000
0000
0100
0000
,
0010
0000
0000
0000
0100
0000
0000
0000
1000
0000
0000
0000
0001
0000
0000
0000
0000
0000
0100
0000
0000
0000
0000
0000
1000
0000
0000
0000
0000
0000
0010
0000
0000
0000
0000
0000
0000
0000
0000
1000
0000
0000
0100
0000
0000
0010
0000
0000
,
0001
0000
0000
0000
0000
0000
0001
0000
0000
0100
0000
0000
0010
0000
0000
0000
0000
0000
1000
0000
0000
0100
0000
0000
0001
0000
0000
0000
0100
0000
0000
0000
1000
0000
0000
0000
0010
0000
0000
0000
0100
0000
0000
0000
0001
0000
0000
0000
,
0010
0000
0000
0000
0100
0000
0000
0000
1000
0000
0000
0000
2002
0000
0000
0000
0000
0000
0000
0000
0000
0000
0000
0000
0000
0000
0000
0000
0010
0000
0000
0000
3003
0000
0000
0000
0000
0000
0000
1000
0000
0000
0010
0000
0000
0100
0000
0000
,
0001
1000
0010
0100
0001
0000
0010
0000
1100
0000
0000
0000
1010
0000
0100
0001
,
0010
0000
0100
1000
0010
0000
0101
0000
1010
0000
0000
0000
0000
1000
0100
0001
,
1000
0001
1000
0010
0001
0000
0100
0000
1010
0000
0000
0000
1001
0000
1000
0100
,
0110
0000
0010
0001
0011
0000
1100
0000
0101
0000
0000
0000
0000
1000
0010
0001
,
1000
0100
0001
0010
1000
0000
0010
0000
0001
0000
0000
0000
1001
0000
1000
0100
,
0001
0000
1000
0001
1000
0000
1000
0000
0010
0000
0001
0000
0000
1000
0100
0010
,
0001
1000
0100
0010
0001
0000
0010
0000
1100
0000
1001
0000
0101
0000
0001
0100
,
0010
0000
1000
0010
0100
0000
0010
0000
1000
0000
0100
0010
0011
0000
0110
0000
,
1100
0000
1001
0000
0101
0000
1001
1000
0001
0000
1001
0000
0000
1000
0100
0000
,
0000
0000
1000
0010
0001
0010
1000
0000
1001
0000
0000
0000
0000
0000
1000
0100
,
1000
0000
0000
0000
0010
0000
0100
0000
0010
0000
0000
0000
0100
0000
0001
0000
0100
0000
0000
0000
0101
0000
0000
1001
0000
0000
1100
0000
0000
0110
0000
0000
,
1000
0100
0010
0100
1000
0000
0001
0100
0001
0000
1000
0010
1010
0000
0110
0000
,
0011
0000
1100
0000
1001
0000
1000
0001
0100
0000
1100
0000
0000
1000
0010
0000
,
0000
0000
0001
0010
0001
0010
0001
0000
1001
0000
0000
0000
0000
0000
1000
0001
,
1000
0000
0000
0000
0001
0000
1000
0000
0001
0000
0000
0000
1000
0000
0010
0000
0100
0000
0000
0000
0001
0000
0000
0100
0000
0000
0010
0000
0000
1000
0000
0000
,
0001
0100
0010
1000
1001
0000
1000
0001
1000
0000
0000
0000
2000
0000
0000
0000
,
0110
0011
3000
0200
,
0011
1010
0300
0002
,
1010
1100
0003
2002
,
0100
0000
0000
0000
0010
3003
0000
0000
1001
0000
0000
0000
1000
0000
0010
0000
,
0001
1000
0100
0001
1001
0000
1000
0100
,
0010
0000
1000
0000
0010
0000
0000
0001
0100
0000
0010
0000
1000
0000
0000
1000
,
0100
0000
1100
0000
1001
0000
1000
0100
0010
0000
0100
0010
0001
0000
1000
0000
,
2002
0003
0000
0000
0000
0000
0000
0000
0000
0000
0000
0000
0000
0000
0000
0000
3200
0000
0000
0000
0000
0000
0000
0000
0000
0000
0000
0000
0000
0000
0000
0000
,
0302
0000
0000
0000
0000
0000
0000
0000
0000
0000
0000
0000
0000
0000
0000
0000
1003
0010
0001
0100
0010
1000
0100
0010
0001
0010
0100
1000
0010
0100
0001
1000
,
2002
0000
0000
0000
0010
0000
3003
0000
1000
0001
1000
0001
1000
0000
0000
0000
,
2200
0000
0000
0000
0001
0000
3300
0000
1000
0100
0010
0100
1000
0000
0000
0000
,
0220
0000
0000
0000
0001
0000
0000
0330
0001
0100
0010
1000
1001
0000
0000
0000
,
2002
0000
0000
0000
0100
0000
0000
3003
1000
0010
0100
0001
1001
0000
0000
0000
,
1100
0000
0000
0000
1001
0000
0000
0000
0001
0100
0010
0100
0101
0000
0000
0000
,
1001
0000
0000
0000
1100
0000
0000
0000
1000
0100
0010
0001
0010
0000
0000
0000
,
0110
0000
0000
0000
1100
0000
0000
0000
0101
0100
0010
1000
1010
0000
0000
0000
,
0110
0000
0000
0000
1001
0000
0000
0000
0010
1000
0100
0010
0001
0010
0100
1000
,
0010
0000
0000
0000
1100
0000
0000
0000
0001
0100
0010
1000
0100
0000
0000
0000
,
1001
0000
0000
0000
0110
0000
0000
0000
1001
1000
0100
0010
0110
0000
0000
0000
,
0011
0000
0000
0000
1100
0000
0000
0000
1010
1000
0010
0100
0101
0000
0000
0000
,
2000
0002
0000
0000
0000
0000
0000
0000
3000
0003
0000
0000
0000
0000
0000
0000
0000
0000
0000
0000
0000
0000
0000
0000
0000
0000
0000
0000
0000
0000
0000
0000
0000
0000
0000
0000
0000
0000
0000
0000
0000
0000
0000
0000
0000
0000
0000
0000
1001
0000
0000
0000
0000
0000
0000
0000
0000
0000
0000
0000
0000
0000
0000
0000
0000
0000
0000
0000
0000
0000
0000
0000
0000
0000
0000
0000
0000
0000
0000
0000
0000
0000
0000
0000
0000
0000
0000
0000
0000
0000
0000
0000
0000
0000
0000
0000
1000
0000
0000
0000
0000
0000
0000
0000
0000
0000
0000
0000
0000
0000
0000
0000
0000
0000
0000
0000
0000
0000
0000
0000
0100
0000
0000
0000
0000
0000
0000
0000
0000
0000
0000
0000
0000
0000
0000
0000
0000
0000
0000
0000
0000
0000
0000
0000
0010
0000
0000
0000
0000
0000
0000
0000
0000
0000
0000
0000
0000
0000
0000
0000
0000
0000
0000
0000
0000
0000
0000
0000
0100
0000
0000
0000
0000
0000
0000
0000
0000
0000
0000
0000
0000
0000
0000
0000
0000
0000
0000
0000
0000
0000
0000
0000
,
1000
0010
0100
0000
1000
0100
0010
0100
,
1100
0000
1001
0000
0101
0100
0101
0000
,
1100
0100
0001
1000
0010
0001
0011
0000
,
1100
0000
0011
0000
1100
0010
0101
1000
,
1100
0001
0011
0000
1010
0110
0101
1010
,
1001
0000
1000
0100
1100
0000
1000
0010
1010
0000
0100
0001
0101
0000
1000
0001
,
1001
0000
1000
0010
0202
0000
1000
0000
,
0010
0303
0000
0000
0000
0000
0000
0000
;
