#TITLE:Vertex BETA;
#SUBTITLE:;
#ARTIST:Silvia;
#TITLETRANSLIT:;
#SUBTITLETRANSLIT:;
#ARTISTTRANSLIT:;
#CREDIT:;
#BANNER:vertex beta-bn.png;
#BACKGROUND:vertex beta-bg.png;
#LYRICSPATH:;
#CDTITLE:;
#MUSIC:Vertex BETA.ogg;
#OFFSET:-1.420;
#SAMPLESTART:31.411;
#SAMPLELENGTH:12.000;
#SELECTABLE:YES;
#BPMS:0.000=200.060;
#STOPS:;
#BGCHANGES:;
// cache tags:
#FIRSTBEAT:0.000;
#LASTBEAT:596.000;
#SONGFILENAME:Songs/lvsb tourney pack/Silvia - Vertex BETA/vertex beta.sm;
#HASMUSIC:1;
#HASBANNER:0;
#MUSICLENGTH:105.000;
// end cache tags

//---------------dance-single - ----------------
#NOTES:
     dance-single:
     :
     Challenge:
     11:
     1.000,1.000,0.543,0.438,0.333,783.000,57.000,46.000,0.000,0.000:


0011
0000
0000
0000
,
0101
0000
1100
0000
,
1010
0000
0000
0000
,
1001
0000
1100
0000
,
0101
0000
0000
0000
,
0011
0000
1001
0000
,
1100
0000
0000
0000
0000
0000
0001
1000
,
0011
0000
0000
0000
,
1010
0000
0000
0000
,
0011
0000
0101
0000
,
1001
0000
0000
0000
,
0011
0000
0110
0000
,
1010
0000
0000
0000
,
0110
0000
1001
0000
,
0101
0000
0000
0000
,
2100
0000
0000
0000
0000
0000
0000
0000
0000
0000
3000
0000
0001
0010
0100
1000
,
0001
0100
0010
0100
0000
1000
0100
0001
,
1000
0010
1000
0001
1000
0010
0100
0010
,
1000
0010
1000
0001
0000
0010
1000
0010
,
0001
1000
0010
0100
0001
0100
0001
1000
,
0001
0100
0001
0100
0000
0010
0100
0001
,
0100
0001
1000
0010
0100
0010
1000
0001
,
1000
0010
0000
0101
0000
0010
1000
0001
,
0010
1000
0001
0100
0010
1000
0001
0100
,
0001
1000
0001
0100
0000
0100
0001
1000
,
0010
1000
0001
1000
0010
1000
0010
1000
,
0001
0100
0001
1000
0000
0100
0001
1000
,
0010
0100
0001
0010
1000
0010
0100
0001
,
0100
0010
0100
0001
0000
0001
0100
0001
,
1000
0010
0100
0010
1000
0001
0100
0010
,
1000
0001
0000
1001
0000
0010
1000
0001
,
1000
0001
1000
0001
0100
0010
0100
0010
1000
0001
0010
0100
1000
0001
0100
0010
,
1000
0001
0100
0001
0000
1000
0001
0010
,
1000
0010
0100
0001
0010
1000
0001
0100
,
0010
1000
0001
0010
0000
0100
0010
0100
,
1000
0010
0001
1000
0100
0010
0100
0010
,
0001
0010
0010
1000
0000
0001
0100
0010
,
1000
0100
0001
0010
0100
1000
0001
0100
,
0001
1000
0000
1001
0000
1000
0001
0010
,
0100
0000
0010
0000
1000
0000
0100
0000
0001
0100
0010
1000
0010
0100
0001
1000
,
0010
0100
0001
1000
0000
0010
1000
0001
,
0100
0010
1000
0010
0100
0001
1000
0100
,
0001
0010
1000
0001
0000
0010
1000
0100
,
1000
0010
0001
1000
0100
0010
1000
0001
,
1000
0010
0100
0010
0000
0100
1000
0001
,
1000
0010
0001
1000
0010
0100
0010
1000
,
0001
0100
0000
1001
0000
0010
0100
1000
,
0001
0100
0001
1000
0010
0100
0001
1000
0001
0100
0010
1000
0010
1000
0001
0100
,
0001
1000
0010
1000
0000
0001
1000
0010
,
0001
1000
0100
0010
1000
0001
0100
0010
,
1000
0001
0100
0010
0000
1000
0010
0100
,
0001
1000
0100
0010
1000
0001
0100
0010
,
1000
0001
0100
0100
0000
1000
0010
0001
,
0100
1000
0010
0100
0010
0001
0100
0010
,
1000
0001
0000
1001
0000
0100
0010
1000
,
0010
0000
1000
0000
0010
0100
0001
0100
0010
0000
1000
0001
0100
0000
1000
0000
,
0010
0001
1000
0010
0000
0100
0001
1000
,
0001
0100
1000
0100
0010
1000
0001
0100
,
0010
1000
0100
0001
0000
0010
0100
1000
,
0010
0100
0001
1000
0001
0100
1000
0100
,
0001
0010
1000
0001
0000
1000
0001
0100
,
0001
1000
0010
0001
0010
1000
0010
1000
,
0100
0001
0000
1001
0000
0100
0010
1000
,
0001
0100
0001
1000
0010
0100
0010
1000
0001
0100
0001
1000
0010
0100
0010
1000
,
0001
0010
0001
0100
,
0001
0000
0000
0001
0000
0000
1000
0000
,
0010
0000
0000
0001
0000
0000
1000
0000
,
0002
0000
0000
0000
,
0000
1003
0010
0100
0000
0001
0100
0001
,
1000
0010
1000
0001
0100
0010
1000
0010
,
1000
0010
1000
0010
0000
0100
1000
0001
,
0010
1000
0001
0010
0100
1000
0010
0100
,
0001
1000
0010
0100
,
0001
0000
0000
0100
0000
0000
1000
0000
,
0001
0000
0000
1000
0000
0000
0001
0000
,
2000
0000
0000
0000
0000
0000
3000
0100
,
0001
0100
0001
1000
0000
0100
0010
1000
,
0100
0001
0010
1000
0010
0001
0100
0001
,
0100
1000
0001
0100
0000
0100
0010
1000
,
0010
0100
0010
0001
1000
0001
0100
0001
,
1000
0010
0100
0010
1000
0001
1000
0010
0100
0001
1000
0010
0100
0001
0100
0010
,
1000
0010
1000
0001
,
0100
0000
0000
0010
0000
0000
0001
0000
,
0100
0000
0000
1000
0000
0000
0100
0000
,
2001
0000
0000
0000
0000
0000
0000
3000
,
0010
0000
0000
1000
0000
0000
0010
0000
,
0100
0000
0000
0001
0000
0000
0010
0000
,
0100
0000
0000
0100
0000
0000
0010
0000
,
2002
0000
0000
0000
0000
3003
0000
0000
0001
0100
0010
1000
0001
0100
0010
1000
,
0001
0000
1000
0000
0000
0001
0000
0000
0100
0000
0000
0000
1000
0000
0000
0000
,
0010
0000
0000
0100
0000
0000
0001
0000
,
1000
0000
0000
0100
0000
0000
1000
0000
,
0002
0000
0000
0000
0000
0000
0000
0003
,
1000
0000
0000
0001
0000
0000
1000
0000
,
0001
0000
0000
1000
0000
0000
0001
0000
,
0100
0000
0000
0001
0000
0000
0010
0000
,
0010
1000
0010
0100
0001
1000
0001
0100
0001
0100
0010
1000
0001
0100
0001
1000
,
0010
1000
0010
0100
,
0010
0000
0000
1000
0000
0000
0001
0000
,
1000
0000
0000
0010
0000
0000
0001
0000
,
2000
0000
0000
0000
0000
0000
0000
0000
0000
0000
0000
0000
0000
3000
0000
0000
,
0001
0000
0000
0100
0000
0000
1000
0000
,
0001
0000
0000
1000
0000
0000
0001
0000
,
1000
0000
0000
0001
0000
0000
0100
0000
,
2000
0000
0000
0000
0000
0000
3000
0000
0010
0100
0001
1000
0010
1000
0001
0100
,
0010
0000
0000
1001
0000
0000
1010
0000
,
2002
0000
0000
3003
,
0101
0000
0000
1001
0000
0000
0101
0000
,
2020
0000
0000
3030
,
1010
0000
0000
1010
0000
0000
0110
0000
,
1001
0000
0000
1010
0000
0000
0101
0000
,
0110
0000
0000
1010
0000
0000
0101
0000
,
1001
0000
0000
0000
0001
1000
0001
0100
0001
1000
0010
1000
0001
0010
0001
1000
,
0010
0000
0100
0001
0000
0000
0100
0001
,
1000
0010
0001
0010
1000
0001
0100
0010
,
1000
0001
1000
0010
0000
1000
0100
0001
,
1000
0100
0010
1000
0001
1000
0010
0100
,
1000
0001
0100
0010
0000
0100
0001
0100
,
0010
1000
0100
0001
1000
0010
0100
0001
,
1000
0100
0001
0100
0000
1000
0001
0100
,
0010
0000
1000
0000
0001
1000
0010
0100
0001
1000
0010
0000
0100
0000
0001
0000
,
1000
0010
0100
0001
0000
0100
0010
1000
,
0010
0001
0100
0010
0001
1000
0010
0100
,
0001
0100
0001
1000
0000
1000
0100
0001
,
0010
0100
1000
0100
0001
0100
0010
0001
,
1000
0010
0100
0001
0100
0000
1000
0010
,
1000
0001
1000
0100
0010
1000
0100
0001
,
1000
0010
1000
0001
0000
0100
0001
0100
,
0010
0000
1000
0000
0001
0000
0100
0000
0010
0100
0001
1000
0010
0100
0001
0000
,
2000
0000
0000
3000
,
0002
0003
2000
3000
,
0220
0000
0000
0330
,
0020
0030
0200
0300
,
0220
0000
0000
0330
,
2000
3000
0002
0003
,
2020
0000
0000
3030
,
0220
0000
0000
0330
,
0220
0000
0000
0330
,
2000
3000
0002
0003
,
2002
0000
0000
3003
,
0020
0030
2000
3000
,
0202
0000
0000
0303
,
0020
0030
0200
0300
,
2002
0000
0000
3003
,
0202
0000
0000
0303
,
2002
0000
0000
0000
,
0000
0000
0000
0000
,
0000
0000
0000
0000
,
0000
0000
0000
0000
,
3003
0000
0000
0000
;
