#TITLE:EXEC_METAFALICA;
#SUBTITLE:Ar Tonelico 2 (2007);
#ARTIST:Haruka Shimotsuki;
#TITLETRANSLIT:;
#SUBTITLETRANSLIT:;
#ARTISTTRANSLIT:;
#CREDIT:;
#BANNER:EXEC_METAFALICA.jpg;
#BACKGROUND:EXEC_METAFALICA-bg.jpg;
#LYRICSPATH:;
#CDTITLE:!yesssss-cdtitle.png;
#MUSIC:EXEC_METAFALICA.mp3;
#OFFSET:-0.040;
#SAMPLESTART:42.372;
#SAMPLELENGTH:12.000;
#SELECTABLE:YES;
#BPMS:0.000=204.001;
#STOPS:;
#BGCHANGES:;
// cache tags:
#FIRSTBEAT:0.000;
#LASTBEAT:288.000;
#SONGFILENAME:Songs/VGMP 3/EXEC_METAFALICA (Yesssss)/EXEC_METAFALICA.sm;
#HASMUSIC:1;
#HASBANNER:1;
#MUSICLENGTH:90.932;
// end cache tags

//---------------dance-single - Copied from----------------
#NOTES:
     dance-single:
     Copied from:
     Challenge:
     13:
     1.000,1.000,1.000,1.000,0.478,529.000,217.000,105.000,0.000,99.000:


1011
0110
1001
0110
1010
0100
0011
0100
,
2010
3000
0210
0300
0021
0030
1002
0003
0110
0000
2100
3000
0012
0003
0001
0010
,
1200
0300
0011
0000
1100
0000
0010
0000
1001
0000
0001
1000
0110
0000
1010
0000
,
1101
0000
1010
0000
0110
0000
1001
0000
0010
0000
1001
0100
0011
0000
0100
0000
,
2001
3000
0200
0300
1020
0030
0002
0003
1010
0000
0210
0300
1002
0003
0100
1000
,
0021
0030
1100
0000
1001
0000
0010
0000
1001
0100
0010
0001
1010
0001
1100
0010
,
1201
0001
0321
1000
0032
1000
0213
0000
,
0001
0320
2031
0000
3012
1000
0100
1023
,
0230
0010
1302
0000
1023
0000
0231
0010
,
2311
0100
3021
1000
0230
1000
0312
0000
,
1000
0023
2031
0000
3102
0010
1203
0001
,
0320
0000
2130
0000
3021
0000
0000
0000
1031
0100
0010
0100
0011
1000
0101
0010
,
2101
0100
3021
1000
0032
1000
0213
0000
,
0001
0320
2031
0000
3102
0010
0100
1023
,
0230
1000
0312
0000
1023
0000
1230
0312
,
2113
0010
3102
1000
0203
1000
0321
0000
,
0100
0032
1023
0000
0231
1000
0312
0100
,
2003
0000
0100
0000
3021
0000
0000
0000
1031
0010
0100
0001
1010
0100
0001
0100
,
2011
0100
0001
0020
,
0000
0130
0001
0000
0020
0000
0030
0001
,
0100
0001
0010
0100
,
3012
1000
0100
0020
,
0000
1030
0100
0000
2010
0000
3100
0000
,
0010
0000
0100
0000
1023
0000
0000
0000
1130
0010
0100
0001
1010
0100
1001
0010
,
1201
1000
0001
0020
,
0030
1000
0010
0000
0002
0000
0003
0010
,
1000
0000
0000
0000
0001
0000
0000
0000
0010
0000
0000
0000
1001
0000
0010
1000
,
0321
1000
0001
0202
,
0303
1000
0002
0000
2103
0000
0100
0000
,
3001
0000
0000
0000
1031
0000
0000
0000
0001
1000
0011
0100
1001
0100
0010
0001
,
2220
0000
0000
0000
,
0000
0000
0000
0000
,
0000
0000
0000
3300
0000
0000
0000
0000
,
2232
0000
0000
0000
,
0000
0000
0000
0300
0020
0000
0000
0000
,
3033
0000
0000
0000
1110
0001
0100
0001
1110
0001
0100
0010
1101
0010
1000
0100
,
1011
0000
0010
0000
0100
0000
0010
0000
1000
0000
0010
0000
0101
1000
0010
0000
,
1100
0010
0001
0000
1010
0000
0001
0000
0110
0000
1000
0100
0001
0000
1000
0100
,
0001
1000
0010
0000
0101
0000
1000
0000
0101
0010
1001
0000
0110
0000
0101
0000
,
1011
0000
0100
0010
1000
0000
1000
0010
0100
0001
0100
0000
1010
0000
0001
0000
,
1100
0010
0001
0000
1100
0000
0001
0000
1010
0000
0100
1000
0001
0000
1000
0000
,
0101
0010
0001
0000
1010
0000
0100
0000
0010
0100
0001
0000
1010
0000
0100
0000
,
1012
0000
0010
1000
0100
0000
0100
0000
0013
1000
0001
0000
0110
0000
0001
0000
,
1100
0010
0001
0000
0110
0000
0001
0000
1010
0000
0100
0001
1000
0000
0100
0000
,
1001
0010
0100
0000
0011
0000
1000
0000
0100
0001
0010
0000
1100
0000
0001
0000
,
0210
0000
1000
0010
1302
0000
0010
0000
1203
0010
0001
0000
1321
0000
0100
0000
,
0132
1000
0010
0000
2103
0010
0001
0000
3021
0000
1000
0100
2031
0000
0010
0000
,
3201
0010
0001
0000
1312
0000
0100
0000
0113
0000
1010
0000
1100
0000
0110
0000
,
1101
0010
0100
1011
0000
0000
1000
0000
,
1011
0000
1100
0000
0110
0000
0001
0000
1100
0001
0100
0000
0010
0000
1001
0000
,
0110
0000
1000
0100
1001
1010
0110
0101
,
1011
0010
0100
1101
0000
0000
0110
0001
,
1010
0000
0100
0000
1001
0010
0100
0000
0011
0000
1000
0000
0100
0000
0011
0000
,
1100
0000
0000
0000
1010
0000
0000
0000
0101
1000
0011
0000
0101
0000
1000
0000
,
0112
1000
0010
1110
0003
0000
1010
0001
,
1100
0010
0001
0000
1010
0000
0100
0000
1001
0000
0000
0000
0100
0000
1001
0000
,
1010
0100
0001
0000
1010
0000
0100
0000
0010
0100
0001
0000
1010
0000
0100
0000
,
1011
0100
0010
1101
0000
0000
1100
0000
,
0011
1000
0010
0000
0101
0000
0010
0000
2001
0000
0000
0000
0000
0000
0101
0000
,
0000
0000
0000
0000
3021
0000
0100
0000
1000
0000
0100
0000
0001
0000
0100
0030
,
1111
0000
0110
0000
1010
0000
1100
0010
0101
0010
0100
0000
0001
0000
0000
0000
,
1010
0100
1001
0000
2011
0000
0100
0001
3010
0000
2011
0000
0100
0001
3100
0000
,
0010
0000
0100
0000
1010
0000
0110
0000
1011
0000
0100
0010
1000
0000
1011
0100
,
0010
1000
0001
0000
0011
0000
0110
0000
1001
0100
0011
0000
2110
0001
0010
0100
,
3021
0100
1000
0000
0231
1000
0001
0000
1320
0001
0100
0000
1031
0000
0110
0000
,
1011
0000
0101
0000
1010
0000
1100
0000
0011
0100
1000
0010
0100
0000
0000
0000
,
0101
0010
1100
0000
1012
0000
0100
0010
0103
0000
1012
0000
0100
1000
0013
0000
,
0100
0001
1000
0000
1010
0000
0110
0000
1101
0000
1000
0010
0100
0000
1101
0010
,
0100
0001
1000
0000
1010
0000
0100
0000
1001
0100
1010
0000
0201
0000
1000
0000
,
0000
0001
0000
0010
0000
1000
0010
1000
,
0000
0000
0000
0000
,
0000
0000
0000
0000
,
0300
0000
0000
0000
;

//---------------dance-single - Copied from Copied f----------------
#NOTES:
     dance-single:
     Copied from Copied f:
     Hard:
     11:
     1.000,1.000,1.000,0.968,0.253,440.000,156.000,88.000,0.000,49.000:

1001
0100
0001
0100
1000
0000
0001
0000
,
1001
0100
1010
0001
0100
1010
0101
0010
,
1001
0100
1010
0000
0001
0000
0100
1000
,
0011
0100
1000
0001
0000
1000
0001
0000
,
1001
0100
1010
0001
1000
0110
1001
0100
,
0011
0000
1100
0000
0001
0000
0000
0000
0010
0100
0001
1000
0010
0100
0001
1000
,
0201
1000
0321
1000
0032
1000
0213
0000
,
0001
0320
2031
0000
3012
1000
0100
1023
,
0230
0010
1302
0000
1023
0000
0231
0010
,
2301
0100
3021
1000
0230
1000
0312
0000
,
1000
0023
2031
0000
3102
0010
1203
0001
,
0320
0000
2130
0000
3021
0000
0000
0000
0031
1000
0010
0100
0001
1000
0010
0100
,
2001
0100
3021
1000
0032
1000
0213
0000
,
0001
0320
2031
0000
3102
0010
0100
1023
,
0230
1000
0312
0000
1023
0000
1230
0312
,
2103
0010
3102
1000
0203
1000
0321
0000
,
0100
0032
1023
0000
0231
1000
0312
0100
,
2003
0000
0100
0000
3021
0000
0000
0000
1030
0010
0100
0001
1000
0010
0100
0001
,
2010
0100
0001
0020
,
0000
0130
0001
0000
0020
0000
0030
0001
,
0100
0001
0010
0100
,
3012
1000
0100
0020
,
0000
1030
0100
0000
2000
0000
3100
0000
,
0010
0000
0100
0000
0023
0000
0000
0000
0130
0010
1000
0001
0100
0010
1000
0001
,
0210
1000
0001
0020
,
0030
1000
0010
0000
0002
0000
0003
0010
,
1000
0001
0010
1000
,
0321
1000
0001
0200
,
0300
1000
0002
0000
2003
0000
3100
0000
,
0001
0000
0000
0000
1030
0000
0000
0000
1000
0010
0100
0001
1000
0010
0100
0001
,
2020
0000
0000
0000
,
0000
0000
0000
0000
,
0000
0000
0000
3030
0000
0000
0000
0000
,
2002
0000
0000
0000
,
0000
0000
0000
3000
0020
0000
0000
0000
,
0033
1100
1100
1010
,
1001
0000
0010
0000
0100
0000
0010
0000
1000
0000
0010
0000
0101
1000
0010
0000
,
1100
0010
0001
0000
1010
0000
0001
0000
0110
0000
1000
0100
0001
0000
1000
0100
,
0001
1000
0010
0000
0101
0000
1000
0000
0101
0010
1001
0000
0110
0000
0101
0000
,
1001
0000
0100
0010
1000
0000
1000
0010
0100
0001
0100
0000
1010
0000
0001
0000
,
1100
0010
0001
0000
1100
0000
0001
0000
1010
0000
0100
1000
0001
0000
1000
0000
,
0101
0010
0001
0000
1010
0000
0100
0000
0010
0100
0001
0000
1010
0000
0100
0000
,
1001
0000
0010
1000
0001
0000
0100
0000
0010
1000
0001
0000
0110
0000
0001
0000
,
1100
0010
0001
0000
0110
0000
0001
0000
1010
0000
0100
0001
1000
0000
0100
0000
,
1001
0010
0100
0000
0011
0000
1000
0000
0100
0001
0010
0000
1100
0000
0001
0000
,
0210
0302
0203
1320
,
0132
2103
3021
2030
,
3200
0000
1302
0000
0113
1010
1100
0110
,
1001
0010
0100
1001
0000
0000
1000
0000
,
0101
0000
1000
0000
0110
0000
0001
0000
1100
0001
0100
0000
0010
0000
1001
0000
,
0100
0000
1000
0100
1001
1010
0110
0101
,
1001
0010
0100
1001
0000
0000
0110
0001
,
1010
0000
0100
0000
1001
0010
0100
0000
0011
0000
1000
0000
0100
0000
0011
0000
,
0100
0000
0000
0000
1010
0000
0000
0000
0001
1000
0010
0000
0101
0000
1000
0000
,
0011
1000
0010
0101
0000
0000
1010
0001
,
1100
0010
0001
0000
1010
0000
0100
0000
1001
0000
0000
0000
0100
0000
1001
0000
,
1010
0100
0001
0000
1010
0000
0100
0000
0010
0100
0001
0000
1010
0000
0100
0000
,
1001
0100
0010
1100
0000
0000
1100
0000
,
0011
1000
0010
0000
0101
0000
0010
0000
2001
0000
0000
0000
0000
0000
0100
0000
,
0000
0000
3021
0100
1000
0100
0001
0100
,
2032
3003
0100
0000
0010
0000
1000
0000
0001
0000
0000
0000
0000
0000
0000
0000
,
1010
0110
2001
0000
3000
2010
0000
3000
,
0000
0000
1010
0110
1001
0000
0000
1001
,
0000
0000
0011
0100
1001
0010
2100
0001
,
3120
0000
0230
0000
0320
0000
1031
0110
,
1010
0001
1000
0100
0001
0000
0000
0000
,
0101
1100
0012
0000
0003
1002
0000
0003
,
0000
0000
1010
0110
0101
0000
0000
0101
,
0000
0000
1010
0100
1001
0010
0201
1000
,
0000
0001
0000
0010
0000
1000
0010
1000
,
0000
0000
0000
0000
,
0000
0000
0000
0000
,
0300
0000
0000
0000
;
