#TITLE:Titan;
#SUBTITLE:(The Superjail Mix);
#ARTIST:Nosrac;
#TITLETRANSLIT:;
#SUBTITLETRANSLIT:;
#ARTISTTRANSLIT:;
#CREDIT:;
#BANNER:Titan bn.jpg;
#BACKGROUND:Titan Bg.jpg;
#LYRICSPATH:;
#CDTITLE:!~Zero~title.png;
#MUSIC:Titan (The Superjail Mix).mp3;
#OFFSET:0.277;
#SAMPLESTART:55.720;
#SAMPLELENGTH:11.840;
#SELECTABLE:YES;
#BPMS:0.000=180.000,322.000=90.000,395.000=180.000;
#STOPS:322.000=0.325
;
#BGCHANGES:;
// cache tags:
#FIRSTBEAT:20.000;
#LASTBEAT:530.000;
#SONGFILENAME:Songs/KBU/Titan -The Superjail Mix- (~Zero~)/Titan (The Superjail Mix).sm;
#HASMUSIC:1;
#HASBANNER:1;
#MUSICLENGTH:202.370;
// end cache tags

//---------------dance-single - ----------------
#NOTES:
     dance-single:
     :
     Challenge:
     11:
     0.743,1.000,1.000,0.010,0.341,742.000,309.000,2.000,174.000,0.000:
0000
0000
0000
0000
,
0000
0000
0000
0000
,
0000
0000
0000
0000
,
0000
0000
0000
0000
,
0000
0000
0000
0000
,
2002
0000
0000
0000
,
0000
0000
0000
0000
,
3003
0000
0000
0000
,
0000
0000
0000
0000
,
0101
1010
1001
0110
0101
1010
0101
1010
,
1001
0000
0100
0000
0011
0000
0000
0000
1100
0010
0001
0000
0000
0000
0000
0000
,
1001
0000
0100
1010
0000
0000
0000
0000
,
0011
0000
0000
0000
1000
0000
0000
0000
0101
0010
1000
0000
0000
0000
0000
0000
,
1001
0000
0000
0000
0101
0000
0010
0000
0000
0000
0100
0000
0010
1000
0100
0000
,
0011
0000
0000
0000
0100
0000
0000
0000
1001
0010
0100
0000
0000
0000
0000
0000
,
1001
0000
0010
1100
0000
0000
0011
0011
,
0011
0000
0000
0000
1000
0000
0000
0000
0011
0100
1000
0000
0010
0000
0000
0000
,
0100
0001
0010
0000
1001
0000
0100
0000
1010
0000
0001
0000
1001
0000
0100
0010
,
1100
0000
0000
0000
0001
0000
0000
0000
1100
0010
0001
0000
0010
0000
1000
0000
,
1001
0000
0100
1001
0000
0000
0000
0000
,
0011
0000
0000
0000
0100
0000
0000
0000
0110
1000
0001
0000
0000
0000
0000
0000
,
1001
0000
0000
0000
0110
0000
0001
0000
0000
0000
1000
0000
0010
0001
0100
0000
,
1001
0000
0000
0000
0010
0000
0000
0000
0101
1000
0010
0000
0000
0000
0000
0000
,
0011
0000
0000
0000
0100
0000
1001
0000
0010
0100
0001
0000
0000
0000
0011
0000
,
1000
0010
0100
0000
0001
0000
0000
0000
1010
0100
0001
0000
0000
0000
0000
0000
,
0100
0010
0001
0000
1100
0000
0001
0000
0110
0000
1000
0000
0011
0000
0100
0001
,
1100
0000
0000
0000
0011
0000
0000
0000
0110
0001
0100
0000
1000
0000
0010
0000
,
0101
0000
0000
0000
1000
0000
0110
0000
0001
0010
0001
0000
1001
0000
0000
0000
,
1010
0000
0000
0000
0100
0000
0000
0000
1001
0010
0100
0000
0000
0000
0000
0000
,
0110
1001
1010
0100
0011
0100
1001
0010
,
0110
0000
0000
0000
1000
0000
0000
0000
1100
0010
0001
0000
0000
0000
0000
0000
,
1001
0000
0000
0000
0010
0000
0001
0000
1000
0000
0010
0100
0001
0000
1001
0000
,
0101
0000
0000
0000
0010
0000
0000
0000
1010
0001
0100
0000
0000
0000
0000
0000
,
0100
0010
1000
0000
0011
0000
0100
0000
0000
0000
0100
0000
0000
0000
0000
0000
,
1001
0000
0000
0000
0010
0000
0000
0000
1100
0010
0001
0000
0010
0100
0001
0000
,
1001
0000
0000
0000
0100
0000
1010
0000
0001
0100
0010
1000
0100
0010
0001
1000
,
0011
0000
0000
0000
0100
0000
0000
0000
1001
0010
0001
0000
0000
0000
0000
0000
,
1001
0100
0010
0000
1100
0001
0010
0000
0110
0001
1000
0000
0011
0000
0000
0000
,
1001
0000
0000
0000
0100
0000
0000
0000
0011
1000
0010
0000
0000
0000
0000
0000
,
0011
0000
0100
0011
0000
0000
1001
1001
,
1001
0100
0010
0000
,
0011
0000
1010
0110
0101
1001
1010
0000
,
0110
0000
0000
0000
0100
0000
0000
0000
1001
0010
0100
0000
0010
0000
0100
0000
,
1001
0000
0000
0000
0010
0000
0100
0000
0001
1000
0101
0000
0011
0000
0000
0000
,
1001
0100
0010
0000
1100
0001
0100
0000
0011
0100
1000
0000
0010
0000
0001
0000
,
1001
1010
0101
1000
0010
0101
1000
0000
,
1001
0000
0000
0000
0100
0000
0001
0000
1000
0100
0010
0000
0100
0000
1000
0000
,
0011
0000
0000
0000
0000
0000
1000
0000
0010
0100
0001
0000
1100
0000
0110
0000
,
0011
0100
1000
0000
0010
1000
0001
0000
0010
0001
0100
0000
0010
0000
1000
0000
,
1100
0010
0001
0000
0110
0000
1000
0010
0100
0000
0001
0000
1001
0000
0100
0010
,
1001
0000
0101
0000
0010
0000
1001
0000
1100
0010
0001
0000
0010
0000
0100
0000
,
1010
0000
0100
0001
0010
0000
1100
0000
1100
0000
0001
0010
0100
0000
1000
0001
,
0100
0011
1000
0100
0000
0100
1000
0001
,
0101
0010
1000
0110
0001
1100
0010
0001
,
0110
0000
1000
0000
0010
0000
1100
0000
0001
0100
0010
0000
1000
0000
0100
0000
,
0011
0000
0000
0000
0100
0000
0010
0000
0010
0000
1000
0001
0110
0000
1100
0000
,
1001
0010
0100
0000
0010
0001
1000
0000
0100
0010
0001
0000
1001
0000
1010
0000
,
0110
0001
1000
0000
0011
0000
0100
0000
1001
0000
0010
0000
1100
0000
0000
0000
,
1100
0010
0001
0000
0100
0000
1001
0000
0011
0100
0010
0000
1000
0000
0100
0000
,
0011
0000
0110
0000
1000
0010
0101
0000
0000
0000
0000
0000
0000
0000
0000
0000
,
0110
0001
1000
0000
0011
0100
1000
0000
0101
0010
1000
0000
0001
0000
0100
0000
,
0010
0000
1000
0000
0100
0000
0000
0000
0011
0000
0000
0000
0100
0000
0000
0000
0000
0000
0000
0000
1001
0000
0000
0000
0000
0000
0000
0000
0010
0100
0001
1000
,
0110
0000
0101
0000
0010
0000
1100
0000
0001
0100
0010
0000
1000
0000
0100
0000
,
0011
0000
0000
0000
0100
0000
1010
0000
0001
0000
0100
0010
1000
0000
0011
0000
,
1100
0001
0010
0000
0100
0000
1001
0000
0010
0100
0010
0000
1000
0000
0011
0000
,
1100
0010
0001
0000
0110
1000
0001
0000
1001
0000
0100
0000
1010
0000
0101
0010
,
1100
0000
0010
0000
0001
0000
1010
0000
0101
0010
1000
0000
0010
0000
0100
0000
,
0011
0000
1001
0000
0100
0000
1010
0000
0101
0000
1010
0100
0001
0000
1000
0001
,
0110
0000
1001
0000
0010
0000
0101
0000
0011
0100
1000
0000
0001
0000
0100
0000
,
0110
1001
0010
0101
1000
1001
0010
0100
,
0011
0000
1001
0000
0010
0000
0110
0000
1001
0100
1000
0000
0010
0000
0100
0000
,
0011
0000
0000
0000
0100
0000
1001
0000
0010
0100
0001
1000
0110
0000
0000
0000
,
1010
0100
0001
0000
0110
1000
0001
0000
1100
0001
0010
0000
1000
0100
0010
0001
,
1100
0010
0001
0000
1100
0010
0001
0000
1100
0010
0001
0000
0011
0000
0000
0000
,
1010
0001
0100
0000
1010
0001
0100
0000
1010
0001
0100
0000
1001
0000
0000
0000
,
0110
1000
0001
0000
0110
1000
0001
0000
0110
1000
0001
0000
1010
0000
0000
0000
,
0011
0100
1000
0000
0011
0100
1000
0000
0011
0000
0000
0000
0100
0010
1000
0100
,
0011
1000
0100
0000
0011
0100
1000
0000
0110
0001
1000
0000
0011
0000
0000
0000
,
1100
0010
0001
0000
0110
1000
0001
0000
0101
0010
1000
0000
0110
0000
0000
0000
,
1100
0010
0001
0000
0110
1000
0001
0000
0011
0100
1000
0000
1001
0000
0000
0000
,
0101
0010
1000
0000
0110
1000
0001
0000
0011
0000
0000
0000
0000
0000
0000
0000
,
MMMM
0MM0
0MM0
0MM0
0MM0
0000
0000
MMMM
,
0MM0
0MM0
0MM0
0MM0
MMMM
0000
0000
MMMM
,
0MM0
0MM0
0MM0
0MM0
0000
0000
0000
0MM0
,
M00M
0000
M00M
0MM0
M00M
0000
M00M
0000
0000
0000
0000
0000
M00M
0000
M00M
0M00
,
M00M
00M0
M00M
0000
M00M
0000
0000
0000
0000
0000
0000
0000
0000
0000
0000
0000
,
00MM
000M
M00M
000M
M00M
000M
00MM
0000
,
0000
0000
0000
0000
,
0000
0000
0000
0000
0110
0000
1001
0000
0110
1010
0110
0000
0000
0000
0000
0000
,
0000
0000
M00M
0000
M000
00M0
M000
0000
MM00
0000
M000
00M0
M000
0000
M00M
0000
,
0000
0000
MM00
00M0
M000
00M0
M000
0M00
M0M0
0000
M0M0
0000
M0M0
0000
MM00
0000
,
0000
M00M
M00M
M00M
M00M
M00M
M00M
0MM0
,
0000
0000
00MM
000M
M00M
000M
M00M
000M
,
00MM
0000
0000
0000
,
0000
0000
0000
0000
1100
0000
0011
0000
1100
0110
0011
0000
0000
0000
0000
0000
,
MMMM
0000
0000
000M
0000
00M0
0000
0M00
0000
M000
0000
0000
MMMM
0000
0000
0000
,
MMM0
M000
MM00
M000
MMM0
0000
MMM0
M0M0
,
M0M0
0M00
M000
0000
M0M0
0000
M000
000M
0000
0000
0000
0000
0MM0
0000
M00M
0000
,
M00M
M00M
M00M
0MM0
0000
0000
0110
0000
,
1001
0000
0000
0000
1100
0010
1001
0000
0110
0000
0000
0000
0011
0000
0000
0000
,
1001
0000
0000
0000
0110
0001
1100
0000
0110
0000
0000
0000
0011
0000
0000
0000
,
1000
0000
0110
0001
1001
0000
0000
0000
,
1100
0000
0010
0101
0000
0000
1001
0000
,
1010
0000
0000
0000
0010
0000
0000
0100
0000
0000
1000
0000
0000
0000
0110
0000
,
1001
0000
0001
1100
0000
0000
0101
0000
,
0010
0000
1001
0010
1100
0000
0000
0000
,
0100
0000
0000
1001
0000
0000
0010
0000
,
0100
0000
1001
0000
0000
0000
0010
0000
0100
0010
0100
0000
0011
0000
0000
0000
,
1000
0110
0001
1010
0000
0000
1001
0000
,
0100
0000
1010
0100
0011
0000
0011
0000
,
0011
0000
0001
1100
0000
0000
0110
0000
,
0110
0000
0000
0000
0100
0000
0000
0010
0000
0000
1000
0000
0000
0000
0001
0000
,
0110
0000
1000
0110
0000
0000
1001
0000
,
0100
0000
0011
0100
0011
0000
0000
0010
,
1001
0000
0100
0011
0000
0000
1001
0000
,
0101
0000
0000
0000
0010
0000
0000
0100
0000
0000
0001
0000
0000
0000
1000
0000
,
0110
0000
0001
1100
0000
0000
1001
0000
,
0100
0000
0011
0100
1001
0000
0000
0010
,
0101
0000
0001
1010
0000
0000
0110
0000
,
1001
0000
0000
0000
0100
0000
0000
0001
0000
0000
1000
0000
0000
0000
0010
0000
,
0101
0000
0010
0110
0000
0000
1001
0000
,
0100
0000
1010
0100
0011
0000
0000
0100
,
0011
0000
1000
0110
0000
0000
1001
0000
,
0100
0000
0011
0000
0000
0000
0100
0000
0010
1000
0100
0000
0011
0000
0000
0000
,
0010
1100
0001
1001
0000
0000
0110
0000
,
0010
0000
1001
0100
1001
0000
0110
0000
,
0110
0000
0010
1001
0000
0000
0011
0000
,
0110
0000
0000
0000
1000
0000
0000
0010
0000
0000
0100
0000
0000
0000
0001
0000
,
1001
0000
0100
1010
0000
0000
0110
0000
,
0001
0000
1001
0100
0110
0000
0000
0000
,
0001
0000
0000
1001
0000
0000
0110
0000
,
0001
0000
1010
0000
0100
0000
0000
0000
0010
0000
0000
0000
0110
0001
1000
0000
,
0011
0100
1000
0000
0110
0001
1000
0000
0011
0000
0000
0000
0000
0000
0000
0000
;
