#TITLE:Spiral Mountain;
#SUBTITLE:Banjo Kazooie;
#ARTIST:Nintendo/Rare;
#TITLETRANSLIT:;
#SUBTITLETRANSLIT:;
#ARTISTTRANSLIT:;
#CREDIT:Marioman64;
#BANNER:spiralBanner.png;
#BACKGROUND:spiralBg.png;
#LYRICSPATH:;
#CDTITLE:Bano Kazooie;
#MUSIC:Spiral Mountain.mp3;
#OFFSET:-0.249;
#SAMPLESTART:2.430;
#SAMPLELENGTH:12.000;
#SELECTABLE:YES;
#BPMS:0.000=110.066,3.000=110.041,4.000=110.066,6.000=110.041,7.000=110.066,9.000=110.041,10.000=110.066,13.000=110.041,14.000=110.066,16.000=110.041,17.000=110.066,19.000=110.041,20.000=110.066,22.000=110.041,23.000=110.066,25.000=110.041,26.000=110.066,29.000=110.041,30.000=110.054,31.000=110.066,32.000=110.041,33.000=110.054,34.000=110.066,35.000=110.041,36.000=110.054,37.000=110.066,38.000=110.041,39.000=110.054,40.000=110.066,41.000=110.041,42.000=110.054,43.000=110.066,44.000=110.054,45.000=110.041,46.000=110.054,47.000=110.066,48.000=110.041,49.000=110.054,50.000=110.066,51.000=110.041,52.000=110.054,53.000=110.066,54.000=110.041,55.000=110.054,56.000=110.066,57.000=110.041,58.000=110.054,61.000=110.041,62.000=110.054,64.000=110.041,65.000=110.054,67.000=110.041,68.000=110.054,70.000=110.041,71.000=110.054,73.000=110.041,74.000=110.054,77.000=110.041,78.000=110.054,80.000=110.041,81.000=110.054,83.000=110.041,84.000=110.054,86.000=110.041,87.000=110.054,89.000=110.041,90.000=110.054,93.000=110.041,94.000=110.054,96.000=110.041,97.000=110.054,99.000=110.041,100.000=110.054,102.000=110.041,103.000=110.054,105.000=110.041,106.000=110.054,109.000=110.041,110.000=110.054,112.000=110.041,113.000=110.054,115.000=110.041,116.000=110.054,118.000=110.041,119.000=110.054,122.000=110.041,123.000=110.054,126.000=110.041,127.000=110.054,130.000=110.041,131.000=110.054,134.000=110.041,135.000=110.054,138.000=110.041,139.000=110.054,142.000=110.041,143.000=110.054,146.000=110.041,147.000=110.054,150.000=110.041,151.000=110.054,154.000=110.041,155.000=110.054,158.000=110.041,159.000=110.054,162.000=110.041,163.000=110.054,166.000=110.041,167.000=110.054,170.000=110.041,171.000=110.054,174.000=110.041,175.000=110.054,178.000=110.041,179.000=110.054,182.000=110.041,183.000=110.054,186.000=110.041,187.000=110.054,190.000=110.041,191.000=110.054,194.000=110.041,195.000=110.054,198.000=110.041,199.000=110.054,202.000=110.041,203.000=110.054,206.000=110.041,207.000=110.054,210.000=110.041,211.000=110.054,214.000=110.041,215.000=110.054,218.000=110.041,219.000=110.054,222.000=110.041,223.000=110.054,226.000=110.041,227.000=110.054,230.000=110.041,231.000=110.054,234.000=110.041,235.000=110.054,238.000=110.041,239.000=110.054;
#STOPS:;
#BGCHANGES:;
// cache tags:
#FIRSTBEAT:0.000;
#LASTBEAT:232.000;
#SONGFILENAME:Songs/toune 6/Spiral Mountain/Spiral Mountain.sm;
#HASMUSIC:1;
#HASBANNER:1;
#MUSICLENGTH:131.228;
// end cache tags

//---------------dance-single - ----------------
#NOTES:
     dance-single:
     :
     Beginner:
     2:
     0.139,0.177,0.091,0.114,0.000,101.000,12.000,15.000,0.000,0.000:
1000
0000
0001
0000
,
0010
0000
0001
0000
,
0010
0000
1000
0000
,
0100
0000
1000
0000
,
0100
0000
0001
0000
,
0010
0000
0100
0000
,
1001
0000
0010
0000
,
1001
0000
0100
0000
,
0001
0000
1000
0000
,
1000
0000
0100
0000
,
0001
0000
0010
0000
,
0100
0000
0010
0000
,
0001
0000
1000
0000
,
0010
0000
0001
0000
,
1000
0000
0100
0000
,
1001
0000
0110
0000
,
1001
0000
0000
0000
,
0020
0000
0030
0000
,
0200
0000
0300
0000
,
2000
0000
3000
0000
,
0002
0000
0003
0000
,
1000
0000
0001
0000
,
0110
0000
1001
0000
,
0100
0000
1000
0000
,
0100
0000
0001
0000
,
2000
0000
3000
0000
,
0002
0000
0003
0000
,
0020
0000
0030
0000
,
0200
0000
0300
0000
,
2002
0000
3003
0000
,
0010
0000
0100
0000
,
1000
0000
0001
0000
,
1000
0000
0001
0000
,
0000
0000
0020
0000
,
0030
0000
0200
0000
,
0300
0000
0002
0000
,
0003
1000
0000
0001
,
0000
0000
0200
0000
,
0300
0000
0020
0000
,
0030
0000
0100
0000
,
0010
0000
1001
0000
,
0100
0000
1000
0000
,
0100
0000
0001
0000
,
0010
0000
1000
0000
,
0010
0000
0001
0000
,
1000
0000
0001
0000
,
1000
0000
0010
0000
,
0001
0000
1000
0000
,
0001
0000
0100
0000
,
0001
0000
0010
0000
,
1000
0000
0100
0000
,
0010
0000
0100
0000
,
1000
0000
0001
0000
,
0100
0000
0010
0000
,
0001
0000
1000
0000
,
1000
0000
0001
0000
,
0001
0000
1000
0000
,
1001
0000
0110
0000
,
1001
0000
0000
0000
,
0000
0000
0000
0000
,
0000
0000
0000
0000
;

//---------------dance-single - ----------------
#NOTES:
     dance-single:
     :
     Easy:
     3:
     0.278,0.309,0.160,0.244,0.000,202.000,21.000,32.000,0.000,0.000:
1000
0001
1000
0001
,
0100
0100
0001
1000
,
0100
0010
0100
0001
,
1000
1000
0001
0100
,
0010
0000
0000
0000
,
0010
0010
0001
1000
,
0110
0001
1001
0000
,
0100
1000
0001
0100
,
0001
0001
1000
1000
,
0100
0010
0010
0100
,
0010
0010
0001
1000
,
0010
0010
1000
0100
,
0010
0100
1001
0110
,
1000
1000
0010
0001
,
0100
0100
0001
0010
,
1000
0000
0001
0000
,
0110
0000
1001
0000
,
0020
1030
0200
0301
,
0020
0031
0200
1300
,
2000
3100
0002
0013
,
2002
0000
3003
0000
,
0200
0310
0020
0130
,
2001
3001
0200
0300
,
0010
0010
0100
0100
,
1000
1000
0001
0001
,
0110
1001
0010
0100
,
1001
0110
0001
1000
,
0200
1300
0020
0031
,
2002
3003
2002
3003
,
0010
0000
0100
0000
,
0001
1000
0001
1000
,
0020
0030
0200
0300
,
0020
0030
1000
0001
,
1000
1000
0020
0000
,
0130
0100
0002
0000
,
0013
0010
0200
0000
,
0310
1000
0010
0001
,
1000
1000
0020
0000
,
0130
0100
0200
0000
,
0301
0001
1000
1000
,
0010
0100
0010
1001
,
0001
0010
0100
1000
,
0100
0010
0100
1000
,
0100
0010
0001
0010
,
0100
0000
0000
0100
,
0010
0010
0001
1000
,
0110
0000
1001
0000
,
0010
0100
0010
1000
,
0010
0100
0010
0001
,
0100
1000
0001
0010
,
0010
0001
1000
0100
,
0100
1000
0001
0010
,
1000
1000
0001
0001
,
0100
0100
0010
0010
,
0001
0100
1000
0100
,
0220
0330
2002
3003
,
0220
0330
0001
1000
,
0001
0001
1000
1000
,
0110
0000
0000
0000
,
0000
0000
0000
0000
,
0000
0000
0000
0000
;

//---------------dance-single - ----------------
#NOTES:
     dance-single:
     :
     Medium:
     5:
     0.349,0.354,0.320,0.152,0.171,259.000,42.000,20.000,0.000,0.000:
1000
1000
0001
0001
,
0110
0000
0000
0000
0100
0000
0000
0001
0010
0000
0000
0000
0100
0000
0000
0000
,
1000
0000
0000
0100
0010
0000
0000
0000
0001
0000
0000
0000
0010
0000
0000
0000
,
0100
0000
0000
0000
0100
0000
0000
1000
0001
0000
0000
0000
1000
0000
0000
0000
,
0001
0000
0000
0100
,
0001
0000
0000
0000
0001
0000
0000
1000
0010
0000
0000
0000
0100
0000
0000
0000
,
1100
0000
0000
0100
0010
0000
0000
0000
0100
0000
0000
0000
1000
0000
0000
0000
,
0001
0000
0000
0000
0001
0000
0000
0100
0010
0000
0000
0000
1001
0000
0000
0000
,
0001
0000
0000
0010
0001
0000
0000
0000
1000
0000
0000
0000
0001
0000
0000
0000
,
0110
0000
0000
0000
1001
0000
0000
0100
0010
0000
0000
0000
0100
0000
0000
0000
,
1001
0000
0000
0000
0110
0000
0000
1000
0001
0000
0000
0000
1000
0000
0000
0000
,
1010
0000
0000
0000
0101
0000
0000
1000
0010
0000
0000
0000
1000
0000
0000
0000
,
0011
0000
0000
0000
1100
0000
0000
0001
0010
0000
0000
0000
0001
0000
0000
0000
,
0010
0000
0000
0000
0100
0000
0000
0010
0100
0000
0000
0000
1000
0000
0000
0000
,
0001
0000
0000
1000
0001
0000
0000
0000
0100
0000
0000
0000
0010
0000
0000
0000
,
0001
0000
1000
0000
,
0110
0000
1001
0000
,
0020
0000
0000
0000
1030
0000
0000
0010
1000
0000
0000
0000
0002
0000
0000
0000
,
0013
0000
0000
0001
0010
0000
0000
0000
2000
0000
0000
0000
3001
0000
0000
0000
,
0200
0000
0000
0000
0301
0000
0000
0100
0001
0000
0000
0000
0110
0000
0000
0000
,
2002
0000
3003
0100
,
0010
0000
0000
0000
0010
0000
0000
0100
0010
0000
0000
0000
0100
0000
0000
0000
,
0002
0000
0003
0010
0100
0000
0000
0000
2000
0000
3000
0000
0100
0000
0000
0000
,
0010
0000
0000
0000
0010
0000
0000
0001
1000
0000
0000
0000
0100
0000
0000
0000
,
1001
0000
0000
0100
0010
0000
0000
0000
0110
0000
0000
0000
1001
0000
0000
0000
,
0001
0000
0000
0000
0001
0000
0000
0001
0010
0000
0000
0000
0001
0000
0000
0000
,
1000
0000
0000
0000
1000
0000
0000
1000
0100
0000
0000
0000
1000
0000
0000
0000
,
0010
0000
0000
0000
0010
0000
0000
0010
0100
0000
0000
0000
0010
0000
0000
0000
,
0020
0000
0000
0000
2030
3000
0000
0010
1000
0000
0000
0000
1010
0000
0000
0000
,
0001
0000
0000
0000
0001
0000
0000
0100
0010
0000
0000
0000
1000
0000
0000
0000
,
1000
0000
0000
0010
0100
0000
0000
0000
0001
0000
0000
0000
1000
0000
0000
0000
,
1010
0000
0011
0000
,
0110
0000
1001
0000
,
0100
0000
0000
0001
0010
0000
0000
0000
0220
0000
0000
0000
0330
0000
0000
0000
,
0100
0000
0000
1000
0010
0000
0000
0000
0220
0000
0000
0000
0330
0000
0000
0000
,
0001
0000
0000
0010
0001
0000
0000
0000
0002
0000
0000
0000
0003
0000
0000
0000
,
1000
0100
0010
0001
,
0010
0000
0000
0100
0010
0000
0000
0000
0220
0000
0000
0000
0330
0000
0000
0000
,
1000
0000
0000
0010
1000
0000
0000
0000
2000
0000
0000
0000
3000
0000
0000
0000
,
1000
0010
1000
0001
,
1000
0100
1001
0110
,
0001
0000
0000
0000
0100
0000
0000
0001
0010
0000
0000
0000
0001
0000
0000
0000
,
1000
0000
0000
0100
1000
0000
0000
0000
0010
0000
0000
0000
0100
0000
0000
0000
,
0100
0000
0000
0000
0010
0000
0000
0100
1000
0000
0000
0000
0001
0000
0000
0000
,
2002
3003
0000
0000
0000
0000
0010
0000
,
0100
0000
0000
0000
0100
0000
0000
0001
1000
0000
0000
0000
1001
0000
0000
0000
,
1000
0000
0000
0001
1000
0000
0000
0000
0110
0000
0000
0000
0001
0000
0000
0000
,
0010
0000
0000
0000
0100
0000
0000
1000
0100
0000
0000
0000
0010
0000
0000
0000
,
0001
0000
0000
0010
0100
0000
0000
0000
1000
0000
0000
0000
0100
0000
0000
0000
,
0110
0000
0000
0000
1001
0000
0000
0100
0010
0000
0000
0000
0110
0000
0000
0000
,
0010
0000
0000
0000
0100
0000
0000
0100
0010
0000
0000
0000
0100
0000
0000
0000
,
1001
0000
0000
0000
0100
0000
0000
0010
0100
0000
0000
0000
1001
0000
0000
0000
,
1000
0000
0000
0000
0100
0000
0000
1000
0010
0000
0000
0000
1000
0000
0000
0000
,
1100
0000
0000
0000
0011
0000
0000
0010
0100
0000
0000
0000
1001
0000
0000
0000
,
1000
0000
0000
0010
1000
0000
0000
0000
0100
0000
0000
0000
0010
0000
0000
0000
,
0001
0001
1000
1000
,
0001
0001
0010
0100
,
0110
0000
0000
0000
1001
0000
0000
0000
0010
0000
0000
0001
0100
0000
0000
0000
,
1001
0000
0000
0000
,
0000
0000
0000
0000
,
0000
0000
0000
0000
;

//---------------dance-single - ----------------
#NOTES:
     dance-single:
     :
     Hard:
     8:
     0.468,0.486,0.267,0.130,0.244,378.000,35.000,17.000,0.000,0.000:
1000
0000
0000
0000
0100
0000
0000
0000
0010
0001
0000
0010
0001
0000
1000
0000
,
0010
0000
0000
0000
0010
0000
0000
0100
0010
0000
1000
0000
1000
0000
0000
0000
,
0001
0000
0000
0100
0001
0000
0010
0000
0100
0000
0000
0000
1000
0000
0001
0000
,
1000
0000
0000
0000
1000
0000
0000
1000
0001
0000
0100
0000
0010
0000
0001
0000
,
1000
0000
0000
0000
0000
0100
0010
0100
,
1000
0000
0000
0000
1000
0000
0000
0001
0010
0000
0010
0000
0001
0000
0000
0000
,
0110
0000
0000
0100
0010
0000
1000
0000
0001
0000
0000
0000
0001
0000
1000
0000
,
0100
0000
0000
0000
0100
0000
0000
0010
0100
0000
0000
0000
1001
0000
0000
0000
,
0100
0000
0000
0010
0100
0000
1000
0000
0001
0000
0001
0000
1000
0000
1000
0000
,
0110
0000
0000
0000
1001
0000
0000
1000
0001
0000
0001
0000
1000
0000
0000
0000
,
0010
0000
0000
0000
0100
0000
0000
0100
0010
0000
1000
0000
1000
0000
0000
0000
,
0001
0000
0000
0000
0010
0000
0000
0001
0010
0000
0100
0000
0100
0000
0000
0000
,
0001
0000
0000
0000
1000
0000
0000
0100
0010
0000
0100
0000
0001
0000
1000
0000
,
0110
0000
0000
0000
0001
0000
0000
0010
1000
0000
0010
0000
0001
0000
0000
0000
,
0010
0000
0000
0100
1000
0000
0100
0000
0001
0000
0100
0000
1000
0000
0100
0000
,
1001
0000
0001
1000
0000
0010
0100
0000
0110
0000
0010
0100
0000
0001
1000
0000
,
0110
1001
1100
0101
,
2100
0000
0000
0000
0100
0000
3000
0100
1000
0000
0100
0000
0100
0000
0000
0000
,
0102
0000
0003
0100
0001
0000
0100
0000
0010
0000
0000
0000
0010
0000
0100
0000
,
1020
0000
0000
0000
1000
0000
0030
1000
0010
0000
1000
0000
0001
0000
1000
0000
,
0200
0000
0000
0300
0000
0100
0010
0010
,
0201
0000
0000
0000
0001
0000
0300
0001
0100
0000
0001
0000
0001
0000
0000
0000
,
0010
0000
0000
0100
1000
0000
0100
0000
0020
0000
0000
0000
0030
0000
0100
0000
,
1001
0000
0000
0000
0010
0000
0000
2000
3010
0000
0000
0000
0200
0000
0000
0000
,
0310
0000
0000
0100
0001
0000
0100
0000
0010
0000
1000
0000
0100
0000
0010
0000
,
0110
0000
0000
0000
1001
0000
0000
0100
0010
0000
0100
0000
0100
0000
0000
0000
,
0110
0000
0000
0000
1001
0000
0000
0010
0100
0000
0010
0000
0010
0000
0000
0000
,
0011
0000
0000
0000
1100
0000
0000
0100
0010
0000
1000
0000
0100
0000
0000
0000
,
1010
0000
0000
0000
0101
0000
0000
0100
0010
0000
0100
0000
0010
0000
1000
0000
,
0001
0000
0000
0000
0001
0000
0000
1000
0001
0000
0100
0000
0100
0000
0000
0000
,
0010
0000
0000
1000
0010
0000
1000
0000
0001
0000
0010
0000
0001
0000
0010
0000
,
0100
0000
1000
0100
0000
1000
0100
0000
0010
0000
0001
0010
0000
0001
0010
0000
,
0100
0000
0010
0100
0000
0010
0100
0000
1000
0000
0100
0000
0001
0000
0100
0000
,
0200
0000
0300
0010
1000
0000
0100
0000
0002
0000
0000
0000
0000
0000
0000
0000
,
0023
0000
0030
0100
0001
0000
0010
0000
2000
0000
0000
0000
0000
0000
0000
0000
,
3100
0000
0000
0010
0100
0000
0010
0000
0002
0000
0000
0000
0000
0000
0000
0000
,
1003
1000
0001
0001
0010
0010
0100
0100
,
1000
0000
0000
0100
1000
0000
0100
0000
2002
0000
0000
0000
0000
0000
3003
0000
,
0001
0000
0000
0010
0001
0000
0010
0000
0220
0000
0000
0000
0000
0000
0330
0000
,
0100
0000
0000
1000
0010
0000
0100
0000
0001
0000
0100
0000
0010
0000
0100
0000
,
1000
0000
0000
0100
0010
0000
0100
0000
0001
0000
1000
0000
1001
0000
0000
0000
,
0010
0000
0000
0000
0100
0000
0000
0010
0100
0000
1000
0000
0001
0000
0000
0000
,
1000
0000
0000
1000
0100
0000
0010
0000
0010
0000
0000
0000
0100
0000
1000
0000
,
0001
0000
0000
0000
0001
0000
0000
0010
0001
0000
0100
0000
0010
0000
1000
0000
,
0100
0000
0000
0000
0000
1000
0100
0010
,
0001
0000
0000
0000
0001
0000
0000
1000
0001
0000
1000
0000
0110
0000
0000
0000
,
1001
0000
0000
1000
0001
0000
0010
0000
1000
0000
0000
0000
1000
0000
0010
0000
,
0001
0000
0000
0000
0001
0000
0000
0010
0001
0000
0000
0000
1100
0000
0000
0000
,
0100
0000
0000
1000
0100
0000
0010
0000
0100
0000
1000
0000
0100
0000
0010
0000
,
0001
0000
0000
0000
0001
0000
0000
0001
0100
0000
1000
0000
1000
0000
0000
0000
,
0100
0000
0000
0000
0100
0000
0000
0010
1000
0000
0100
0000
0100
0000
0000
0000
,
1000
0000
0000
0000
1000
0000
0000
0001
0010
0000
0001
0000
0001
0000
0000
0000
,
0100
0000
0000
0000
0100
0000
0000
0010
1000
0000
0001
0000
1000
0000
0100
0000
,
0010
0000
0000
0000
0010
0000
0000
0001
1000
0000
0100
0000
0100
0000
0000
0000
,
0010
0000
0000
0001
0010
0000
0001
0000
0010
0000
0100
0000
1000
0000
0010
0000
,
0100
0000
0001
0100
0000
0001
0100
0000
1000
0000
0100
1000
0000
0100
1000
0000
,
0010
0000
0100
0010
0000
0100
0010
0000
1000
0000
0001
0000
0100
0000
0010
0000
,
1010
0101
0110
1001
,
0110
0000
0000
0000
;
