#TITLE:Kokoro no ari Tokoro;
#SUBTITLE:Tamayura ~Enkan no Kizuna~ OP Theme;
#ARTIST:Katakiri Retka;
#TITLETRANSLIT:;
#SUBTITLETRANSLIT:;
#ARTISTTRANSLIT:;
#CREDIT:ALICE_;
#BANNER:Kokoro no ari tokoro.png;
#BACKGROUND:Kokoro no ari tokoro.jpg;
#LYRICSPATH:;
#CDTITLE:cdtitle.png;
#MUSIC:Kokoro no ari Tokoro.mp3;
#OFFSET:1.155;
#SAMPLESTART:100.900;
#SAMPLELENGTH:20.040;
#SELECTABLE:YES;
#BPMS:0.000=150.000;
#STOPS:;
#BGCHANGES:2.875=Kokoro no ari tokoro.avi=1.000=0=0=1,
99999=-nosongbg-=1.000=0=0=0 // don't automatically add -songbackground-
;
// cache tags:
#FIRSTBEAT:4.000;
#LASTBEAT:372.000;
#SONGFILENAME:Songs/alice 4th complete step/Kokoro no ari Tokoro/Kokoro no ari Tokoro.sm;
#HASMUSIC:1;
#HASBANNER:1;
#MUSICLENGTH:154.025;
// end cache tags

//---------------dance-single - ----------------
#NOTES:
     dance-single:
     :
     Hard:
     8:
     0.483,0.604,0.169,0.156,0.052,471.000,26.000,24.000,0.000,0.000:
0000
0000
0000
0000
,
0000
0000
0000
0000
,
0000
0000
0000
0000
,
0000
0000
0000
0000
,
0000
0000
0000
0000
,
1000
0000
0000
0100
0000
0000
1000
0000
,
0000
0010
0000
0000
0100
0000
0100
0000
,
0001
0000
0000
1000
0000
0000
0010
0000
,
0000
1000
0000
0000
0100
0000
0000
0000
,
0001
0000
0000
1000
0000
0000
0001
0000
,
0000
0100
0000
0000
0010
0000
0010
0000
,
1000
0000
0000
0100
0000
0000
0010
0000
,
0000
0001
0000
0000
0200
0000
0000
0300
,
1001
0000
0000
0000
,
0000
0000
0000
1000
,
0100
0000
0000
0000
,
0000
0000
0000
0000
,
0010
0000
0001
0000
,
0000
0000
1000
0010
,
0100
0000
0001
0000
,
1000
0000
0000
0000
0010
0000
0100
0001
,
2002
0000
0000
3000
,
0023
0000
0000
0000
0000
0000
0130
1000
,
2002
0000
0000
0003
0000
0020
0000
3000
,
0230
0000
0000
0000
0300
0010
0000
1000
,
0102
0000
0000
0000
0000
0000
0000
1003
,
2000
0000
0000
0000
0000
3001
0010
0000
,
0110
0000
1000
0000
,
0001
0000
0000
0000
0000
0000
0000
0000
0101
0000
0000
1000
0000
0000
0010
0000
,
0100
0001
0100
0001
1000
0010
0100
0001
,
0010
0100
0010
0100
1000
0001
0100
0010
,
1000
0100
1000
0100
0010
1000
0010
0001
,
0100
0010
0100
0010
1000
0100
1000
0010
,
0100
0001
0100
0001
0010
1000
0010
0100
,
1000
0001
1000
0001
0100
1000
0100
0010
,
1000
0100
1000
0001
0100
0010
0100
0001
,
1000
0100
0010
0001
1000
0010
0100
0001
,
2002
0000
0000
0000
,
3003
0000
0000
0000
,
0000
0000
0000
0000
,
0000
0000
0000
0000
,
1000
0100
1000
0001
0100
0001
1000
0100
,
1000
0001
0100
0001
0010
0001
0100
0010
,
1000
0100
1000
0001
0010
0001
0100
0001
,
1000
0100
0010
0001
0100
0010
0100
0000
,
0002
0000
0103
0000
1000
0100
1000
0000
,
0020
0000
0130
0000
0001
1000
0001
0000
,
1000
0010
0100
0000
0001
0010
0100
0000
,
1000
0100
0010
0000
0001
0100
0010
0100
,
0001
1000
0001
1000
0100
1000
0001
0100
,
0001
1000
0010
1000
0001
0100
0010
1000
,
0001
0010
0001
0100
1000
0100
0010
1000
,
0100
0001
0100
1000
0010
0100
0001
0010
,
0001
0100
0001
0000
1000
0000
0010
0100
0010
0000
1000
0000
0001
0000
0000
0000
,
1000
0100
1000
0000
0010
0000
0100
0001
0100
0000
0001
0000
1000
0000
0000
0000
,
0010
0100
0010
0000
1000
0000
0100
1000
0100
0000
0010
0000
0001
0000
0100
0000
,
0001
1000
0100
0001
0100
1000
0010
0001
,
0010
1000
0010
0000
0100
0000
0001
0010
0001
0000
1000
0000
0100
0000
0000
0000
,
1000
0010
1000
0000
0100
0000
0010
0001
0010
0000
0001
0000
1000
0000
0000
0000
,
0110
0100
0001
0000
1000
0001
0100
0000
,
1010
1000
0100
0000
0001
1000
0100
0000
,
1001
0000
0000
0100
0000
0000
0001
0000
1000
0000
0000
0110
0000
0000
1000
0000
,
0002
0000
0000
0000
,
0000
0000
0000
0000
0000
0000
0000
0003
,
1000
0010
0100
0001
1000
0100
0010
0001
,
1000
0010
0100
0001
1000
0100
1001
1000
,
0001
0100
0001
0100
0001
0010
0001
1000
,
0100
0001
0100
1000
0010
0100
0010
1000
,
1100
0001
0100
0010
1000
0001
0100
0010
,
1000
0001
0010
0001
1000
0001
0010
0001
,
0100
0010
2000
3000
0002
0003
0100
0010
,
2000
3000
0001
0100
0001
1000
0010
0100
,
0001
0010
0100
1000
0001
0100
0010
1000
,
0001
0010
0100
1000
0001
0100
1001
0001
,
1000
0100
0010
0100
1000
0001
0100
0010
,
1000
0001
0100
1000
0100
0001
0010
0100
,
0010
0000
0110
0000
0001
1000
0101
0000
,
1000
0001
1100
0000
0001
1000
0010
1000
,
0002
0000
0100
0003
2000
0000
0010
3000
,
0200
0000
0001
0300
0010
1000
0001
0100
,
0101
0000
0000
0000
1000
0000
0000
0000
0011
0000
0000
1000
0000
0000
0200
0000
,
0300
1000
0010
1000
0001
0010
0001
1000
,
0002
0000
0000
0000
0000
0000
0000
1003
,
1000
0100
0010
0100
0001
0100
0010
0001
,
1000
0010
0100
0001
1000
0100
1000
0010
,
0100
0000
1001
0000
1000
0100
1000
0000
,
0010
0000
0100
1000
0001
0100
0001
1000
,
0100
0000
1001
0000
0001
0100
0001
0000
,
1000
0000
0001
0100
0001
1000
0010
0100
,
0001
0000
0110
0000
1000
0100
1000
0000
,
0001
0000
0100
1000
0010
0001
0010
1000
,
0001
0000
0101
0000
0010
1000
0001
0000
,
1001
0000
0000
1100
0000
0000
0010
0000
0101
0000
0000
1000
0000
0000
0002
0000
,
0003
0000
0000
0000
;

//---------------dance-single - ----------------
#NOTES:
     dance-single:
     :
     Challenge:
     15:
     1.000,1.000,1.000,0.331,1.000,1047.000,308.000,51.000,0.000,9.000:
0000
0000
0000
0000
,
1001
1001
1001
1001
1001
1001
1001
1010
,
1001
1001
1010
1001
1001
1010
0101
1001
,
1001
0000
1001
0000
1001
0000
1001
0100
1001
0000
1001
0000
1001
0010
1001
0000
,
0101
1001
0101
0011
0101
1001
0011
0101
,
1010
1001
1001
1010
1001
1001
1100
1010
,
1010
1100
1001
1001
1010
1001
1010
1001
,
1100
0010
1100
0000
1001
0010
1001
0000
1100
0010
1100
0000
1001
0010
1001
0000
,
0101
1000
0101
0000
0011
0100
0011
0000
0101
1000
0101
0000
1001
0000
0101
0000
,
1010
1100
1001
1100
1010
1001
1010
1100
,
1001
0000
1010
0100
1010
0000
1001
0000
1100
0000
1001
0000
1010
0000
1001
0000
,
0101
0011
1001
0101
1001
0011
0101
1001
,
1010
0000
1001
0000
1100
0010
1000
0000
0101
0000
1001
0010
0101
1000
0011
0000
,
1001
0000
1000
0001
0000
1000
0001
1000
0010
0000
1000
0010
0000
1000
0010
1000
,
0001
0000
1000
0001
0000
1000
0001
1000
0100
0000
1000
0010
0000
1000
0010
0100
,
0001
0000
1000
0001
0000
1000
0001
1000
0100
0000
1000
0001
0000
1000
0001
1000
,
0010
0000
1000
0010
0000
1000
0010
1000
0001
0000
0100
0001
0000
0100
0001
0100
,
0010
0000
0100
0010
0000
0100
0010
1000
0001
0000
1000
0001
0000
1000
0001
1000
,
0100
0000
1000
0010
0000
0100
0001
0010
0001
0000
0010
0001
0000
0010
0001
0100
,
0010
0000
0100
0010
0000
0100
0010
1000
0001
0000
1000
0001
0000
1000
0001
0100
,
0010
0000
1000
0010
0000
1000
0010
0100
0001
0000
0100
0001
0000
0100
0011
1000
,
0120
0000
1000
0001
0000
1000
0001
0100
0001
0000
1000
0001
0000
1000
0100
1000
,
0101
0000
1000
0001
0000
0100
0001
1000
0100
0000
1000
0001
0000
0100
0001
1030
,
0102
0000
1000
0100
0000
1000
0010
0100
0010
0000
1100
0010
0000
1000
0100
1000
,
0110
0000
1000
0010
0000
1000
0100
1000
0010
0000
1100
0010
0000
0100
1013
0100
,
2001
0000
0100
0010
0000
0100
0001
0010
0001
0000
0100
0010
0000
0100
0011
3100
,
1001
0000
0010
0001
0000
1000
0100
1000
0001
0000
0110
0001
1010
0100
0001
1100
,
0011
1000
0001
1000
0001
1000
0001
1000
0111
1000
0001
1000
0001
1000
0001
1000
,
0011
0100
0010
0100
0010
0100
0010
0100
0011
1000
0100
1001
0010
0100
1001
0010
,
0101
0001
1000
0010
0100
0000
1001
0000
0011
0010
1000
0001
0100
0000
1010
0000
,
0101
0100
1000
0010
0100
0000
0011
0000
1001
1000
0100
0001
1010
0000
1001
0000
,
1100
0100
0001
1000
0010
0000
0101
0000
1010
0010
0001
1000
0100
0000
1001
0000
,
0101
0001
1000
0010
0100
0000
0110
0000
1001
1000
0001
0100
0010
0000
0101
0000
,
1001
0001
1000
0001
0100
0000
1010
0000
0101
0100
0010
1000
0100
0000
0011
0000
,
0101
0100
0010
1000
0011
0000
0101
0000
1010
1000
0100
1000
0011
0000
0101
0000
,
1010
0010
0100
0001
1010
0000
0101
0000
0011
0010
0001
1000
0110
0000
1001
0000
,
0100
0010
1000
0010
0100
0001
1000
0010
0100
0001
1000
0001
0100
0001
1000
0001
,
0110
0000
0000
0000
,
0000
0000
0000
0000
,
0000
0000
0000
0000
,
0000
0000
0000
0000
,
1010
0000
1001
0100
1001
0000
1010
0000
1001
0100
1001
0000
1010
0000
1001
0000
,
1100
0000
1010
0100
1001
0000
0101
0000
0110
1000
0011
0000
0101
0000
1010
0000
,
0101
0000
0011
1000
0101
0000
1010
0000
1100
0000
1001
0000
0011
0000
0101
0000
,
1001
0000
0100
0010
0001
1000
0100
1000
0010
0100
0001
1000
0110
0000
1001
0000
,
1100
0000
0001
0000
0110
0000
0001
0000
1000
0100
0010
0000
0101
0000
1000
0000
,
0011
0000
0100
0000
1010
0000
0100
0000
0001
0010
1000
0000
0011
0000
0110
0000
,
2001
0000
0100
0010
0100
0000
3001
0000
1002
0000
0010
0100
0010
0000
1003
0000
,
2010
0000
0100
0001
0010
0000
3001
0000
0101
0000
1000
0000
0110
0000
0101
0000
,
1010
0000
1001
0100
1001
0000
1010
0000
1001
0010
1001
0000
1100
0000
1001
0000
,
1010
0000
1001
0100
1010
0000
0101
0000
0110
1000
0011
0000
0101
0000
1010
0000
,
0101
0000
0011
1000
0101
0000
1010
0000
1100
0000
1001
0000
0011
0000
0101
0000
,
1001
0000
0100
1000
0001
0100
0010
1000
0100
0010
0001
0100
1010
0000
0110
0010
,
1002
0100
1003
0000
0100
0000
0201
0010
0301
0000
1000
0000
0011
0000
0100
0000
,
2001
0010
3001
0000
0100
0000
1020
0100
1030
0000
0001
0000
1100
0000
0011
0000
,
2100
0010
3100
0000
0010
0000
0102
1000
0103
0000
0010
0000
0001
0000
0100
0000
,
1001
0000
1010
0100
0001
0000
1100
0000
0101
0000
1010
0000
0110
0000
1001
0000
,
0002
0010
1003
0000
0110
0000
2000
0100
3001
0000
0110
0000
0001
0000
0100
0000
,
2010
0001
3010
0000
0100
0000
0012
1000
0103
0000
1001
0000
0101
0000
0010
0000
,
2100
0010
3001
0000
0110
0000
0101
0000
2010
0100
3001
0000
0011
0000
0101
0000
,
0012
1000
0103
0000
1010
0000
0101
0000
0012
0100
1003
0000
0101
0000
1001
0000
,
0110
0000
0000
1100
0000
0000
0110
0000
1001
0000
0000
0101
0000
0000
1001
0000
,
1100
0001
0010
1000
0001
0010
0100
0001
0010
1000
0100
0010
1000
0100
0001
0010
,
1000
0000
0000
0001
0000
0000
1000
0000
0000
0001
0000
0000
1000
0000
0000
0001
0000
0000
1000
0000
0000
0001
0000
0000
0100
0000
0010
0000
0100
0000
0010
0000
0100
0000
0010
0000
0100
0000
0010
0000
0100
0000
0010
0000
0100
0000
0010
0000
,
1000
0001
0010
0100
0001
0010
1000
0001
0010
0100
0001
1000
0010
0001
0010
0100
,
0001
1000
0010
1000
0100
1000
0010
0100
1000
0001
0100
0001
0010
0001
0100
0010
,
1000
0100
0001
0100
1000
0001
0100
0010
0001
0100
1000
0010
0001
0100
0010
1000
,
0001
0100
0010
0001
1000
0100
0010
1000
0001
0100
1000
0010
0100
0001
0010
0100
,
1001
0010
0001
0100
0010
1000
0010
0100
0001
0010
0001
1000
0010
0100
0001
0010
,
1000
0100
1000
0010
0100
0001
0100
0010
1000
0100
1000
0001
0100
0010
1000
0100
,
0002
0013
2010
3100
1002
0023
0130
1001
,
2010
0100
0010
0100
0001
0100
0001
3010
1000
0001
0100
0001
1000
0010
0100
0001
,
0110
1000
0100
0010
1001
0100
0001
1000
0100
0010
1000
0001
0110
1000
0100
0010
,
1000
0001
0100
0001
1010
0001
0100
0010
0001
1000
0010
1000
0101
1000
0010
0100
,
0001
0010
1000
0100
0001
1000
0010
0100
1000
0010
0001
0100
1000
0010
0100
0001
,
1000
0010
0100
1000
0001
0100
0010
0100
1000
0010
0001
0010
1000
0100
0010
0100
,
1001
0010
1000
0100
0011
1000
0010
0100
0001
0100
1000
0100
1010
0001
0100
0001
,
0010
1000
0001
0100
0011
1000
0001
0100
1000
0010
0001
0100
1010
0100
0001
0010
,
1000
0100
1000
0001
0100
0010
0100
0010
1000
0100
1000
0001
0100
0010
0100
0001
,
1001
0000
0000
0010
0000
0000
0100
0000
0000
0010
0000
0000
1000
0000
0000
0001
0000
0000
0100
0000
0000
0010
0000
0000
1000
0000
0100
0000
0010
0000
0100
0000
0010
0000
0001
0000
1000
0000
0100
0000
0010
0000
0100
0000
0010
0000
0001
0000
,
1100
0000
0000
0000
0001
0000
0000
0000
1010
0000
0000
0101
0000
0000
2002
0000
,
0000
0103
0010
0100
0001
0010
0001
3100
,
0020
0000
0000
0000
0000
0000
0000
0000
0000
0000
0000
0000
0000
0000
0100
0030
,
1001
0010
0001
0100
0001
0010
0001
1000
0010
0001
0010
0100
0010
0001
0010
1000
,
0100
0000
0000
0001
0000
0000
1000
0000
0000
0010
0000
0000
0100
0000
0000
0001
0000
0000
1000
0000
0000
0010
0000
0000
0100
0000
0001
0000
0010
0000
1000
0000
0001
0000
0010
0000
0100
0000
0001
0000
0010
0000
1000
0000
0001
0000
0010
0000
,
0102
0000
0000
0000
0100
0000
0000
0000
1003
0000
0000
0000
0100
0000
0000
0000
2000
3000
0000
0000
0000
0000
0000
0000
0010
0000
0000
0000
0000
0000
0000
0000
0100
0000
0000
0000
0100
0000
0000
0000
1002
0000
0000
0000
0010
0000
0000
0000
0203
0300
0000
0000
0000
0000
0000
0000
1010
0000
0000
0000
0000
0000
0000
0000
,
2001
0000
0000
0000
0001
0000
0000
0000
3010
0000
0000
0000
0001
0000
0000
0000
0200
0300
0000
0000
0000
0000
0000
0000
0011
0000
0000
0000
0000
0000
0000
0000
0100
0000
0000
0000
0100
0000
0000
0000
1000
0000
0000
0000
0010
0000
0000
0000
0200
0300
0000
0000
0000
0000
0000
0000
0011
0000
0000
0000
0000
0000
0000
0000
,
2001
0000
0000
0000
0001
0000
0000
0000
3100
0000
0000
0000
0010
0000
0000
0000
2000
3000
0000
0000
0000
0000
0000
0000
0101
0000
0000
0000
0000
0000
0000
0000
0010
0000
0000
0000
0010
0000
0000
0000
0201
0000
0000
0000
1000
0000
0000
0000
0320
0030
0000
0000
0000
0000
0000
0000
1001
0000
0000
0000
0000
0000
0000
0000
,
2100
0000
0000
0000
0100
0000
0000
0000
3010
0000
0000
0000
0001
0000
0000
0000
0200
0300
0000
0000
0000
0000
0000
0000
0001
0000
0000
0000
0000
0000
0000
0000
1000
0000
0000
0000
1000
0000
0000
0000
0102
0000
0000
0000
0010
0000
0000
0000
0203
0300
0000
0000
0000
0000
0000
0000
1010
0000
0000
0000
0000
0000
0000
0000
,
0201
0000
0000
0000
0001
0000
0000
0000
1300
0000
0000
0000
0001
0000
0000
0000
0200
0300
0000
0000
0000
0000
0000
0000
0110
0000
0000
0000
0000
0000
0000
0000
1000
0000
0000
0000
1000
0000
0000
0000
0102
0000
0000
0000
0010
0000
0000
0000
2003
3000
0000
0000
0000
0000
0000
0000
0110
0000
0000
0000
0000
0000
0000
0000
,
1001
0000
0000
0000
0001
0000
0000
0000
0010
0000
0000
0000
0001
0000
0000
0000
0020
0030
0000
0000
0000
0000
0000
0000
0101
0000
0000
0000
0000
0000
0000
0000
1000
0000
0000
0000
1000
0000
0000
0000
0010
0000
0000
0000
0001
0000
0000
0000
0210
0300
0000
0000
0000
0000
0000
0000
1001
0000
0000
0000
0000
0000
0000
0000
,
0102
0000
0000
0000
1000
0000
0000
0000
0100
0000
0000
0000
0000
0000
0000
0000
1020
0030
0000
0000
0000
0000
0000
0000
1000
0000
0000
0000
0000
0000
0000
0000
0103
0000
0000
0000
0010
0000
0000
0000
1000
0000
0000
0000
0001
0000
0000
0000
0100
0000
0000
0000
0010
0000
0000
0000
0100
0000
0000
0000
0010
0000
0000
0000
,
1100
0000
0000
0101
0000
0000
1100
0000
0011
0000
0000
1010
0000
0000
0101
0000
;

//---------------dance-single - ----------------
#NOTES:
     dance-single:
     :
     Medium:
     6:
     0.384,0.543,0.305,0.292,0.019,322.000,47.000,45.000,0.000,0.000:
0000
0000
0000
0000
,
0000
0000
0000
0000
,
0000
0000
0000
0000
,
0000
0000
0000
0000
,
0000
0000
0000
0000
,
0000
0000
0000
0000
,
0000
0000
0000
0000
,
0000
0000
0000
0000
,
0000
0000
0000
0000
,
0000
0000
0000
0000
,
0000
0000
0000
0000
,
0000
0000
0000
0000
,
0000
0000
0000
0000
,
1002
0000
0000
0000
,
0003
0000
0000
0100
,
0020
0000
0000
0000
,
0000
0000
0030
0000
,
0002
0000
2003
0000
,
0000
3000
0020
0230
,
0302
0000
2003
0000
,
3002
0000
0000
0000
0203
0000
0300
0010
,
1001
0000
0000
0000
,
1000
0000
0000
0000
0000
0000
0000
1000
,
0001
0000
0000
0000
0000
0100
0000
0000
,
0010
0000
0000
0000
0000
1000
0000
0001
,
1001
0000
0000
0000
0000
0000
0000
0010
,
0100
0000
0000
0000
0000
0010
0010
0000
,
1001
0000
1100
0000
,
0101
0000
0000
0000
1000
0000
0000
0000
0010
0000
0000
0010
0000
0000
0010
0000
,
0100
0000
1001
0000
0010
1000
0001
0000
,
0100
0000
1001
0000
0010
1000
0001
0100
,
0010
0000
1001
0000
0100
0001
1000
0000
,
0010
0000
1001
0000
0100
0001
1000
0100
,
0010
0000
0101
0000
0010
1000
0010
0000
,
0100
0000
0011
0000
0100
1000
0010
0100
,
0001
1100
1000
0101
,
0020
2030
3002
2003
,
3001
0000
0000
0000
,
0000
0000
0000
0000
1000
0100
0010
0001
,
1000
0000
0000
0000
,
0000
0000
0000
0000
0001
0100
0010
1000
,
0002
0000
0003
0200
0000
0300
0002
0000
,
0003
2000
0000
3000
0020
0030
0200
0300
,
0002
0000
0003
2000
0000
3000
0002
0000
,
0003
0020
0000
0030
0200
0300
1000
0001
,
1001
0100
1010
1000
,
0001
0000
0100
0000
0011
0000
0001
1000
,
0100
0010
0100
1000
,
0001
1000
0010
0100
,
0002
0000
0003
2000
0000
3000
0002
0000
,
0003
0020
0000
0030
0200
0300
0200
0300
,
2000
0000
3000
0002
0000
0003
2000
0000
,
3000
0020
0000
0030
0100
0001
1000
0001
,
0010
0000
1100
0000
0010
0001
0010
0000
,
0001
0000
1010
0000
0100
0001
0100
0000
,
0010
1000
0001
0100
,
0001
0000
1000
0000
0001
0100
1000
0100
,
0001
0000
1100
0000
0010
0001
0100
0000
,
0010
0000
0101
0000
0010
1000
0001
0000
,
1000
0100
0001
0000
0010
0001
0100
0000
,
0001
0010
1000
0000
0100
1000
0010
0000
,
1000
0000
0000
0001
0000
0000
1000
0000
0001
0000
0000
1000
0000
0000
0001
0000
,
2000
0000
0000
0000
,
0002
0000
0000
3003
,
1000
0101
0001
1100
,
1000
0000
0011
0000
0100
0000
0010
1000
,
0100
0100
1000
1000
,
0001
0000
1000
0000
0010
0000
0100
0001
,
0011
1001
1100
1001
,
0010
0000
0001
0000
0100
0000
1000
0010
,
0100
0000
0002
0000
2003
0000
0010
3000
,
0001
0100
0001
1000
0001
0100
1000
0100
,
0001
0011
1000
1010
,
0100
0000
1001
0000
0010
0000
0100
1000
,
0001
0001
1000
0010
,
0100
0000
0001
0000
0010
0000
1000
0100
,
1100
1001
0101
1001
,
1010
0000
0011
0000
0110
0000
1001
0100
,
0002
0000
2003
3000
0020
0000
0032
0000
,
0103
0010
1000
0001
0010
0100
1000
0100
,
0011
0000
0000
0000
1000
0000
0000
0000
0010
0000
0000
0100
0000
0000
0020
0000
,
0000
0000
0000
0000
0000
0000
0000
0030
,
2000
0000
0000
0000
0000
0000
3000
0001
,
0001
1000
0001
1000
0010
0100
0001
0010
,
0100
0000
1000
0000
0001
0000
0100
0010
,
0100
0000
1001
0000
0010
0001
0100
0000
,
1001
0000
0010
1000
0100
0010
0001
0000
,
0100
0000
1001
0000
0010
1000
0100
0000
,
1001
0000
0010
0001
0100
0010
1000
0000
,
0001
0000
1100
0000
0001
0010
1000
0000
,
0110
0000
1000
0001
1000
0100
0010
0000
,
0001
1000
0001
1000
0010
0100
0010
0100
,
0001
0000
0000
1000
0000
0000
0010
0000
0010
0000
0000
0100
0000
0000
1001
0000
;

//---------------dance-single - ----------------
#NOTES:
     dance-single:
     :
     Easy:
     2:
     0.209,0.271,0.078,0.019,0.000,210.000,12.000,3.000,0.000,0.000:
0000
0000
0000
0000
,
0000
0000
0000
0000
,
0000
0000
0000
0000
,
0000
0000
0000
0000
,
0000
0000
0000
0000
,
0000
0000
0000
0000
,
0000
0000
0000
0000
,
0000
0000
0000
0000
,
0000
0000
0000
0000
,
0000
0000
0000
0000
,
0000
0000
0000
0000
,
0000
0000
0000
0000
,
0000
0000
0000
0000
,
1001
0000
0000
0000
,
0000
0000
0000
0000
,
1000
0000
0000
0000
,
0000
0000
0000
0000
,
0001
0000
0000
0000
,
0000
0000
0000
0000
,
0100
0000
0000
0000
,
0000
0000
0000
1000
,
0001
0000
0000
0000
,
1000
0000
0000
0010
,
1000
0000
0000
0000
,
0001
0000
0000
0100
,
0010
0000
0000
0000
,
1000
0000
0000
0001
,
0100
0000
1000
0000
,
0001
0000
0010
0100
,
0001
0001
1000
1000
,
0001
1000
0010
0100
,
1000
1000
0001
0001
,
0100
0010
1000
0001
,
1000
1000
0100
0100
,
0010
0001
1000
0010
,
0001
0001
0100
0100
,
0010
1000
0001
1000
,
0100
0000
0000
0000
,
0000
0000
0000
0000
,
0000
0000
0000
0000
,
0000
0000
0000
0000
,
1000
0001
1000
0001
,
1000
0001
1000
0100
,
0001
1000
0010
0100
,
0001
1000
0100
0000
,
0001
0001
0100
0001
,
1000
1000
0100
1000
,
0010
0100
0001
1000
,
0001
0010
1000
0100
,
0001
1000
0001
1000
,
0001
1000
0001
0100
,
1000
0001
0010
0100
,
1000
0001
0100
0000
,
1000
0000
1000
0000
,
0001
0000
0001
0000
,
0100
0010
1000
0001
,
0010
0100
0010
0100
,
1000
0000
1000
0000
,
0001
0000
0001
0000
,
1000
0000
0100
0000
,
0001
0000
0010
0000
,
1000
0001
0010
0001
,
0200
0000
0000
0000
,
0000
0000
0000
0300
,
1000
0100
0001
0100
,
1000
0001
0010
0000
,
0001
0100
1000
0100
,
0001
0010
0100
1000
,
0001
0001
1000
1000
,
0010
0100
0010
1000
,
0001
1000
0001
0010
,
0200
0000
0000
0300
,
0010
0001
0100
0001
,
0010
0100
1000
0000
,
1000
0100
1000
0010
,
0100
0001
1000
0010
,
0100
0100
0001
0001
,
1000
1000
0010
0010
,
1000
0001
0100
0010
,
1000
0000
0001
0100
,
1001
0000
0000
0000
0110
0000
0000
1001
,
0000
0000
0000
0000
,
0000
0000
0000
0000
,
1000
0100
0010
0001
,
0001
0100
1000
0010
,
0000
0101
0000
0101
,
0000
1000
0000
0001
,
0000
1100
0000
1100
,
0000
0001
0000
1000
,
0000
0011
0000
0011
,
0000
1000
0000
0001
,
0000
1010
0000
1010
,
0001
0000
1000
0000
0001
0000
0020
0030
;
