#TITLE:I Sawed the Demons;
#SUBTITLE:(E2M1 from Doom);
#ARTIST:Dark Luke;
#TITLETRANSLIT:;
#SUBTITLETRANSLIT:;
#ARTISTTRANSLIT:;
#CREDIT:;
#BANNER:I Sawed the Demons-banner.png;
#BACKGROUND:I Sawed the Demons-bg.png;
#LYRICSPATH:;
#CDTITLE:cdtitle.png;
#MUSIC:I Sawed the Demons.mp3;
#OFFSET:-0.500;
#SAMPLESTART:78.837;
#SAMPLELENGTH:13.000;
#SELECTABLE:YES;
#BPMS:0.000=190.000;
#STOPS:;
#BGCHANGES:0.000=e2m1-nm.avi=1.000=0=1=0,
384.000=e2m1-bg.png=1.000=0=0=1,
385.250=e2m1-bg.png=1.000=0=0=1,
385.250=I Sawed the Demons-bg.png=1.000=0=0=1,
99999=-nosongbg-=1.000=0=0=0 // don't automatically add -songbackground-
;
// cache tags:
#FIRSTBEAT:16.000;
#LASTBEAT:385.250;
#SONGFILENAME:Songs/stepmix .10/I Sawed the Demons/I Sawed the Demons.sm;
#HASMUSIC:1;
#HASBANNER:1;
#MUSICLENGTH:122.992;
// end cache tags

//---------------dance-single - ----------------
#NOTES:
     dance-single:
     :
     Hard:
     9:
     0.692,0.666,0.382,0.098,0.126,537.000,47.000,12.000,14.000,0.000:
0000
0000
0000
0000
,
0000
0000
0000
0000
,
0000
0000
0000
0000
,
0000
0000
0000
0000
,
1000
0100
0010
0000
0001
1000
0010
0000
,
0100
0001
0010
0000
0001
1000
0010
0000
,
0100
0001
1000
0000
0010
1000
0100
0000
,
0010
0001
1000
0000
0010
0100
0001
0000
,
1000
0000
0101
0000
0010
0001
0100
0000
,
0010
0000
1001
0000
0010
1000
0100
0000
,
0010
0000
0011
0000
1000
0100
0001
0000
,
0100
0000
1001
0000
0001
0100
1000
0000
,
0100
0000
0010
0100
0000
1000
0100
0000
,
0010
1000
0100
1000
0000
0001
0100
0000
,
0001
0000
0010
0100
0000
0001
0100
0000
,
0010
0001
0100
0001
0000
0100
0010
0100
,
0001
1000
0001
0000
1000
0100
1100
0000
,
0010
0001
0010
0000
0001
1000
1001
0000
,
0010
1000
0010
0000
0100
0001
0101
0000
,
1000
0000
0100
1000
0100
0000
0000
0000
0100
0000
1000
0000
1000
0000
0000
0000
,
0001
0001
0100
0000
0000
0010
1010
0000
,
0001
1000
0100
0010
0000
1000
0010
0000
,
0100
1000
0001
0000
0000
0100
0101
0000
,
0010
0000
1000
0000
0001
0000
0010
0001
0000
0001
0010
0000
0001
0000
0000
0000
,
1000
0000
0110
0000
0010
0001
0100
0010
,
1000
0000
0011
0000
0100
0010
0100
1000
,
0010
0000
0101
0000
1000
0010
0001
0010
,
0100
0000
0010
0000
0100
0100
0010
0010
,
2002
0000
0000
0000
0000
0000
0000
0000
3003
0000
1001
0000
0000
M00M
0000
0000
,
0220
0000
0000
0000
0000
0000
0000
0000
0330
0000
0110
0000
0000
0MM0
0000
0000
,
1000
0000
0000
M100
0000
0000
0M01
0000
,
0000
010M
0000
0000
1M00
0000
0010
0000
,
1001
1001
0000
0000
1000
0000
0100
0000
,
0001
1000
0010
0001
,
0110
0110
0000
0000
0001
0000
0100
0000
,
1000
0000
0010
1000
0001
0010
0000
0001
,
1000
0000
0000
0000
0002
0000
0000
0000
0000
0000
0200
0000
0000
0003
0000
0000
,
2000
0000
0000
0300
0000
0000
0200
0000
0000
3000
0000
0000
0000
0000
0300
0000
,
0000
0000
0000
0000
0002
0000
0000
0000
0000
0000
0020
0000
0000
0003
0000
0000
,
2000
0000
0000
0030
0000
0000
0020
0000
0000
3000
0000
0000
0000
0000
0030
0000
,
0001
0000
1000
0100
0000
0010
0001
0000
,
0100
0010
0100
1000
0000
0100
0001
0000
,
1000
0000
0100
1000
0000
0010
0100
0000
,
0001
0000
0000
0000
0001
0000
0000
0000
1000
0000
0001
0000
1000
0010
1000
0010
,
1000
0000
0011
0000
0001
0010
0110
0000
,
1000
0001
0101
0000
0010
1000
1100
0000
,
0001
0001
0001
0000
1000
1000
1000
0000
,
0001
0001
0100
0100
0010
0010
1000
0000
,
0001
0000
0010
0000
0001
0000
0000
0000
1000
0000
0001
1000
0001
0000
0000
0000
,
1000
0000
0100
0000
1000
0000
0000
0000
0001
0000
0010
0000
0100
0010
0000
0100
,
0010
0000
0000
0000
1001
0000
0000
0000
1000
0000
0100
1000
0100
0000
0000
0000
,
0010
0000
0100
0000
0010
0000
0000
0000
0001
0010
0001
0010
0001
0000
0000
0000
,
1000
0000
0000
1000
0100
0000
0000
0100
1000
0000
0000
1000
0001
0000
0000
0001
,
1000
0000
0000
1000
0010
0000
0000
0010
0100
0000
0000
0100
0010
0000
0000
0010
,
0100
0000
0000
0100
0001
0000
0000
0001
1000
0000
0000
1000
0001
0000
0000
0001
,
1000
0000
0000
1000
0100
0000
0000
0100
0010
0000
0000
0010
0001
0000
0000
0000
,
1001
1010
0101
1010
,
0011
1010
0011
0101
,
1000
0000
0010
1001
0000
0100
1001
0000
,
0010
0000
0001
1010
0000
0001
1100
0000
,
1001
0000
0000
0000
,
1000
0000
1000
0000
0001
0000
0001
0000
0100
0001
0100
0000
0001
0100
0001
0000
,
1000
0000
0001
1000
0100
0010
0100
1000
,
0010
0100
0001
0010
0000
0010
0001
1000
,
0010
0000
1000
0100
1000
0001
0100
0001
,
0000
0001
1000
1000
0100
0010
0100
0010
,
0001
0000
1000
0100
0010
0100
0001
0100
,
0010
0001
1000
0010
0000
0010
0100
0001
,
1000
0000
0001
0010
0100
0010
1000
0010
,
0100
1000
0001
0100
0010
1000
0100
0010
,
0001
0000
0100
1000
0000
0100
0001
0000
,
0010
1000
0000
0010
0001
0000
1000
0000
,
0001
0000
1000
0010
0000
0001
1000
0000
,
0100
0001
0000
1000
0100
0000
0001
0000
,
1000
0000
0110
0000
0010
0001
1000
0010
,
0100
1000
0100
0001
1000
0010
1000
0000
,
0001
0010
0100
0000
0010
1000
0010
0000
,
0100
1000
0001
0000
0100
0010
0001
0000
,
0010
0000
1000
0001
0010
1000
0000
0010
,
0100
1000
0001
1000
0000
0100
0001
0100
,
0000
0010
0001
1000
0100
0010
0000
0100
,
1000
0001
0100
0010
0001
0010
1000
0001
,
1000
0000
0010
0100
1000
0100
0000
0001
,
0010
1000
0010
0001
0000
0100
1000
0000
,
0000
0100
0001
1000
0100
0001
1000
0010
,
0001
1000
0100
0001
1000
0010
0100
0000
,
1000
0010
1000
0010
0100
0001
0100
0001
,
0010
0100
0010
0100
1000
0001
1000
0000
,
0001
1000
0100
0010
1000
0001
0100
0010
,
0001
1000
0010
0001
1000
0100
0010
0000
,
1000
0100
1000
0001
0100
0001
1000
0010
,
1000
0001
0010
0001
1000
0010
1000
0000
,
0001
0100
1000
0001
0010
1000
0001
0100
,
1000
0001
0010
1000
0001
0100
0010
0000
,
1010
0000
0000
M011
0000
0000
01M1
0000
,
0000
110M
0000
0000
1M10
0000
0110
0000
,
1001
0000
1001
0000
0000
M00M
0000
0000
0000
0000
0000
0000
0000
0000
0000
0000
;

//---------------dance-single - ----------------
#NOTES:
     dance-single:
     :
     Easy:
     4:
     0.329,0.507,0.244,0.065,0.000,245.000,30.000,8.000,0.000,0.000:
0000
0000
0000
0000
,
0000
0000
0000
0000
,
0000
0000
0000
0000
,
0000
0000
0000
0000
,
1000
0001
0000
0001
,
1000
0000
0100
0000
,
0001
0100
0000
0100
,
0010
0000
0001
0000
,
1000
0010
0000
0010
,
0100
0010
1000
0000
,
0001
1000
0000
0100
,
1000
0001
1000
0000
,
0100
0000
0100
0000
,
1000
0001
1000
0000
,
0010
0000
0010
0000
,
0100
0001
0100
0000
,
1000
1000
0000
0100
,
0001
0001
0000
1000
,
0100
0100
0000
0001
,
0100
0100
0000
0010
,
0000
1001
0000
0100
,
0000
1010
0000
0001
,
0000
0011
0000
0100
,
0000
1001
1001
0000
,
1000
1000
1000
0000
,
0001
0001
0001
0000
,
0100
0100
0100
0000
,
0010
0010
0010
0000
,
2002
0000
0000
3003
0000
1001
0000
0000
,
0220
0000
0000
0330
0000
0110
0000
0000
,
1000
0000
0000
0100
0000
0000
0001
0000
,
0000
0010
0000
0000
1000
0000
0001
0000
,
1000
0000
1000
0000
,
0001
0000
0001
0000
,
0010
0000
0100
0000
,
0010
0000
0010
0100
,
0000
2000
0000
3000
,
0020
0000
0000
0030
,
0200
0000
0000
0300
,
0002
0000
0000
0003
,
1000
0010
0000
0001
,
0000
0010
0000
0100
,
0001
1000
0000
0100
,
0010
0000
1000
0010
,
0000
0001
0000
1000
,
0000
0100
0000
0010
,
0100
0001
0000
0100
,
0000
0010
0001
0000
,
1000
0001
1000
0001
,
0000
0010
1000
0000
,
0010
0001
0010
0001
,
0000
1010
0000
0010
,
1000
1100
0000
0100
,
0010
0011
0000
0001
,
1000
0011
0000
1000
,
0010
1001
0000
0001
,
0100
1000
0000
1000
,
0100
0000
0100
0010
,
1000
0001
0000
0001
,
1000
0100
0001
0100
,
0010
0000
0000
0000
,
1001
1001
1001
1001
,
0010
0000
0001
0000
,
0100
0000
1000
0100
,
0001
0000
0010
0000
,
1000
0010
0100
1000
,
0001
0000
0100
0000
,
1000
0000
0100
0001
,
1000
0000
0100
0000
,
0010
0000
0001
0100
,
0010
0000
1000
0000
0000
0001
0000
0000
,
0010
0000
0000
1000
0000
0000
0100
0000
,
0001
0000
0010
0000
,
0001
0000
1000
0000
,
0001
0100
1000
0000
,
0001
0010
1000
0000
,
0100
0000
1100
0000
,
0001
0000
0101
0000
,
0010
1010
0000
0011
,
1000
0000
0100
0000
,
0010
1001
0000
0101
,
0100
0000
0001
1010
,
0000
1000
1000
0100
,
0100
0001
0001
0000
,
0100
0100
0010
0010
,
0001
0001
0000
1000
,
1100
0000
0001
0000
,
1010
0000
0100
0000
,
0011
0000
1000
0000
,
0110
0000
0001
0000
,
1000
0100
0010
0100
,
0001
1000
0001
0100
,
1000
0001
1000
0010
,
0001
1000
0001
0010
,
0110
0000
0000
1000
0000
0000
0100
0000
,
0000
0001
0000
0000
1000
0000
0100
0000
,
0001
0000
0000
0000
;

//---------------dance-single - ----------------
#NOTES:
     dance-single:
     :
     Medium:
     7:
     0.563,0.586,0.480,0.098,0.000,414.000,59.000,12.000,0.000,0.000:
0000
0000
0000
0000
,
0000
0000
0000
0000
,
0000
0000
0000
0000
,
0000
0000
0000
0000
,
1000
0100
0010
0100
,
0001
1000
0001
0100
,
1000
0001
0100
0010
,
0001
1000
0001
0010
,
1000
0011
0100
0010
,
0001
1001
0010
0100
,
0001
1100
1000
0001
,
0100
1001
0010
1001
,
0001
0000
0100
0010
0000
1000
0010
0000
,
1000
0000
0001
0010
0000
0100
0010
0000
,
0001
0000
1000
0010
0000
0100
0001
0000
,
1000
0000
0001
0010
0000
0100
1000
0000
,
0001
0010
0001
0000
1000
0001
1000
0000
,
0010
1000
0010
0000
0100
0001
0100
0000
,
0001
0100
0010
0000
0100
0010
1000
0000
,
0001
1000
0100
0000
0100
0010
0000
0010
,
0001
1000
0001
0000
0000
0100
0010
0000
,
1000
0010
1000
0010
0000
0100
0000
0001
,
1000
0100
1000
0000
0001
0010
0001
0000
,
1000
0001
0000
0100
0000
0010
1000
0001
,
0100
0000
0101
0000
0001
1000
0100
0000
,
1000
0000
1001
0000
0010
0001
1000
0000
,
0010
0000
0110
0000
1000
0001
0100
0000
,
0010
0000
1001
0000
0001
1000
1001
0000
,
2020
0000
0000
3030
0000
1000
0001
0000
,
0022
0000
0000
0033
0000
0001
1000
0000
,
1100
0000
0000
1001
0000
0000
0101
0000
,
0000
1001
0000
0000
1010
0000
0101
0000
,
0010
0010
0000
0000
1000
0000
0001
0000
,
0100
1000
0100
0010
,
1000
1000
0000
0000
0010
0000
1000
0000
,
0001
0010
1000
0010
,
0010
0000
0002
0000
0000
2003
0000
0000
,
3020
0000
0000
2030
0000
0000
3000
0000
,
0100
0000
2000
0000
0000
3002
0000
0000
,
0203
0000
0000
0302
0000
0000
0003
0000
,
1000
0000
0100
1000
0000
0001
0000
0000
,
0100
0001
0000
1000
0000
0000
0010
0000
,
1000
0000
0100
0010
0000
1000
0000
0000
,
0010
0000
0001
0000
0010
0001
0010
0001
,
0010
1100
0001
1000
,
0100
0011
0001
0100
,
0010
1001
0100
0001
,
1000
0011
0001
1000
,
0100
1000
0000
1000
0010
0100
0000
0001
,
0100
1000
0100
0010
,
1000
0001
0000
0001
0010
0100
0000
1000
,
0100
0010
1000
0010
,
0001
1001
1100
1001
,
0100
0101
1001
0101
,
0010
1010
1001
0101
,
1000
1100
0110
0011
,
1000
0000
0001
0000
0100
0100
0001
0000
,
1000
1000
0001
0000
0010
0010
0100
0000
,
1000
0000
1000
0000
0001
0001
0100
0000
,
0010
0010
1000
0000
0100
0100
1000
0000
,
1001
0000
0000
0000
,
0001
0000
0001
0001
,
1000
0100
0001
0100
,
1000
0010
0001
1000
,
0100
0010
1000
0001
,
0010
0100
0001
1000
,
0010
0110
0100
1100
,
0001
0101
1000
1100
,
0010
0110
0001
1001
,
0010
1000
0100
0000
0010
0001
0100
0000
,
0001
0000
1000
0000
0010
0001
0000
0000
,
1000
0000
0100
0010
0000
0000
1000
0000
,
0001
0100
1000
0001
,
1000
0100
0010
1000
,
0001
0000
1100
0000
1000
0100
0010
0000
,
0010
0001
1000
0000
0010
1000
0001
0000
,
1000
0000
1000
0000
0001
0010
0011
0000
,
0100
0000
0100
0000
1000
0010
1010
0000
,
0100
0000
0001
1000
0100
0010
0000
0010
,
0001
0110
1000
0011
,
1000
0000
0001
1000
0010
0100
0000
0100
,
0001
0000
1000
0000
0010
1000
0001
1000
,
0100
0000
0010
0000
0001
0100
0000
0001
,
0010
0000
0100
1000
0000
0010
1000
0000
,
0001
1100
0010
1100
,
0001
0000
0010
0001
1000
0001
0100
0000
,
0110
0000
1000
0010
0000
0001
0010
0000
,
0100
0000
0001
1000
0000
0100
0010
0000
,
0100
0000
1000
0100
0000
0001
0100
0000
,
0010
0000
0001
1000
0000
0010
0100
0000
,
0001
0000
0011
0000
0100
0001
1000
0000
,
0010
0000
1010
0000
0100
1000
0001
0000
,
0010
0000
0100
0000
1000
0001
0101
0000
,
0001
0000
1000
0000
0010
1000
1001
0000
,
0011
0000
0000
1010
0000
0000
1100
0000
,
0000
0101
0000
0000
1001
0000
0110
0000
,
1000
1000
0000
0000
0000
0000
0000
0000
;

//---------------dance-single - ----------------
#NOTES:
     dance-single:
     :
     Beginner:
     1:
     0.157,0.273,0.106,0.000,0.000,122.000,13.000,0.000,0.000,0.000:
0000
0000
0000
0000
,
0000
0000
0000
0000
,
0000
0000
0000
0000
,
0000
0000
0000
0000
,
1000
0000
0000
0000
,
1000
0000
0000
0000
,
1000
0000
0000
0000
,
1000
0000
0000
0000
,
0001
0000
0000
0000
,
0001
0000
0000
0000
,
0001
0000
0000
0000
,
0001
0000
0000
0000
,
1000
0000
0000
0000
,
0010
0000
0000
0000
,
1000
0000
0000
0000
,
0100
0000
0000
0000
,
0001
0000
0000
0000
,
0100
0000
0000
0000
,
0001
0000
0000
0000
,
0010
0000
0000
0000
,
1001
0000
0000
0000
,
0010
0000
0010
0000
,
0000
0000
1000
0000
,
1000
0000
0000
0000
,
0001
0000
0000
0000
,
0100
0000
0000
0000
,
1000
0000
0000
0000
,
0010
0000
0000
0000
,
1001
0000
0000
0000
,
1001
0000
0000
0000
,
0110
0000
0000
0010
,
0000
0000
0100
0000
,
0100
0000
0000
0000
,
0000
0000
0000
0000
,
1001
0000
0000
0000
,
0001
0000
0001
0000
,
1000
0000
0000
0000
,
0000
0000
0000
0000
,
0000
0000
0000
0000
,
0000
0000
0000
0000
,
0010
0010
0000
0000
,
0010
0000
0000
0000
,
0100
0100
0000
0000
,
0100
0000
0000
0000
,
1000
0000
0001
0000
,
1000
0000
0000
0000
,
0001
0000
0100
0000
,
0001
0000
0000
0000
,
1000
0000
0000
1000
,
1000
0000
0000
0000
,
0001
0000
0000
0001
,
0001
0000
0000
0000
,
1000
0000
0100
0000
,
1000
0000
0000
0000
,
0100
0000
0010
0000
,
0100
0000
0000
0000
,
0001
0001
0001
0000
,
0001
0000
0000
0000
,
0100
0100
0100
0000
,
0100
0000
0000
0000
,
0110
0000
0000
0000
,
1001
0000
1001
0000
,
0010
0000
0010
0000
,
0010
0000
0010
0000
,
1000
0000
1000
0000
,
1000
0000
1000
0000
,
0001
0000
0001
0000
,
0001
0000
0001
0000
,
0100
0000
0100
0000
,
0100
0000
0100
0000
,
0100
0000
0000
0000
,
0000
0000
0000
0000
,
1000
0000
0010
0000
,
1000
0000
0010
0000
,
1000
0000
0000
0000
,
0100
0000
1000
0000
,
0100
0000
1000
0000
,
0100
0000
0000
0000
,
0010
0000
0001
0000
,
0010
0000
0001
0000
,
0010
0000
0000
0000
,
0001
0010
0000
0010
,
0001
0000
0000
0000
,
1000
0000
0000
0000
,
0010
0000
0000
0000
,
0001
0000
0000
0000
,
1001
0000
0000
0000
,
0100
0000
0000
0000
,
1001
0000
0000
0000
,
0010
0000
0000
0000
,
0110
0000
0000
0000
,
1000
0000
0000
0000
,
0110
0000
0000
0000
,
0001
0000
0000
0000
,
0100
0100
0000
0000
,
0010
0010
0000
0000
,
1001
0000
0000
0000
;

//---------------dance-single - ----------------
#NOTES:
     dance-single:
     :
     Challenge:
     12:
     0.964,1.000,1.000,0.098,0.484,694.000,124.000,12.000,80.000,0.000:
0000
0000
0000
0000
,
0000
0000
0000
0000
,
0000
0000
0000
0000
,
0000
0000
0000
0000
,
0001
0100
1000
0001
0010
1000
0001
0010
,
1000
0001
0100
1000
1000
0010
0100
0001
,
1000
0100
0001
1000
0010
0001
1000
0010
,
0001
1000
0100
0001
0000
0001
0010
0100
,
1000
0100
1100
1000
0001
0100
0110
0010
,
1000
0100
1100
1000
0001
0100
1100
1000
,
0100
0010
1001
0100
0001
1000
0110
0001
,
1000
0100
0011
1000
0000
0001
0100
0010
,
1000
0100
M001
0001
0100
100M
1000
0010
,
M001
0001
0010
100M
1000
0100
0010
0010
,
0001
0100
100M
1000
0100
M001
0001
0010
,
100M
1000
0010
M001
0000
0100
0010
1000
,
1001
0001
0011
0000
1100
1000
1001
0000
,
0110
0010
0101
0000
1001
1000
0011
0000
,
0110
0100
1001
0000
1010
1000
0101
0000
,
1000
0000
0001
0100
0001
0000
1000
0000
0100
0010
0000
0010
0001
0000
1000
0010
,
1000
0001
1001
1000
0010
0110
0100
0001
,
1001
1000
0001
0011
1000
0100
1000
0010
,
0100
0001
1010
1000
0001
1100
0100
0010
,
1001
0000
0001
0000
0100
0000
0010
0100
0000
0001
1000
0000
1100
0000
0100
0000
,
1000
0000
0000
0000
0101
0000
0000
1000
0000
0100
0010
0000
0010
0000
0100
1000
,
0001
0000
0000
0000
0100
0010
0100
0000
0001
0000
0001
0100
0010
0000
1000
0000
,
1001
0000
0000
0000
0100
1000
0000
0001
1000
0000
0010
0000
0100
0001
1000
0000
,
0001
0000
0000
0000
1000
0010
0000
0000
0101
0000
1001
0000
1100
0000
0110
0000
,
2002
0000
0000
3003
M00M
1001
M00M
0000
,
0220
0000
0000
0330
0MM0
0110
0MM0
0000
,
1100
0000
0001
0110
0000
0100
0011
0000
,
1000
0101
0000
0001
1010
0000
0011
0000
,
1001
0000
0110
0000
0000
MMMM
0000
0000
0100
0000
0000
0000
0M10
0000
0001
0000
,
00M1
0000
0001
1000
100M
0000
M100
0000
,
1010
0000
0101
0000
0000
MMMM
0000
0000
1000
0000
0000
0000
M100
0000
0010
0000
,
0M10
0000
0001
0100
100M
0100
M000
0M10
,
00M0
0000
2000
0000
0000
0200
0000
3000
,
0002
0000
0000
0300
0000
0000
0020
0000
0000
0003
0000
0000
1000
0000
0000
0030
,
0000
0000
0000
0000
0002
0000
0000
0000
0000
0000
0200
0000
0000
0003
0000
0000
,
2000
0000
0000
0300
0000
0000
0020
0000
0000
3000
0000
0000
0001
0000
0030
0000
,
0010
0000
0001
0100
0000
100M
0010
0000
,
0001
1000
0100
0010
0000
0001
0100
0000
,
0001
0000
1000
0100
0000
M001
0010
0000
,
1000
0000
0000
0000
1000
0000
0000
0000
0001
0000
0001
0000
1000
0001
0100
0010
,
0100
0100
1001
0000
1000
1100
0110
0000
,
0100
1100
1001
0000
0010
0110
1001
0000
,
1010
1001
1010
0000
0110
1010
0110
0000
,
0101
1001
1010
0000
1100
0110
0011
0000
,
1000
0000
1000
0010
0100
0000
0000
0100
0001
0000
0001
1000
0010
0000
0000
1000
,
0100
0000
0100
0010
0001
0000
0000
0001
0100
0000
0100
0000
0010
1000
0000
0001
,
0010
0000
0100
0010
0001
0000
0000
1000
0010
0000
0100
0001
1000
0000
0000
0100
,
0010
0000
0100
0010
0001
0000
1000
0000
0010
0100
0001
1000
0001
0010
0000
0010
,
0100
0000
0000
0100
1000
0000
0000
1000
0010
0000
0000
0010
0001
0000
0000
0001
,
0010
0000
0000
0010
0100
0000
0000
0100
1000
0000
0000
1000
0100
0000
0000
0100
,
0001
0000
0000
1000
0100
0000
0000
0010
0001
0000
0000
1000
0010
0000
0000
0100
,
1000
0000
0000
0100
0001
0000
0000
1000
0100
0000
0000
0001
0100
0000
0000
0000
,
1000
0000
0100
1000
0100
0000
0010
0100
0010
0000
0001
1000
0001
0000
1000
0010
,
1000
0000
0001
0100
0001
0000
1000
0100
1000
0000
0001
0100
0001
0000
0100
0010
,
0100
0000
0001
0100
0010
0000
1000
0010
0100
0000
0001
1000
0100
0000
1000
0100
,
0010
0000
0001
1000
0010
0000
0100
0001
1000
0000
0001
0010
0100
0000
1000
0100
,
0010
0000
0000
0000
M00M
0000
0000
0MM0
0000
0000
0MM0
0000
0000
M00M
0000
0000
,
0101
0000
0101
0000
1100
0000
1100
0000
0010
1000
0010
1000
0001
0010
0001
0010
,
0001
0000
1000
0100
M001
1000
001M
0100
,
1000
0010
M001
0100
0000
0001
0010
1000
,
0001
000M
0001
1000
0100
M001
0010
0001
,
0000
0100
1000
0001
1000
0010
M001
1000
,
0001
0000
1010
1000
1001
0001
0011
0010
,
0110
0000
0100
0000
1100
0000
1000
0000
0000
M000
0001
0000
1001
0000
1000
0000
,
0001
0000
0000
000M
0110
0000
1000
0000
0001
0000
0100
0000
0010
0000
1000
0000
,
0001
0100
0010
0100
0001
1000
0001
0010
0100
1000
0001
1000
0100
0010
0100
1000
,
0001
0000
0001
1000
0010
M001
1000
010M
,
M001
1000
001M
M001
1000
010M
0010
1000
,
0001
0000
1000
0100
M001
0100
100M
0010
,
1000
0001
0100
100M
0100
M001
0010
0001
,
1000
M000
0110
0000
0011
1000
0011
0100
,
0011
0000
1000
0000
0001
0010
0100
0000
0100
1000
0001
1000
0010
0100
0001
1000
,
0001
0000
1000
0100
1000
0001
1000
0010
1000
0000
0001
0100
0001
1000
0001
0010
,
0001
0000
1000
0100
0010
0100
1000
0001
0100
0000
0001
1000
0010
1000
0001
0010
,
0100
0000
1100
0001
0100
0010
00M0
1000
,
0101
0010
0001
0100
0M00
0010
1100
0100
,
0M00
0010
1001
0100
1001
0010
0000
0001
,
1000
0100
0010
0001
1000
0010
0100
0001
1000
0010
1000
0001
0010
0001
1000
0010
,
1000
0000
1000
0100
M001
0100
000M
1000
,
0M10
M001
0010
100M
0000
0100
0010
0000
,
00M0
0001
0100
0010
1010
1000
0100
0001
,
0101
0010
0001
0100
1010
1000
0010
0001
,
0011
0000
0001
1000
1100
0001
1001
0000
,
0101
0000
1010
1000
0110
0010
1001
0000
,
0100
0000
1001
0011
1001
1100
1001
0000
,
0010
0000
1010
0110
0101
1001
0110
0000
,
1000
0000
1100
0011
1100
1001
0110
0000
,
1001
0000
1010
0101
1010
0011
1100
0000
,
0001
0000
0100
0010
1000
0000
0100
0010
0001
0000
1000
0010
0100
0000
0001
0010
,
0100
0000
1000
0001
0100
0000
0010
1000
0100
0010
0001
0100
0010
0000
0100
0000
,
0101
0000
0000
0M0M
1000
0000
1010
0000
0010
0000
0100
0000
0101
0000
0000
0M0M
,
1000
0000
0100
0000
0001
0000
0100
0000
0110
0000
0001
0000
1001
0000
0000
M00M
,
0110
0110
0MM0
0000
0000
0000
0000
0000
;

//---------------dance-double - ----------------
#NOTES:
     dance-double:
     :
     Hard:
     9:
     0.657,0.666,0.358,0.065,0.069,514.000,44.000,8.000,10.000,2.000:
00000000
00000000
00000000
00000000
,
00000000
00000000
00000000
00000000
,
00000000
00000000
00000000
00000000
,
00000000
00000000
00000000
00000000
,
00000010
00000001
00001000
00000000
00000100
00000010
00000000
00000001
,
00000010
00000000
00000001
00001000
00000000
00001000
00000010
00010000
,
00001000
00100000
00001000
00000000
01000000
00100000
00000000
10000000
,
00100000
00000000
10000000
01000000
00000000
00100000
00001000
00010000
,
00001000
00010100
00001000
00101000
,
00010000
00001000
01000000
00001000
00010000
00000010
00010000
00000000
,
00000100
00001100
00000010
00001001
,
00000001
00000100
00000101
00000000
00001000
00000010
00001010
00000000
,
00000010
00000000
00000100
00001000
00000000
00010000
00001000
00000000
,
01000000
00010000
10000000
01000000
00000000
00100000
10000000
00000000
,
00100000
00000000
01000000
00010000
00000000
00001000
00010000
00000000
,
00001000
00000010
00000100
00001000
00000000
00000001
00001000
00000000
,
00000001
00000001
00001000
00000000
00000100
00000100
00000010
00000000
,
00001000
00001000
00010000
00000000
00010000
00010000
00001000
00000000
,
00010000
00010000
01000000
00000000
10000000
10000000
00010000
00000000
,
00100000
00100000
00010000
10000000
00100000
00100000
01000000
00000000
,
00001000
00010000
01000000
00000000
00000000
00100000
00101000
00000000
,
01000000
00001000
00010000
00001000
00000000
00000010
00001000
00000000
,
00010000
00001000
00000010
00000000
00000000
00000001
00000101
00000000
,
00000010
00010000
00001000
00000000
00000000
00010000
00001000
00000100
,
00001000
00000000
00000110
00000000
00000001
00001000
00000010
00000000
,
00010000
00000000
00001100
00000000
00010000
00001000
00100000
00000000
,
01000000
00000000
10010000
00000000
10000000
00010000
00100000
00000000
,
00001000
00000000
00011000
00000000
00010000
00010000
00001000
00001000
,
00022000
00000000
00000000
00000000
00000000
00000000
00033000
00000000
00000000
00000000
00010100
00000000
00000000
000M0M00
00000000
00000000
,
00002002
00000000
00000000
00000000
00000000
00000000
00003003
00000000
00000000
00000000
00000110
00000000
00000000
00000MM0
00000000
00000000
,
00001001
00000000
00000000
00011000
00000000
00000000
10010000
00000000
,
00000000
00011000
00000000
00000000
00100010
00000000
00011000
00000000
,
00010000
00000000
00001000
00000000
00000000
000MM000
00000000
00000000
00010000
00000000
00000000
00000000
00000100
00000000
00000000
00000000
,
00000010
00001000
00100000
01000000
,
10000000
00000000
01000000
00000000
00000000
MM000000
00000000
00000000
10000000
00000000
00000000
00000000
01000000
00000000
00000000
00000000
,
00010000
00000010
00000100
00001000
,
00200000
00000000
00000000
00000000
00000000
02000000
00000000
00000000
,
00000000
00000000
00000000
00010000
00000000
00000000
03300000
00000000
,
00000000
00000000
00020000
00000000
00000000
00000020
00000000
00000000
,
00000000
00000000
00000000
00001000
00000000
00000000
00030030
00000000
,
00001000
00000000
00000001
00000010
00000000
00000010
00001000
00000000
,
00001000
00010000
00000100
00001000
00000000
00000100
00010000
00001000
,
01000000
00000000
10000000
01000000
00000000
01000000
00010000
00000000
,
00100000
00000000
00100000
00000000
00001000
00001000
00010000
00010000
,
00001000
00000110
00000001
00001010
,
00000100
00011000
00100000
10010000
,
01000000
00101000
01000000
00011000
,
00000100
00010010
00000100
00011000
,
00001000
00010000
00100000
00000000
00010000
00100000
01000000
00000000
,
00010000
10000000
01000000
00000000
00100000
01000000
00010000
00000000
,
00001000
00010000
00000100
00000000
00000010
00001000
00010000
00000000
,
00000100
00010000
00001000
00000000
00010000
00001000
00000100
00000000
,
00000010
00000000
00000000
00000010
00000100
00000000
00000000
00000000
00000001
00000000
00000000
00000001
00001000
00000000
00000000
00000000
,
00000100
00000000
00000000
00000100
00010000
00000000
00000000
00010000
00001000
00000000
00000000
00001000
00010000
00000000
00000000
00000000
,
00010000
00000000
00000000
00010000
00000100
00000000
00000000
00000000
01000000
00000000
00000000
01000000
00001000
00000000
00000000
00000000
,
00100000
00000000
00000000
00100000
00010000
00000000
00000000
00010000
10000000
00000000
00000000
10000000
00010000
00000000
00000000
00000000
,
10000000
00100000
01000000
00000000
00010000
10010000
00000000
00100000
,
00101000
00000000
00010000
00000000
00001000
00010000
00010100
00000000
,
00001000
00000010
00000100
00000000
00000001
00001010
00000000
00001000
,
00000011
00000000
00000100
00000000
00001000
00000010
00000101
00000000
,
00000110
00000000
00000000
00000000
,
00010000
00000000
00001000
00000000
00010000
00000000
00001000
00000000
00010000
00001000
00010000
00000000
00001000
00010000
00001000
00000000
,
00010000
00000000
00001000
00100000
00010000
10000000
00100000
01000000
,
00010000
10000000
01000000
00100000
00000000
00001000
00010000
00000010
,
00001000
00000000
00000100
00010000
00000010
00001000
00000001
00000010
,
00000000
00000010
00000100
00000100
00001000
00000001
00000100
00000010
,
00010000
00000000
00001000
00100000
01000000
10000000
00010000
01000000
,
00001000
00010000
00000010
00000100
00000000
00000010
00001000
00000001
,
00000010
00000000
00000001
00000100
00000010
00001000
00000100
00010000
,
00001000
00100000
00010000
01000000
00100000
10000000
00010000
00100000
,
00001000
00000000
00000010
00000000
00000000
00001000
00000000
00000000
,
01000000
00000000
00000000
00100000
00000000
00000000
00010000
00000000
,
00001000
00000000
00000010
00000001
00001000
00001000
00000010
00010000
,
00001000
00001000
00100000
00010000
10000000
10000000
00100000
01000000
,
00010000
00000000
01100000
00000000
10000000
00010000
00100000
01000000
,
00010000
00001000
00100000
00001000
00010000
00001000
00000010
00000000
,
00000001
00000000
00000100
00001000
00010000
00000000
00010000
00001000
,
00000010
00000000
00000010
00000001
00000100
00000000
00000100
00001000
,
00010000
00000000
00001000
00100000
00010000
01000000
00000000
00010000
,
10000000
01000000
00010000
01000000
00000000
00100000
00001000
00010000
,
00000000
00010000
00001000
00010000
00100000
00010000
00000000
00001000
,
00100000
00010000
01000000
00001000
00010000
00000100
00000010
00001000
,
00010000
00000000
00000100
00000010
00000001
00001000
00000000
00000010
,
00000100
00000001
00001000
00000100
00000000
00000001
00000100
00000000
,
00000000
00010000
00001000
00100000
01000000
10000000
00010000
01000000
,
00100000
01000000
00001000
00010000
00000010
00001000
00000001
00000010
,
00000100
00001000
00000001
00000010
00000001
00001000
00000010
00001000
,
00000100
00010000
00000100
00001000
00000010
00010000
00001000
00000000
,
00010000
00001000
00010000
00100000
10000000
00010000
10000000
01000000
,
00100000
01000000
00010000
00001000
00000010
00000100
00001000
00000000
,
00000001
00001000
00000010
00000100
00001000
00010000
00100000
01000000
,
00010000
10000000
00100000
00010000
00001000
01000000
00010000
00000000
,
10000000
01000000
00010000
01000000
00100000
00001000
00010000
00000010
,
00000100
00000001
00000100
00001000
00010000
00001000
00100000
00000000
,
01100000
00000000
00000000
00011000
00000000
00000000
00000110
00000000
,
00000000
00011000
00000000
00000000
01000100
00000000
00011000
00000000
,
00010000
00000000
00001000
00000000
00000000
000MM000
00000000
00000000
00000000
00000000
00000000
00000000
00000000
00000000
00000000
00000000
;

//---------------dance-double - ----------------
#NOTES:
     dance-double:
     :
     Challenge:
     13:
     0.990,1.000,1.000,0.114,0.468,696.000,125.000,14.000,18.000,19.000:
00000000
00000000
00000000
00000000
,
00000000
00000000
00000000
00000000
,
00000000
00000000
00000000
00000000
,
00000000
00000000
00000000
00000000
,
10000000
01000000
00010000
10000000
00100000
00010000
10000000
01000000
,
00010000
00001000
00000010
00000001
00001000
00000010
00000100
00000100
,
00000001
00000100
00001000
00000001
00000010
00001000
00000001
00000100
,
00001000
00010000
00100000
10000000
00000000
01000000
00010000
00001000
,
01000000
00010000
10010000
10000000
01000000
00100000
00101000
00001000
,
00010000
00000100
00001100
00001000
00000001
00000100
00000110
00000010
,
00001000
00000001
00000101
00000010
00001000
00000100
00000110
00001000
,
00000100
00010000
00011000
01000000
00000000
00010000
10000000
01000000
,
10000000
00010000
00110000
00101000
00001000
00010000
00010100
00001000
,
00000001
00000010
00000011
00001001
00001000
00000100
00010100
00001000
,
01000000
00010000
01010000
10100000
10000000
01000000
01100000
10000000
,
00010000
00100000
00101000
00010100
00010000
00000010
00001100
00000000
,
00000100
00000010
00000001
00000000
00000100
00001000
00100000
00000000
,
01000000
10000000
00100000
00000000
00001000
00000010
00000001
00000000
,
00001000
00010000
00000100
00000000
00010000
01000000
10000000
00000000
,
00010000
00000000
10000000
01000000
00100000
00000000
01000000
00000000
00100000
00001000
00000000
00010000
00001000
00000000
00001000
00010000
,
00000100
00001000
00001001
00000001
00000100
00000110
00000010
00010000
,
00011000
00001000
01000000
01010000
00010000
00100000
01000000
10000000
,
00010000
01000000
01010000
00001000
00010000
00011000
00000100
00001000
,
00001100
00000000
00000001
00000000
00000001
00000000
00000100
00000010
00000000
00000100
00001000
00000000
00010000
00000000
00001000
00000000
,
00010000
00000000
000M0000
00000000
01000000
00000000
00000000
00100000
00010000
01000000
00010000
00000000
10000000
00000000
00100000
10000000
,
01000000
00000000
0M000000
00000000
01000000
00010000
00001000
00000000
00010000
00000000
00010000
00000010
00001000
00000000
00000100
00000000
,
00000010
00000000
000000M0
00000000
00000100
00000010
00000000
00000010
00001000
00000000
00010000
00000000
00000100
00010000
00000010
00000000
,
00001000
0000M000
00011000
00000000
00100010
00011000
01000100
00000000
,
02022000
00000000
00000000
03033000
00000000
01110000
00000000
00000000
,
22020000
00000000
00000000
33030000
00000000
00111000
00000000
00000000
,
00010110
00000000
00000000
00001011
00000000
00000000
00001110
00000000
,
00000000
00011100
00000000
00000000
00001010
00000000
01010000
00000000
,
10010000
11000000
MM000000
01000000
00010000
00000000
00000010
00001000
,
00000001
00000100
00010000
00000000
10000000
00010000
00000000
00100000
,
00101000
00011000
000MM000
00001000
00010000
00000000
00000100
00010000
,
00100000
00000000
10000000
00100000
00001000
00000010
00000000
00000100
,
00000000
00000000
00000002
00000000
00000000
00000200
00000000
00000000
,
00002000
00000000
00000000
00020000
00000000
00000000
00033303
00000000
,
00000000
00000000
00200000
00000000
00000000
00002000
00000000
00000000
,
00000200
00000000
00000000
00020000
00000000
00000000
00333300
00000000
,
00010000
00000000
00000010
00000100
00000000
00001000
00100000
00000000
,
01000000
00010000
00000100
00010000
00000000
00000010
00001000
00000100
,
01000000
00000000
00001000
01000000
00000000
00001000
00000010
00000000
,
00000100
00000000
00000000
00000000
00000100
00000000
00000000
00000000
00001000
00000000
00000001
00000000
00000010
00000001
00000100
00000010
,
00001000
00000000
00000010
00000000
00010000
00001000
00000000
00000000
00100000
00000000
01000000
00000000
10000000
00010000
00000000
00000000
,
10000000
00000000
00100000
00000000
00010000
00001000
01000000
00000000
00001000
00000000
00010000
00000000
00001000
00000010
00000000
00000000
,
00000001
00000000
00001000
00000000
00000010
00000100
00000000
00000000
00001000
00000000
00010000
00000000
00001000
00000010
00000000
00000000
,
00000100
00000000
00000010
00000000
00001000
00010000
00000100
00000000
00010000
00000000
01000000
00000000
10000000
00000000
00000000
00000000
,
10000000
00000000
00010000
01000000
00001000
00000000
00000000
00010000
00001000
00000000
00000010
00000100
00001000
00000000
00000000
00001000
,
00000001
00000000
00000001
00000100
00000010
00000000
00010000
00000000
00001000
00010000
00000000
01000000
00010000
00000000
01000000
00000000
,
10000000
00000000
00010000
01000000
10000000
00000000
00000000
01000000
00100000
00000000
00100000
00010000
00001000
00000000
00000000
00010000
,
00000100
00000000
00001000
00000010
00000100
00000000
00000000
00000100
00000001
00000000
00001000
00000100
00010000
00001000
00000000
00000010
,
00000001
00000000
00000000
00000001
00000100
00000000
00000000
00000100
00010000
00000000
00000000
00010000
01000000
00000000
00000000
01000000
,
10000000
00000000
00000000
10000000
00010000
00000000
00000000
00010000
00001000
00000000
00000000
00001000
00000010
00000000
00000000
00000010
,
00000100
00000000
00000000
00010000
00001000
00000000
00000000
10000000
00100000
00000000
00000000
01000000
00100000
00000000
00000000
00010000
,
00001000
00000000
00000000
00000010
00000001
00000000
00000000
00000100
00000010
00000000
00000000
00010000
00001000
00000000
00000000
00000000
,
00010000
00000000
00001000
00100000
00010000
00000000
10000000
01000000
00100000
00000000
00010000
01000000
00001000
00000000
00010000
00000100
,
00000010
00000000
00000001
00001000
00000010
00000000
00000100
00000010
00010000
00000000
00001000
00100000
00010000
00000000
01000000
00100000
,
10000000
00000000
00010000
01000000
10000000
00000000
01000000
00010000
00100000
00000000
00001000
00010000
00000010
00000000
00001000
00000010
,
00000001
00000000
00000010
00000100
00000001
00000000
00000100
00001000
00010000
00000000
00001000
00010000
00000100
00000000
00000010
00001000
,
00010000
00000000
00000000
00000000
,
00010100
00000000
00011000
00000000
01001000
00000000
00011000
00000000
00100000
00001000
01000000
00001000
00010000
00000010
00010000
00000100
,
00001000
00000000
00001001
00000010
00001000
00010010
00001000
00010000
,
01100000
10000000
00010000
01100000
00000000
00010000
00000100
00000010
,
00001000
00000000
00011000
00000100
00001000
00000011
00000100
00001001
,
00000000
00010000
00001000
00001000
00010100
00010000
01001000
00001000
,
10010000
00000000
01100000
10000000
10010000
01010000
00011000
00001000
,
00010100
00011000
00010010
00001010
00000000
00000001
00000011
00001001
,
00001100
00000000
00000110
00001000
00010100
00011000
00100000
00010000
,
10000000
00010000
00100000
01000000
00100000
00001000
00010000
00000100
00001000
00000100
00010000
00001000
00010000
00000010
00000100
00000001
,
00001000
00000000
00001001
0000M00M
00000000
00011000
000MM000
00000000
,
10010000
M00M0000
00000000
00011000
000MM000
00000000
00000001
0000000M
,
00001000
0000M000
00000001
00000100
00001000
00100000
01000000
10000000
,
00100000
00010000
00000100
00000010
00000001
00000100
00010000
01000000
,
00100000
00000000
10010000
00000000
11000000
01100000
00110000
00011000
,
00001000
00000000
00010000
00000000
00000100
00001000
00000010
00000000
00000100
00000001
00000010
00000001
00001000
00000100
00000010
00000100
,
00001000
00000000
00000001
00000100
00000010
00001000
00000010
00010000
00001000
00000000
00010000
00000100
00010000
00001000
01000000
00001000
,
00010000
00000000
00001000
01000000
00001000
00010000
00100000
01000000
00010000
00000000
10000000
01000000
00100000
01000000
00010000
00001000
,
00010000
00000000
00000001
00000100
00001000
00010000
00001000
00000010
,
00000001
00000100
00001000
00010000
00000000
00100000
00010000
00001000
,
00000000
10100000
01010000
00101000
00010100
00001010
00000000
00000001
,
00000001
00000010
00000100
00001000
00000100
00010000
00001000
00100000
00010000
00100000
01000000
10000000
00010000
10000000
01000000
00010000
,
01000000
00000000
10000000
01000000
00010000
00001000
00000000
00000010
,
00000001
00000100
00001000
00010000
00000000
00100000
10000000
00000000
,
00000000
01000000
00010000
00000010
00000100
00001000
00100000
01000000
,
00010000
00000010
00000100
00001000
00100000
01000000
10000000
00000000
,
10100000
10000000
10010000
00010000
00110000
00100000
00101000
00001000
,
00011000
00010000
00010010
00000010
00000110
00000100
00000101
00000000
,
00000110
00001000
00000110
00000001
00001010
00010000
00001010
00000100
,
00011000
00000010
00011000
00100000
01001000
00010000
01001000
00000000
,
10100000
10010000
01010000
01001000
00011000
00010010
00011000
00010100
,
00001100
00001001
00000011
00001001
00000101
00000110
00001010
00000000
,
00000001
00000000
00000010
00000100
00001000
00000000
00000100
00010000
00001000
00000000
00010000
00100000
01000000
00000000
00010000
10000000
,
01000000
00000000
00010000
00001000
00100000
00000000
00001000
00010000
00000100
00000010
00001000
00010000
00000100
00000000
00001000
00000000
,
00000011
00000000
00001000
00001011
00000000
00000100
00011100
00000000
,
01000000
01101000
00000000
00010000
10110000
00000000
00111000
00000000
,
01011100
01011100
00000000
00000000
00000000
00000000
00000000
00000000
;

//---------------dance-double - ----------------
#NOTES:
     dance-double:
     :
     Medium:
     7:
     0.519,0.547,0.341,0.049,0.000,399.000,42.000,6.000,0.000,0.000:
00000000
00000000
00000000
00000000
,
00000000
00000000
00000000
00000000
,
00000000
00000000
00000000
00000000
,
00000000
00000000
00000000
00000000
,
10000000
01000000
00010000
00001000
,
00000010
00000001
00001000
00001000
,
00000001
00000100
00001000
00010000
,
00100000
10000000
00010000
00010000
,
10000000
10010000
00100000
00001000
,
00010000
00011000
00001000
00000010
,
00000100
00001001
00001000
00000010
,
00010000
00001100
00000100
00010000
,
00001000
00000000
00100000
00001000
00000000
00010000
00001000
00000000
,
00010000
00000100
00010000
00001000
00000000
00001000
01000000
00000000
,
00010000
00000000
00100000
01000000
00000000
00100000
00010000
00000000
,
10000000
00010000
00100000
00010000
00000000
01000000
00010000
00000000
,
10000000
01000000
10000000
00000000
01000000
00100000
01000000
00000000
,
00100000
00001000
00100000
00000000
00001000
00010000
00001000
00000000
,
00010000
00000010
00010000
00000000
00000010
00000100
00000010
00000000
,
00000100
00000001
00000100
00000000
00000010
00000100
00000000
00000010
,
00001000
00000001
00001000
00000000
00000000
00000100
00000010
00000000
,
00000100
00001000
00000100
00010000
00000000
00001000
00010000
00000000
,
00001000
01000000
00010000
00000000
00000000
10000000
01000000
00000000
,
10000000
01000000
00100000
00010000
00000000
00010000
10000000
00000000
,
00010000
00000000
10000000
00100000
00000000
01000000
00000000
00001000
,
00010000
00000000
00000100
00000000
00001000
00000100
00000010
00000000
,
00000001
00000000
00001000
00000010
00000000
00010000
00000000
00000100
,
00001000
00000000
00000100
00000000
00010000
00001000
00010000
00000000
,
00022000
00000000
00000000
00033000
00000000
00011000
00000000
00000000
,
00220000
00000000
00000000
00330000
00000000
00110000
00000000
00000000
,
10010000
00000000
00000000
10100000
00000000
00000000
01100000
00000000
,
00000000
01010000
00000000
00000000
00011000
00000000
00010100
00000000
,
00000100
00001000
00000000
00000000
00001000
00000000
00000100
00000000
,
00000010
00001000
00010000
00001000
,
00100000
01000000
00000000
00000000
10000000
00000000
01000000
00000000
,
00100000
01000000
00010000
00001000
,
00020000
00000000
00001000
00000000
00000000
00000100
00000000
00000000
,
00000010
00000000
00000000
00001000
00000000
00000000
00030000
00000000
,
00002000
00000000
00010000
00000000
00000000
00100000
00000000
00000000
,
01000000
00000000
00000000
00010000
00000000
00000000
00003000
00000000
,
01000000
00000000
00010000
10000000
00000000
01000000
10000000
00000000
,
01000000
00100000
00000000
00100000
00000000
00001000
00010000
00000000
,
00000100
00000000
00001000
00000001
00000000
00000100
00000001
00000000
,
00001000
00000000
00000001
00000000
00001000
00000001
00001000
00000001
,
00001000
00000010
00000100
00010000
,
01000000
00100000
00010000
10000000
,
01000000
00010000
00100000
00001000
,
00000010
00001000
00000001
00000100
,
00001000
00000100
00001000
00000000
00000001
00000000
00000100
00000000
,
00001000
00010000
00001000
00000000
00100000
00000000
00010000
00000000
,
10000000
00100000
01000000
00000000
00100000
00000000
00010000
00000000
,
00001000
00010000
00000100
00000000
00000010
00000000
00000001
00000000
,
00001000
00001010
00000001
00000101
,
00001000
00001100
00010000
00011000
,
00001000
00110000
00010000
11000000
,
10000000
01100000
00010000
00101000
,
00010000
00000000
00001000
00000000
00000010
00000100
00000000
00000000
,
00001000
00000000
00000001
00000000
00000100
00001000
00010000
00000000
,
00000010
00000000
00001000
00000000
00000100
00010000
00000000
00000000
,
00001000
00010000
10000000
01000000
,
01010000
00000000
00000000
00000000
,
10000000
01000000
10000000
01000000
00100000
00010000
00100000
00010000
,
10000000
01000000
00010000
00001000
,
00010000
00100000
01000000
00001000
,
00000100
00000001
00001000
00000100
,
00000010
00001000
00010000
01000000
,
10000000
00100000
00010000
00001000
,
00000001
00001000
00000010
00000100
,
00010000
00001000
00010000
10000000
,
00010000
00100000
01000000
00010000
,
10000000
00000000
00100000
00000000
00000000
00010000
00000000
00000000
,
00001000
00000000
00000000
00000010
00000000
00000000
00001000
00000000
,
00010000
00000100
00000010
00000001
,
00001000
00000010
00000100
00001000
,
00010000
00011000
00101000
00100000
,
01100000
10010000
10000000
00100000
,
01100000
10000000
01000000
00100000
,
00011000
00010000
00000010
00001000
,
00000110
00000001
00000010
00000100
,
00001000
00010000
00100000
01000000
,
10000000
01100000
00010000
01100000
,
10000000
00000000
00000000
00010000
00000000
00000000
00001000
00000000
,
00000100
00000010
00001000
00010000
,
00100000
00010000
00001000
00000010
,
00000000
00000100
00010000
01000000
,
00010000
00001000
00000100
00001000
,
00011000
00000000
00100000
00000000
00010000
00100000
01000000
00000000
,
10010000
00000000
10000000
00000000
00010000
01000000
00001000
00000000
,
00110000
00000000
00001000
00000000
00010000
00001000
00000010
00000000
,
00000110
00000000
00001000
00000000
00000001
00000100
00000010
00000000
,
00001000
00000000
00000001
00000010
00000100
00001000
00000100
00000000
,
00010000
00000000
00000100
00010000
00001000
00100000
00001000
00000000
,
01000000
00000000
00010000
01000000
00100000
10000000
00010000
00000000
,
10000000
00000000
01000000
00100000
00010000
00100000
00001000
00000000
,
00011000
00000000
00000000
00001100
00000000
00000000
00000101
00000000
,
00000000
00000011
00000000
00000000
00001010
00000000
00011000
00000000
,
00001000
00010000
00000000
00000000
00000000
00000000
00000000
00000000
;

//---------------dance-double - ----------------
#NOTES:
     dance-double:
     :
     Easy:
     3:
     0.289,0.351,0.228,0.049,0.000,215.000,28.000,6.000,0.000,0.000:
00000000
00000000
00000000
00000000
,
00000000
00000000
00000000
00000000
,
00000000
00000000
00000000
00000000
,
00000000
00000000
00000000
00000000
,
10000000
00000000
01000000
00000000
,
00010000
00000000
00001000
00000000
,
00010000
00000000
00000100
00000000
,
00001000
00000000
00000010
00000000
,
00000001
00000010
00000000
00000100
,
00000000
00001000
00000000
00010000
,
00001000
00010000
00000000
01000000
,
00000000
10000000
00000000
00010000
,
01000000
00000000
10000000
00000000
,
01000000
00000000
00010000
01000000
,
00100000
00000000
10000000
00000000
,
00010000
00100000
00000000
00100000
,
00001000
00000000
00011000
00000000
,
00000010
00000000
00000101
00000000
,
00001000
00000000
00001100
00000000
,
00000100
00001000
00000100
00010000
,
00001000
00000000
00010000
00000000
,
00010000
01000000
00000000
01000000
,
10000000
00000000
00010000
00000000
,
01000000
00100000
00000000
00100000
,
10000000
01000000
00000000
00010000
,
00000000
00000010
00000000
00001000
,
00000000
00000001
00000000
00000100
,
00000000
00001000
00000000
00100000
,
00020000
00000000
00000000
00030000
00000000
00010000
00000000
00000000
,
20000000
00000000
00000000
30000000
00000000
10000000
00000000
00000000
,
01000000
00000000
00000000
00100000
00000000
00000000
00001000
00000000
,
00000000
00010000
00000000
00000000
00000100
00000000
00001000
00000000
,
00001001
00000000
00000000
00000000
,
00000000
00000000
00000000
00000000
,
10010000
00000000
00000000
00000000
,
00010000
00100000
01000000
10000000
,
00000000
02000000
00000000
00000000
,
03020000
00000000
00000000
00030000
,
00000000
00002000
00000000
00000000
,
00003020
00000000
00000030
00000000
,
00000001
00000000
00000010
00000000
,
00000100
00000000
00001000
00000000
,
00010000
00000000
00100000
00000000
,
01000000
01000000
10000000
10000000
,
00000000
00010000
00000000
00011000
,
00000000
00000010
00001000
00000100
,
00000000
00000010
00000000
00001001
,
00000000
00000100
00010000
00001000
,
00010000
00000000
00001000
00001000
,
00001000
00000000
00100000
00100000
,
00100000
00000000
00010000
00010000
,
00010000
00000000
10000000
10000000
,
00000000
10010000
00000000
10010000
,
00000000
01010000
00000000
01010000
,
00000000
01001000
00000000
01001000
,
00000000
00011000
00000000
00011000
,
00000000
00010000
00000100
00000000
,
00001000
00000100
00000000
00001000
,
00000001
00000100
00000000
00000010
,
00000100
00000000
00000010
00010000
,
00001000
00000000
00000000
00000000
,
10010000
10010000
01100000
01100000
,
00000000
10000000
00000000
01000000
,
00000000
00010000
00000000
00000100
,
00000000
00000010
00000000
00001000
,
00000000
00010000
00000000
00000010
,
00000000
00000110
00000000
00000001
,
00000000
00000100
00000000
00001000
,
00000000
01000000
00000000
00100000
,
10000000
00100000
01000000
00010000
,
00000000
00010000
00000000
00100000
,
00000000
00001000
00000000
00000100
,
00000000
00000001
00000000
00000100
,
00000000
00001000
00000000
00010000
,
00000000
00001000
00100000
00000000
,
00100000
00010000
01000000
00000000
,
10010000
00000000
00010000
00000000
,
00101000
00000000
00100000
00000000
,
00011000
00000000
00001000
00000000
,
00010000
00001000
00000100
00000000
,
00000010
00000000
00001000
00000000
,
00000001
00000010
00000001
00001000
,
00000010
00000000
00000100
00000000
,
00001000
00000000
00100000
00000000
,
00000000
00010000
01000000
00000000
,
00100000
10000000
00000000
00010000
,
00110000
00000000
00000000
00010000
,
00011000
00000000
00000000
00001000
,
00000110
00000000
00000000
00000010
,
00001001
00000000
00000000
00000001
,
00001000
00000010
00010000
00000000
,
00001000
00100000
00010000
00000000
,
00001000
00010000
00100000
00000000
,
00010000
00001000
00000010
00000000
,
00000001
00000000
00000000
00000010
00000000
00000000
00001000
00000000
,
00000000
00010000
00000000
00000000
00100000
00000000
01000000
00000000
,
10010000
00000000
00000000
00000000
;
