#TITLE:Title screen;
#SUBTITLE:Wizards and Warriors III;
#ARTIST:David Wise;
#TITLETRANSLIT:;
#SUBTITLETRANSLIT:;
#ARTISTTRANSLIT:;
#CREDIT:;
#BANNER:TitleScreen-banner.png;
#BACKGROUND:TitleScreen-bg.png;
#LYRICSPATH:;
#CDTITLE:CDtitle1.png;
#MUSIC:01_-_title_screen.mp3;
#OFFSET:-0.132;
#SAMPLESTART:100.000;
#SAMPLELENGTH:12.000;
#SELECTABLE:YES;
#BPMS:0.000=143.216,52.000=71.625,64.000=143.250,184.000=71.625,196.000=143.250;
#STOPS:;
#BGCHANGES:;
// cache tags:
#FIRSTBEAT:0.000;
#LASTBEAT:263.667;
#SONGFILENAME:Songs/KBU/Title screen (DAshoe)/Title screen.sm;
#HASMUSIC:1;
#HASBANNER:1;
#MUSICLENGTH:135.862;
// end cache tags

//---------------dance-single - Blank----------------
#NOTES:
     dance-single:
     Blank:
     Hard:
     11:
     0.984,1.000,1.000,0.000,1.000,717.000,219.000,0.000,0.000,0.000:
0100
0000
0100
0011
0000
0000
0100
0000
0100
0001
1000
0010
,
0100
0000
0100
0011
0000
0000
0100
0000
0100
1000
0001
0010
,
1000
0100
0100
1000
0100
0100
1000
0010
0010
0100
0001
0100
,
0001
0010
0010
0001
0010
0010
0001
0100
0100
0011
0110
1100
,
1001
0000
0000
1010
0101
0110
1001
0110
1100
1010
0101
0110
,
1001
0000
1001
0110
0010
0001
0010
0100
0100
0010
0100
0100
,
1001
0000
1001
0110
0100
1000
0100
0010
0010
0100
0001
0001
,
1001
0000
1001
0110
0010
0001
0010
0100
0100
0010
0100
0100
,
1001
0000
1001
0110
0100
1000
0100
0000
1000
0001
0010
0010
,
1001
0000
1001
0010
0100
1000
0100
0010
0010
0100
0010
0010
,
1001
0000
1001
0110
0010
0001
0010
1000
1000
0010
1000
1000
,
1001
0000
1001
0010
0100
1000
0100
0010
0010
0100
0010
0010
,
1001
0000
1001
0100
0010
0001
0010
0000
0001
1000
0100
0010
,
1001
0000
1000
0100
1000
0000
1001
0000
0001
0001
0010
0000
0110
0000
0100
0100
1000
0000
1010
0000
0100
0100
0010
0000
,
1001
0000
0001
0010
0001
0000
1001
0000
1000
1000
0100
0000
0110
0000
0010
0010
0001
0000
0101
0000
0010
0010
0100
0000
,
1001
0000
0100
0100
0010
0000
1010
0000
0100
0100
0010
0000
1001
0000
1001
1001
1001
0000
1001
0000
0000
0000
0000
0000
,
1001
0000
0010
0101
1000
0100
0010
0000
0100
0010
0000
0010
,
1001
0000
0100
1010
0001
0010
0100
0000
0010
0010
0000
0100
,
1001
0000
0010
0101
1000
0100
0010
0000
0100
0010
1000
0100
,
1001
0000
0100
1010
0001
0010
0100
0000
0010
0010
1000
0100
,
1001
0000
0010
0101
1000
0100
0010
0000
0100
0010
0000
0010
,
1001
0000
0100
1010
0001
0010
0100
0000
0010
0010
0000
0100
,
1001
0000
0010
0101
1000
0100
0010
0000
0100
0010
1000
0100
,
1001
0000
0100
1010
0001
0010
0100
0000
0010
0010
1000
0100
,
1001
0000
0001
1001
0010
0001
1001
0000
0001
1001
0010
0100
,
1010
1010
1010
1010
0001
1000
0011
0100
0001
0010
0100
1000
,
0011
0011
0011
0011
0001
0010
0110
1000
0100
0001
0010
0001
,
1100
1100
1100
1100
1000
0001
0101
0010
1000
0100
0010
0001
,
0110
0110
0110
0110
0000
0000
1001
1001
1001
1001
0100
0010
,
0110
0110
0110
0110
0001
0010
0101
1000
0001
0100
1000
0010
,
0101
0101
0101
0101
0001
0100
1001
0010
1000
0001
0100
0001
,
1010
1010
1010
1010
0010
0001
1001
0100
0010
1000
0100
0001
,
1100
1100
1100
1100
0000
0000
0011
0011
0011
0011
1000
0100
,
0100
0000
0100
0011
0000
0000
0100
0000
0100
0010
1000
0001
,
0100
0000
0100
0011
0000
0000
0100
0000
0100
1000
0001
0010
,
1000
0100
0100
1000
0100
0100
1000
0010
0010
0100
0001
0100
,
0001
0010
0010
0001
0010
0010
0001
0100
0100
0011
0110
1100
,
1001
0000
0000
1000
0100
0010
0001
0010
0100
1000
0100
0010
,
1001
0000
1001
0100
0010
0001
0010
0100
0100
0010
0100
0100
,
1001
0000
1001
0010
0100
1000
0100
0001
0001
0100
0001
0001
,
1001
0000
1001
0100
0010
0001
0010
0100
0100
0010
0100
0100
,
1001
0000
1001
0010
0100
1000
0100
0000
1000
0001
0010
0010
,
1001
0000
1001
0010
0100
1000
0100
0010
0010
0100
0010
0010
,
1001
0000
1001
0100
0010
0001
0010
1000
1000
0010
1000
1000
,
1001
0000
1001
0010
0100
1000
0100
0010
0010
0100
0010
0010
,
1001
0000
1001
0100
0010
0001
0010
0000
0001
1000
0100
0010
,
1001
0000
1000
0100
1000
0000
1001
0000
0001
0000
0010
0000
0110
0000
0100
0100
1000
0000
1010
0000
0100
0100
0010
0000
,
1001
0000
0001
0010
0001
0000
1001
0000
1000
1000
0100
0000
0110
0000
0010
0010
0001
0000
0101
0000
0010
0010
0100
0000
,
1001
0000
0100
0100
0100
0000
1000
0000
0100
0100
0100
0000
1001
0000
1001
1001
1001
0000
1001
0000
0000
0000
0000
0000
,
1001
0000
0010
0101
1000
0100
0010
0000
0100
0010
0000
0010
,
1001
0000
0100
1010
0001
0010
0100
0000
0010
0010
0000
0100
,
1001
0000
0010
0101
1000
0100
0010
0000
0100
0010
1000
0100
,
1001
0000
0100
1010
0001
0010
0100
0000
0010
0010
1000
0100
,
1001
0000
0010
0101
1000
0100
0010
0000
0100
0010
0000
0010
,
1001
0000
0100
1010
0001
0010
0100
0000
0010
0010
0000
0100
,
1001
0000
0010
0101
1000
0100
0010
0000
0100
0010
1000
0100
,
1001
0000
0100
1010
0001
0010
0100
0000
0010
0010
1000
0100
,
1001
0000
0001
1001
0010
0001
1001
0000
0001
1001
0010
0100
,
1010
1010
1010
1010
0001
1000
0011
0100
0001
0010
0100
1000
,
0011
0011
0011
0011
0001
0010
0110
1000
0100
0001
0010
0001
,
1100
1100
1100
1100
1000
0001
0101
0010
1000
0100
0010
0001
,
0110
0110
0110
0110
0000
0000
1001
1001
1001
1001
0100
0010
,
0110
0110
0110
0110
0001
0010
0101
1000
0001
0100
1000
0010
,
0101
0101
0101
0101
0001
0100
1001
0010
1000
0001
0100
0001
,
1010
1010
1010
1010
0010
0001
1001
0100
0010
1000
0100
0001
,
1100
1100
1100
1100
0000
0000
0011
0011
0011
0011
1000
0100
;
