#TITLE:++;
#SUBTITLE:;
#ARTIST:Cardboard Box;
#TITLETRANSLIT:;
#SUBTITLETRANSLIT:;
#ARTISTTRANSLIT:;
#CREDIT:BoxX;
#BANNER:../Banner.png;
#BACKGROUND:../bg.png;
#LYRICSPATH:;
#CDTITLE:;
#MUSIC:Music.ogg;
#OFFSET:0.010;
#SAMPLESTART:59.775;
#SAMPLELENGTH:18.000;
#SELECTABLE:YES;
#BPMS:0.000=240.000,184.000=241.000,192.000=242.000,200.000=243.000,208.000=244.000,216.000=245.000,224.000=246.000,232.000=247.000,240.000=248.000,248.000=249.000,256.000=250.000,264.000=251.000,272.000=252.000,280.000=253.000,288.000=254.000,296.000=255.000,304.000=256.000;
#STOPS:;
#BGCHANGES:;
// cache tags:
#FIRSTBEAT:14.000;
#LASTBEAT:459.750;
#SONGFILENAME:Songs/Tachyon Epsilon/++ - [TheBoxX]/Simfile.sm;
#HASMUSIC:1;
#HASBANNER:1;
#MUSICLENGTH:112.546;
// end cache tags

//---------------dance-single - Mad Matt----------------
#NOTES:
     dance-single:
     Mad Matt:
     Challenge:
     20:
     1.000,1.000,0.062,0.400,1.000,1293.000,7.000,45.000,0.000,0.000:

0000
0000
0000
0000
,
0000
0000
0000
0000
,
0000
0000
0000
0000
,
0000
0000
0000
0000
1000
0100
0010
0001
,
2000
0000
0000
3010
0000
0000
0200
0000
,
0000
0302
2003
3200
,
0310
0100
1000
0002
0000
0000
0000
0000
,
0003
1000
0000
0010
0000
1000
0100
0010
,
0002
0000
0000
0013
0000
0000
0200
0000
,
0000
2300
3002
0203
,
0310
1000
0001
0010
0001
0100
0001
1000
0010
0100
0001
1000
0100
1000
0001
0010
,
0001
0100
0001
1000
0010
0100
0001
1000
0001
0010
0100
1000
0001
0010
0001
1000
,
0020
0000
0000
0130
0000
0000
0002
0000
,
0000
2003
3020
0230
,
0301
0010
0100
1000
0000
0100
0000
0010
,
0000
0001
0000
0100
0000
0001
0010
0100
,
2000
0000
0000
3010
0000
0000
0200
0000
,
0300
0010
1000
0100
1000
0001
1000
0100
,
0010
0001
1000
0010
1000
0100
1000
0001
0010
0100
1000
0001
0100
0001
1000
0010
,
1000
0100
1000
0001
0010
0100
1000
0001
1000
0010
0100
0001
1000
0010
1000
0001
,
0200
0000
0300
0110
0000
0000
2010
0000
,
0000
3001
0010
0001
0100
0000
0010
0000
,
2010
0000
3000
0110
0000
0000
0102
0000
,
2003
0000
3200
0000
0320
0000
0032
0003
,
2001
0000
3000
1100
0000
0000
1000
0002
,
0000
0000
0103
0000
0010
0000
1000
0000
0001
0010
0001
0000
1000
0000
0100
0000
,
0010
0010
0000
0000
0000
0001
0010
0200
,
0000
0000
0000
0000
0000
0000
0000
0000
0000
0000
0000
0000
1300
0001
0100
0001
,
1000
0100
0010
0001
1000
0001
0100
0010
1000
0100
0010
0001
1000
0010
1000
0001
,
0010
0100
0010
0001
1000
0001
0100
0010
1000
0100
0010
0001
1000
0010
1000
0001
,
0100
0010
0100
0001
1000
0001
0010
0100
1000
0010
0100
0001
1000
0100
1000
0001
,
0100
0001
0010
0100
1000
0001
1000
0010
1000
0001
0010
0001
0100
0010
1000
0001
,
0010
0100
1000
0001
1000
0010
0100
0001
0010
0100
1000
0001
0100
0001
1000
0100
,
0010
0100
1000
0001
1000
0010
0100
0001
0010
0100
1000
0001
0100
0001
1000
0010
,
1000
0100
0010
0001
1000
0001
0100
0001
1000
0100
1000
0010
1000
0001
0100
0010
,
1000
0100
0010
0001
1000
0001
0100
0010
1000
0001
0100
0001
0010
0001
1000
0100
,
0000
0000
0000
0000
,
0000
0000
0000
0000
1000
0100
1000
0010
0100
0010
1000
0001
0010
0001
0100
0010
,
0100
0001
1000
0100
0000
0000
1000
0100
1000
0001
0000
0000
0100
0010
0100
0001
,
0000
0000
1000
0100
1000
0001
0100
0010
0100
0001
1000
0001
0010
0100
0010
0001
,
1000
0100
1000
0001
0000
0000
0100
0010
0100
0001
0000
0000
1000
0100
1000
0001
,
0000
0000
0010
0100
0010
0001
0000
0000
1000
0010
1000
0001
0100
0010
0100
0001
,
1000
0001
0010
0100
0000
0000
1000
0001
0100
0010
0000
0000
1000
0001
0010
0100
,
0000
0000
1000
0001
0100
0010
0000
0000
1000
0001
0010
0100
1000
0001
0100
0010
,
1000
0001
0010
0100
1000
0010
0100
0001
1000
0001
0010
0100
1000
0001
0010
0001
,
0100
0001
1000
0010
0100
0001
1000
0100
0010
0001
0100
0001
1000
0010
0100
0001
,
1000
0001
0010
0100
1000
0010
0100
0001
1000
0001
0010
0100
1000
0001
0010
0001
,
0100
0001
1000
0010
0100
0001
1000
0100
0010
0001
0100
0001
1000
0010
0100
0001
,
1000
0100
0010
0100
1000
0001
0100
0010
0100
0001
1000
0001
0010
0100
0010
0001
,
0100
0001
1000
0010
0100
0001
1000
0001
0010
0100
1000
0001
1000
0010
0100
0001
,
1000
0100
0010
0100
1000
0001
0100
0010
0100
0001
1000
0001
0010
0100
1000
0001
,
0010
0001
0100
0001
1000
0010
0100
0001
1000
0001
0010
0100
0010
0001
1000
0010
,
0100
0001
1000
0100
1000
0010
0100
0001
1000
0001
0010
0001
1000
0010
0100
0001
,
1000
0001
0010
0100
1000
0001
1000
0010
0100
0001
1000
0100
1000
0001
0010
0001
,
1000
0100
0010
0001
0100
0010
1000
0001
1000
0100
0010
0100
1000
0010
0100
0001
,
1000
0001
0010
0100
1000
0001
1000
0010
0100
0001
1000
0100
1000
0001
0010
0001
,
1000
0100
0010
0100
1000
0001
0100
0010
0100
0001
1000
0001
0010
0100
0010
0001
,
0100
0001
1000
0010
0100
0001
1000
0001
0010
0100
1000
0001
1000
0010
0100
0001
,
1000
0100
0010
0100
1000
0001
0100
0010
0100
0001
1000
0001
0010
0100
1000
0001
,
0010
0001
0100
0001
1000
0010
0100
0001
1000
0001
0010
0100
0010
0001
1000
0001
,
0100
0010
1000
0001
1000
0100
0010
0100
1000
0010
0100
0001
1000
0001
0010
0001
,
1000
0010
0100
0001
1000
0100
1000
0010
1000
0001
0100
0001
1000
0010
0100
0001
,
1000
0100
0010
0001
0100
0001
1000
0010
0100
0001
1000
0001
0010
0100
1000
0010
,
0100
0001
1000
0001
0010
0001
0100
0010
1000
0001
1000
0100
1000
0010
0100
0001
,
1000
0001
0010
0100
1000
0001
0100
0010
1000
0001
1000
0100
0010
0100
1000
0010
,
1000
0001
0100
0010
1000
0001
1000
0100
1000
0001
0100
0001
1000
0010
0100
0001
,
1000
0001
0010
0100
1000
0010
0100
0001
1000
0100
1000
0001
0100
0010
1000
0001
,
0010
0100
0010
0001
0100
0001
1000
0010
0100
0001
1000
0100
0010
0001
0100
0010
,
1000
0001
1000
0100
1000
0010
0100
0001
1000
0001
0010
0100
1000
0001
0100
0010
,
0100
0001
1000
0001
0010
0100
1000
0001
1000
0010
0100
0001
0010
0100
1000
0001
,
1000
0010
0100
0001
1000
0001
0010
0001
0100
0010
1000
0001
0100
0010
1000
0001
,
1000
0100
0010
0001
1000
0001
0100
0010
1000
0001
1000
0100
1000
0010
0100
0001
,
1000
0100
0010
0001
1000
0100
1000
0010
1000
0001
0100
0010
1000
0001
1000
0100
,
0010
0001
1000
0100
1000
0010
1000
0001
0100
0010
1000
0001
1000
0100
1000
0001
,
0100
0010
1000
0001
0010
0100
1000
0001
1000
0010
0100
0001
1000
0010
0100
0001
,
1000
0001
0010
0100
1000
0001
1000
0010
0100
0001
1000
0010
1000
0100
1000
0001
,
0010
0100
1000
0001
1000
0010
0100
0001
1000
0010
1000
0100
1000
0001
0010
0100
,
1000
0001
1000
0010
0100
0001
1000
0010
1000
0100
1000
0001
0100
0010
1000
0001
,
1000
0100
0010
0001
1000
0001
0100
0010
1000
0001
1000
0100
1000
0010
0100
0001
,
1000
0100
0010
0001
1000
0010
0100
0001
,
1000
1000
0000
0001
0001
0000
0020
0000
,
0000
0230
2300
3002
,
0103
0010
0100
0001
1000
0000
0200
0000
0000
0000
0000
0000
0300
0000
1000
0100
,
1000
0001
0100
0010
1000
0001
1000
0100
0010
0100
1000
0010
0100
0001
1000
0001
,
0010
0010
0000
0100
0100
0000
2000
0000
,
3000
0000
0010
0000
1000
0000
0010
0000
0100
0010
0100
0000
0001
0000
1000
0000
,
0001
1000
0010
0100
0001
1000
0100
1000
0001
0010
0100
0010
0001
0100
0001
1000
,
0010
1000
0100
1000
0001
0010
0100
1000
0001
1000
0010
0100
0001
1000
0100
1000
,
0001
0001
0000
1000
1000
0000
0200
0000
,
0000
2300
3002
0203
,
0310
1000
0001
0100
0010
0100
0001
0000
0000
0000
1000
0000
0000
0000
0001
0000
,
0000
0000
0010
0000
0000
0000
0100
0010
0001
1000
0100
1000
0001
0100
0010
1000
,
0002
0000
0000
1003
0000
0000
0020
0000
,
0030
0000
1000
0000
0001
0000
0010
0000
0100
1000
0100
0000
1000
0000
0010
0000
,
1000
0001
0010
0100
0010
0001
0100
0001
1000
0010
0100
0001
1000
0100
0010
0001
,
1000
0010
0100
0001
1000
0010
1000
0100
1000
0001
0010
0100
1000
0001
0100
0010
,
1000
0001
1000
0000
0000
0000
0001
0100
0001
0000
0000
0000
1000
0100
1000
0000
,
0000
0000
0001
0000
0100
0000
0001
0000
1000
0100
0010
0100
1000
0001
0100
0010
,
2000
0000
0000
0000
0000
0000
3001
0000
0000
0000
0000
0000
0100
0010
1000
0001
,
0010
0100
1000
0001
1000
0010
0100
0001
1000
0100
0010
0100
1000
0010
0100
0001
,
2000
0000
0000
3010
0000
0000
0100
0002
,
0000
0000
1003
0000
0100
0000
1000
0000
0001
0010
0001
0000
1000
0000
0010
0000
,
0100
0100
0000
0000
0000
0010
1000
0002
,
0000
0000
0000
0003
,
1000
0010
0100
0001
1000
0001
0010
0100
1000
0010
0100
0001
1000
0100
1000
0001
,
0100
0010
0100
0001
1000
0001
0010
0100
1000
0010
0100
0001
1000
0100
1000
0001
,
0010
0100
0010
0001
1000
0001
0100
0010
1000
0100
0010
0001
1000
0010
1000
0001
,
0010
0001
0100
0010
1000
0001
1000
0100
1000
0001
0100
0001
0010
0100
1000
0001
,
0100
0010
1000
0001
1000
0100
0010
0001
0100
0010
1000
0001
0010
0001
1000
0010
,
0100
0010
1000
0001
1000
0100
0010
0001
0100
0010
1000
0001
0010
0001
1000
0100
,
1000
0010
0100
0001
1000
0001
0010
0001
1000
0010
1000
0100
1000
0001
0010
0100
,
1000
0010
0100
0001
1000
0001
0010
0100
1000
0001
0010
0001
0100
0001
1000
0010
,
0000
0000
0000
0000
,
0000
0000
0000
0000
1000
0100
1000
0010
0100
0010
1000
0001
0010
0001
0100
0010
,
0100
0001
1000
0100
0000
0000
1000
0100
1000
0001
0000
0000
0100
0010
0100
0001
;

//---------------dance-single - Mad Matt----------------
#NOTES:
     dance-single:
     Mad Matt:
     Hard:
     19:
     1.000,1.000,0.062,0.613,1.000,1173.000,7.000,69.000,0.000,0.000:













0000
0000
0000
0000
,
0000
0000
0000
0000
,
0000
0000
0000
0000
,
0000
0000
0000
0000
1000
0100
0010
0001
,
2000
0000
0000
3010
0000
0000
0200
0000
,
0000
0302
2003
3200
,
0310
0100
1000
0002
0000
0000
0000
0000
,
0003
1000
0000
0010
0000
1000
0100
0010
,
0002
0000
0000
0013
0000
0000
0200
0000
,
0000
2300
3002
0203
,
0310
1000
0001
0010
0001
0100
0001
1000
0010
0100
0001
1000
0100
1000
0001
0010
,
0001
0100
0001
1000
0010
0100
0001
1000
0001
0010
0100
1000
0001
0010
0001
1000
,
0020
0000
0000
0130
0000
0000
0002
0000
,
0000
2003
3020
0230
,
0301
0010
0100
1000
0000
0100
0000
0010
,
0000
0001
0000
0100
0000
0001
0010
0100
,
2000
0000
0000
3010
0000
0000
0200
0000
,
0300
0010
1000
0100
1000
0001
1000
0100
,
0010
0001
1000
0010
1000
0100
1000
0001
0010
0100
1000
0001
0100
0001
1000
0010
,
1000
0100
1000
0001
0010
0100
1000
0001
1000
0010
0100
0001
1000
0010
1000
0001
,
0200
0000
0300
0110
0000
0000
2010
0000
,
0000
3001
0010
0001
0100
0000
0010
0000
,
2010
0000
3000
0110
0000
0000
0102
0000
,
2003
0000
3200
0000
0320
0000
0032
0003
,
2001
0000
3000
1100
0000
0000
1000
0002
,
0000
0000
0103
0000
0010
0000
1000
0000
0001
0010
0001
0000
1000
0000
0100
0000
,
0010
0010
0000
0000
0000
0001
0010
0200
,
0000
0000
0000
0000
0000
0000
0000
0000
0000
0000
0000
0000
1300
0001
0100
0001
,
1000
0100
0010
0001
1000
0001
0100
0010
1000
0100
0010
0001
1000
0010
1000
0001
,
0010
0100
0010
0001
1000
0001
0100
0010
1000
0100
0010
0001
1000
0010
1000
0001
,
0100
0010
0100
0001
1000
0001
0010
0100
1000
0010
0100
0001
1000
0100
1000
0001
,
0100
0001
0010
0100
1000
0001
1000
0010
1000
0001
0010
0001
0100
0010
1000
0001
,
0010
0100
1000
0001
1000
0010
0100
0001
0010
0100
1000
0001
0100
0001
1000
0100
,
0010
0100
1000
0001
1000
0010
0100
0001
0010
0100
1000
0001
0100
0001
1000
0010
,
1000
0100
0010
0001
1000
0001
0100
0001
1000
0100
1000
0010
1000
0001
0100
0010
,
1000
0100
0010
0001
1000
0001
0100
0010
1000
0001
0100
0001
0010
0001
1000
0100
,
0000
0000
0000
0000
,
0000
0000
0000
0000
1000
0100
1000
0010
0100
0010
1000
0001
0010
0001
0100
0010
,
0100
0001
1000
0100
0000
0000
1000
0100
1000
0001
0000
0000
0100
0010
0100
0001
,
0000
0000
1000
0100
1000
0001
0100
0010
0100
0001
1000
0001
0010
0100
0010
0001
,
1000
0100
1000
0001
0000
0000
0100
0010
0100
0001
0000
0000
1000
0100
1000
0001
,
0000
0000
0010
0100
0010
0001
0000
0000
1000
0010
1000
0001
0100
0010
0100
0001
,
2000
0000
0000
3000
0000
0000
2000
0000
0000
3000
0000
0000
2000
0000
0000
3000
,
0000
0000
2000
0000
0000
3000
0000
0000
1000
0000
0100
0000
1000
0000
0100
0000
,
0020
0000
0000
0030
0000
0000
0002
0000
0000
0003
0000
0000
2000
0000
0000
3000
,
0000
0000
0020
0000
0000
0030
0000
0000
1000
0100
0010
0100
1000
0001
1000
0010
,
0200
0000
0000
0300
0000
0000
0002
0000
0000
0003
0000
0000
0020
0000
0000
0030
,
0000
0000
0200
0000
0000
0300
0000
0000
1000
0010
1000
0001
0010
0100
1000
0001
,
0200
0000
0000
0300
0000
0000
0020
0000
0000
0030
0000
0000
2000
0000
0000
3000
,
0000
0000
0002
0000
0000
0003
0000
0000
0010
0100
1000
0001
1000
0010
0100
0001
,
2000
0000
0000
3000
0000
0000
0200
0000
0000
0300
0000
0000
0020
0000
0000
0030
,
0000
0000
0002
0000
0000
0003
0000
0000
1000
0001
0010
0100
0010
0001
1000
0010
,
0100
0001
1000
0100
1000
0010
0100
0001
1000
0001
0010
0001
1000
0010
0100
0001
,
1000
0001
0010
0100
1000
0001
1000
0010
0100
0001
1000
0100
1000
0001
0010
0001
,
1000
0100
0010
0001
0100
0010
1000
0001
1000
0100
0010
0100
1000
0010
0100
0001
,
1000
0001
0010
0100
1000
0001
1000
0010
0100
0001
1000
0100
1000
0001
0010
0001
,
1000
0100
0010
0100
1000
0001
0100
0010
0100
0001
1000
0001
0010
0100
0010
0001
,
0100
0001
1000
0010
0100
0001
1000
0001
0010
0100
1000
0001
1000
0010
0100
0001
,
1000
0100
0010
0100
1000
0001
0100
0010
0100
0001
1000
0001
0010
0100
1000
0001
,
0010
0001
0100
0001
1000
0010
0100
0001
1000
0001
0010
0100
0010
0001
1000
0001
,
0100
0010
1000
0001
1000
0100
0010
0100
1000
0010
0100
0001
1000
0001
0010
0001
,
1000
0010
0100
0001
1000
0100
1000
0010
1000
0001
0100
0001
1000
0010
0100
0001
,
1000
0100
0010
0001
0100
0001
1000
0010
0100
0001
1000
0001
0010
0100
1000
0010
,
0100
0001
1000
0001
0010
0001
0100
0010
1000
0001
1000
0100
1000
0010
0100
0001
,
1000
0001
0010
0100
1000
0001
0100
0010
1000
0001
1000
0100
0010
0100
1000
0010
,
1000
0001
0100
0010
1000
0001
1000
0100
1000
0001
0100
0001
1000
0010
0100
0001
,
1000
0001
0010
0100
1000
0010
0100
0001
1000
0100
1000
0001
0100
0010
1000
0001
,
0010
0100
0010
0001
0100
0001
1000
0010
0100
0001
1000
0100
0010
0001
0100
0010
,
1000
0001
1000
0100
1000
0010
0100
0001
1000
0001
0010
0100
1000
0001
0100
0010
,
0100
0001
1000
0001
0010
0100
1000
0001
1000
0010
0100
0001
0010
0100
1000
0001
,
1000
0010
0100
0001
1000
0001
0010
0001
0100
0010
1000
0001
0100
0010
1000
0001
,
1000
0100
0010
0001
1000
0001
0100
0010
1000
0001
1000
0100
1000
0010
0100
0001
,
2000
3010
1000
0010
0200
0301
1000
0010
,
0100
0000
0001
0000
1000
0000
0010
0000
0100
0010
1000
0001
1000
0100
1000
0001
,
0020
0031
0010
0001
2000
3100
0010
0001
,
1000
0000
0100
0000
0010
0000
0001
0000
0100
0001
1000
0010
1000
0100
1000
0001
,
0010
0100
1000
0001
1000
0010
0100
0001
1000
0010
1000
0100
1000
0001
0010
0100
,
1000
0001
1000
0010
0100
0001
1000
0010
1000
0100
1000
0001
0100
0010
1000
0001
,
1000
0100
0010
0001
1000
0001
0100
0010
1000
0001
1000
0100
1000
0010
0100
0001
,
1000
0100
0010
0001
1000
0010
0100
0001
,
1000
1000
0000
0001
0001
0000
0020
0000
,
0000
0230
2300
3002
,
0103
0010
0100
0001
1000
0000
0200
0000
0000
0000
0000
0000
0300
0000
1000
0100
,
1000
0001
0100
0010
1000
0001
1000
0100
0010
0100
1000
0010
0100
0001
1000
0001
,
0010
0010
0000
0100
0100
0000
2000
0000
,
3000
0000
0010
0000
1000
0000
0010
0000
0100
0010
0100
0000
0001
0000
1000
0000
,
0001
1000
0010
0100
0001
1000
0100
1000
0001
0010
0100
0010
0001
0100
0001
1000
,
0010
1000
0100
1000
0001
0010
0100
1000
0001
1000
0010
0100
0001
1000
0100
1000
,
0001
0001
0000
1000
1000
0000
0200
0000
,
0000
2300
3002
0203
,
0310
1000
0001
0100
0010
0100
0001
0000
0000
0000
1000
0000
0000
0000
0001
0000
,
0000
0000
0010
0000
0000
0000
0100
0010
0001
1000
0100
1000
0001
0100
0010
1000
,
0002
0000
0000
1003
0000
0000
0020
0000
,
0030
0000
1000
0000
0001
0000
0010
0000
0100
1000
0100
0000
1000
0000
0010
0000
,
1000
0001
0010
0100
0010
0001
0100
0001
1000
0010
0100
0001
1000
0100
0010
0001
,
1000
0010
0100
0001
1000
0010
1000
0100
1000
0001
0010
0100
1000
0001
0100
0010
,
1000
0001
1000
0000
0000
0000
0001
0100
0001
0000
0000
0000
1000
0100
1000
0000
,
0000
0000
0001
0000
0100
0000
0001
0000
1000
0100
0010
0100
1000
0001
0100
0010
,
2000
0000
0000
0000
0000
0000
3001
0000
0000
0000
0000
0000
0100
0010
1000
0001
,
0010
0100
1000
0001
1000
0010
0100
0001
1000
0100
0010
0100
1000
0010
0100
0001
,
2000
0000
0000
3010
0000
0000
0100
0002
,
0000
0000
1003
0000
0100
0000
1000
0000
0001
0010
0001
0000
1000
0000
0010
0000
,
0100
0100
0000
0000
0000
0010
1000
0002
,
0000
0000
0000
0003
,
1000
0010
0100
0001
1000
0001
0010
0100
1000
0010
0100
0001
1000
0100
1000
0001
,
0100
0010
0100
0001
1000
0001
0010
0100
1000
0010
0100
0001
1000
0100
1000
0001
,
0010
0100
0010
0001
1000
0001
0100
0010
1000
0100
0010
0001
1000
0010
1000
0001
,
0010
0001
0100
0010
1000
0001
1000
0100
1000
0001
0100
0001
0010
0100
1000
0001
,
0100
0010
1000
0001
1000
0100
0010
0001
0100
0010
1000
0001
0010
0001
1000
0010
,
0100
0010
1000
0001
1000
0100
0010
0001
0100
0010
1000
0001
0010
0001
1000
0100
,
1000
0010
0100
0001
1000
0001
0010
0001
1000
0010
1000
0100
1000
0001
0010
0100
,
1000
0010
0100
0001
1000
0001
0010
0100
1000
0001
0010
0001
0100
0001
1000
0010
,
0000
0000
0000
0000
,
0000
0000
0000
0000
1000
0100
1000
0010
0100
0010
1000
0001
0010
0001
0100
0010
,
0100
0001
1000
0100
0000
0000
1000
0100
1000
0001
0000
0000
0100
0010
0100
0001
;

//---------------dance-single - Mad Matt----------------
#NOTES:
     dance-single:
     Mad Matt:
     Medium:
     18:
     1.000,1.000,0.062,0.613,1.000,1173.000,7.000,69.000,0.000,0.000:











0000
0000
0000
0000
,
0000
0000
0000
0000
,
0000
0000
0000
0000
,
0000
0000
0000
0000
1000
0100
0010
0001
,
2000
0000
0000
3010
0000
0000
0200
0000
,
0000
0302
2003
3200
,
0310
0100
1000
0002
0000
0000
0000
0000
,
0003
1000
0000
0010
0000
1000
0100
0010
,
0002
0000
0000
0013
0000
0000
0200
0000
,
0000
2300
3002
0203
,
0301
1000
0100
0010
0100
1000
0001
0010
0100
1000
0001
1000
0010
1000
0001
0100
,
0010
1000
0001
1000
0100
1000
0001
0010
0100
1000
0001
1000
0010
0100
0001
1000
,
0020
0000
0000
0130
0000
0000
0002
0000
,
0000
2003
3020
0230
,
0301
0010
0100
1000
0000
0100
0000
0010
,
0000
0001
0000
0100
0000
0001
0010
0100
,
2000
0000
0000
3010
0000
0000
0200
0000
,
0300
0010
1000
0100
1000
0001
1000
0100
,
0010
0001
1000
0001
0100
0010
1000
0001
1000
0010
1000
0001
0100
0010
1000
0001
,
1000
0100
1000
0001
0010
0100
1000
0001
0010
0100
1000
0001
1000
0010
1000
0001
,
0200
0000
0300
0110
0000
0000
2010
0000
,
0000
3001
0010
0001
0100
0000
0010
0000
,
2010
0000
3000
0110
0000
0000
0102
0000
,
2003
0000
3200
0000
0320
0000
0032
0003
,
2001
0000
3000
1100
0000
0000
1000
0002
,
0000
0000
0103
0000
0010
0000
1000
0000
0001
0010
0001
0000
1000
0000
0100
0000
,
0010
0010
0000
0000
0000
0001
0010
0200
,
0000
0000
0000
0000
0000
0000
0000
0000
0000
0000
0000
0000
1300
0001
0100
0010
,
1000
0001
1000
0001
0010
0100
1000
0001
0010
0001
1000
0001
0100
0010
1000
0001
,
0100
0010
0100
0010
1000
0001
1000
0100
0010
0100
1000
0001
0010
0001
1000
0001
,
0100
0010
0100
0010
1000
0001
0100
0001
1000
0001
0010
0100
1000
0001
0010
0001
,
1000
0001
0100
0010
1000
0001
0100
0010
1000
0001
1000
0100
1000
0001
0010
0100
,
1000
0001
1000
0001
0100
0010
1000
0001
1000
0100
0010
0001
1000
0100
1000
0001
,
0100
0010
1000
0010
1000
0001
0100
0001
1000
0100
1000
0001
0100
0001
1000
0010
,
1000
0001
1000
0100
0010
0001
1000
0100
0010
0100
1000
0001
1000
0010
0100
0001
,
1000
0010
0100
0001
1000
0001
0010
0100
1000
0001
1000
0010
0100
0001
1000
0100
,
0000
0000
0000
0000
,
0000
0000
0000
0000
1000
0001
1000
0001
0100
0010
1000
0001
1000
0001
0010
0100
,
1000
0001
1000
0001
0000
0000
1000
0010
1000
0010
0000
0000
0100
0001
0100
0001
,
0000
0000
0100
0010
1000
0001
1000
0001
0010
0100
1000
0001
1000
0001
0100
0010
,
1000
0001
1000
0001
0000
0000
1000
0010
1000
0010
0000
0000
0100
0001
0100
0001
,
0000
0000
1000
0100
1000
0100
0000
0000
1000
0001
1000
0001
0010
0100
0010
0001
,
2000
0000
0000
3000
0000
0000
2000
0000
0000
3000
0000
0000
2000
0000
0000
3000
,
0000
0000
2000
0000
0000
3000
0000
0000
1000
0000
0100
0000
1000
0000
0100
0000
,
0020
0000
0000
0030
0000
0000
0002
0000
0000
0003
0000
0000
2000
0000
0000
3000
,
0000
0000
0020
0000
0000
0030
0000
0000
1000
0100
0010
0100
1000
0001
1000
0010
,
0200
0000
0000
0300
0000
0000
0002
0000
0000
0003
0000
0000
0020
0000
0000
0030
,
0000
0000
0200
0000
0000
0300
0000
0000
1000
0010
1000
0001
0010
0100
1000
0001
,
0200
0000
0000
0300
0000
0000
0020
0000
0000
0030
0000
0000
2000
0000
0000
3000
,
0000
0000
0002
0000
0000
0003
0000
0000
0010
0100
1000
0001
1000
0010
0100
0001
,
2000
0000
0000
3000
0000
0000
0200
0000
0000
0300
0000
0000
0020
0000
0000
0030
,
0000
0000
0002
0000
0000
0003
0000
0000
1000
0001
0010
0100
0010
0001
1000
0100
,
0010
0001
1000
0001
0100
0010
0100
0001
1000
0001
0010
0001
1000
0100
0010
0001
,
1000
0001
0100
0010
1000
0001
0100
0001
1000
0100
1000
0100
0010
0001
0010
0001
,
1000
0001
0100
0010
1000
0001
1000
0100
1000
0001
0010
0100
1000
0001
0010
0001
,
1000
0001
0100
0010
1000
0001
0100
0001
1000
0100
1000
0100
0010
0001
0010
0001
,
1000
0100
1000
0001
0010
0100
1000
0001
0100
0010
1000
0001
1000
0010
1000
0001
,
0100
0001
1000
0001
0010
0100
1000
0001
1000
0010
1000
0010
0100
0001
0100
0001
,
1000
0010
0100
0001
1000
0001
0010
0001
1000
0100
0010
0001
1000
0100
1000
0001
,
0100
0001
1000
0010
0100
0001
1000
0010
1000
0001
1000
0100
0010
0001
1000
0001
,
0010
0100
1000
0001
1000
0010
0100
0010
1000
0001
1000
0100
1000
0001
0010
0100
,
1000
0001
1000
0010
0100
0001
1000
0010
1000
0001
0010
0001
0010
0100
1000
0100
,
1000
0001
1000
0010
0100
0001
1000
0001
0010
0001
1000
0100
0010
0001
1000
0100
,
1000
0001
1000
0010
0100
0001
1000
0010
1000
0001
0010
0001
0010
0100
1000
0100
,
1000
0001
0010
0001
1000
0100
0010
0001
1000
0010
0100
0001
1000
0001
0100
0001
,
1000
0010
1000
0001
1000
0100
0010
0001
1000
0001
0100
0001
0100
0010
1000
0010
,
1000
0001
0100
0010
1000
0001
1000
0100
1000
0001
0010
0100
1000
0001
0010
0001
,
1000
0010
1000
0001
0100
0010
1000
0001
0100
0001
1000
0001
0010
0100
1000
0001
,
1000
0010
0100
0001
1000
0010
0100
0001
1000
0001
0010
0100
0010
0001
1000
0001
,
0100
0010
1000
0001
1000
0100
1000
0001
0010
0001
1000
0010
1000
0001
1000
0100
,
1000
0001
0010
0100
1000
0001
0010
0001
1000
0001
0100
0010
1000
0001
1000
0100
,
1000
0001
0010
0100
1000
0001
0010
0100
1000
0001
1000
0010
0100
0001
1000
0001
,
2000
3010
1000
0010
0200
0301
1000
0010
,
0100
0000
0001
0000
1000
0000
0010
0000
0100
0010
1000
0001
1000
0100
1000
0001
,
0020
0031
0010
0001
2000
3100
0010
0001
,
1000
0000
0100
0000
0010
0000
0001
0000
0100
0001
1000
0010
1000
0001
0100
0010
,
1000
0001
1000
0100
1000
0001
0010
0100
1000
0001
0010
0100
1000
0001
1000
0010
,
0100
0001
1000
0010
0100
0001
1000
0010
1000
0001
1000
0100
0010
0001
1000
0001
,
1000
0010
0100
0001
1000
0001
0010
0100
1000
0001
1000
0010
1000
0001
0100
0001
,
1000
0100
0010
0001
1000
0010
0100
0001
,
1000
1000
0000
0001
0001
0000
0020
0000
,
0000
0230
2300
3002
,
0103
0010
1000
0001
1000
0000
0200
0000
0000
0000
0000
0000
0300
0000
1000
0100
,
1000
0001
0010
0100
1000
0001
1000
0010
1000
0001
0100
0010
1000
0001
0100
0001
,
1000
1000
0000
0001
0001
0000
2000
0000
,
3000
0000
0010
0000
1000
0000
0010
0000
0100
0010
0100
0000
0001
0000
1000
0000
,
0001
1000
0010
0100
0001
1000
0010
1000
0001
1000
0100
0010
0001
1000
0100
0010
,
0001
1000
0001
0100
0001
1000
0010
0100
0001
1000
0010
0100
0001
1000
0100
1000
,
0001
0001
0000
1000
1000
0000
0200
0000
,
0000
2300
3002
0203
,
0310
1000
0001
0100
0010
0100
0001
0000
0000
0000
1000
0000
0000
0000
0001
0000
,
0000
0000
0010
0000
0000
0000
0100
0010
0001
1000
0100
1000
0001
0010
0100
1000
,
0002
0000
0000
1003
0000
0000
0020
0000
,
0030
0000
1000
0000
0001
0000
0010
0000
0100
1000
0100
0000
1000
0000
0010
0000
,
1000
0001
0010
0100
0010
0001
1000
0100
1000
0001
0010
0100
1000
0001
1000
0010
,
0100
0001
1000
0010
1000
0001
0100
0001
1000
0100
1000
0001
0010
0100
1000
0001
,
0100
0001
1000
0000
0000
0000
0001
0100
0001
0000
0000
0000
1000
0100
1000
0000
,
0000
0000
0001
0000
0100
0000
0001
0000
1000
0100
0010
0100
1000
0001
0010
0100
,
2000
0000
0000
0000
0000
0000
3001
0000
0000
0000
0000
0000
1000
0010
1000
0001
,
0100
0010
1000
0001
1000
0100
0010
0001
1000
0100
0010
0001
1000
0001
0100
0010
,
2000
0000
0000
3010
0000
0000
0100
0002
,
0000
0000
1003
0000
0100
0000
1000
0000
0001
0010
0001
0000
1000
0000
0010
0000
,
0100
0100
0000
0000
0000
0010
1000
0002
,
0000
0000
0000
0003
,
1000
0001
1000
0001
0010
0100
1000
0001
0010
0001
1000
0001
0100
0010
1000
0001
,
0100
0010
0100
0010
1000
0001
1000
0100
0010
0100
1000
0001
0010
0001
1000
0001
,
0100
0010
0100
0010
1000
0001
0100
0001
1000
0001
0010
0100
1000
0001
0010
0001
,
1000
0001
0100
0010
1000
0001
0100
0010
1000
0001
1000
0100
1000
0001
0010
0100
,
1000
0001
1000
0001
0100
0010
1000
0001
1000
0100
0010
0001
1000
0100
1000
0001
,
0100
0010
1000
0010
1000
0001
0100
0001
1000
0100
1000
0001
0100
0001
1000
0010
,
1000
0001
1000
0100
0010
0001
1000
0100
0010
0100
1000
0001
1000
0010
0100
0001
,
1000
0010
0100
0001
1000
0001
0010
0100
1000
0001
1000
0010
0100
0001
1000
0100
,
0000
0000
0000
0000
,
0000
0000
0000
0000
1000
0001
1000
0001
0100
0010
1000
0001
1000
0001
0010
0100
,
1000
0001
1000
0001
0000
0000
1000
0010
1000
0010
0000
0000
0100
0001
0100
0001
;

//---------------dance-single - Mad Matt----------------
#NOTES:
     dance-single:
     Mad Matt:
     Easy:
     17:
     1.000,1.000,0.062,0.968,1.000,1053.000,7.000,109.000,0.000,0.000:







0000
0000
0000
0000
,
0000
0000
0000
0000
,
0000
0000
0000
0000
,
0000
0000
0000
0000
1000
0100
0010
0001
,
2000
0000
0000
3010
0000
0000
0200
0000
,
0000
0302
2003
3200
,
0310
0100
1000
0002
0000
0000
0000
0000
,
0003
1000
0000
0010
0000
1000
0100
0010
,
0002
0000
0000
0013
0000
0000
0200
0000
,
0000
2300
3002
0203
,
0301
1000
0100
0010
0100
1000
0001
0010
0100
1000
0001
1000
0010
1000
0001
0100
,
0010
1000
0001
1000
0100
1000
0001
0010
0100
1000
0001
1000
0010
0100
0001
1000
,
0020
0000
0000
0130
0000
0000
0002
0000
,
0000
2003
3020
0230
,
0301
0010
0100
1000
0000
0100
0000
0010
,
0000
0001
0000
0100
0000
0001
0010
0100
,
2000
0000
0000
3010
0000
0000
0200
0000
,
0300
0010
1000
0100
1000
0001
1000
0100
,
0010
0001
1000
0001
0100
0010
1000
0001
1000
0010
1000
0001
0100
0010
1000
0001
,
1000
0100
1000
0001
0010
0100
1000
0001
0010
0100
1000
0001
1000
0010
1000
0001
,
0200
0000
0300
0110
0000
0000
2010
0000
,
0000
3001
0010
0001
0100
0000
0010
0000
,
2010
0000
3000
0110
0000
0000
0102
0000
,
2003
0000
3200
0000
0320
0000
0032
0003
,
2001
0000
3000
1100
0000
0000
1000
0002
,
0000
0000
0103
0000
0010
0000
1000
0000
0001
0010
0001
0000
1000
0000
0100
0000
,
0010
0010
0000
0000
0000
0001
0010
0200
,
0000
0000
0000
0000
0000
0000
0000
0000
0000
0000
0000
0000
1300
0001
0100
0010
,
1000
0001
1000
0001
0010
0100
1000
0001
0010
0001
1000
0001
0100
0010
1000
0001
,
0100
0010
0100
0010
1000
0001
1000
0100
0010
0100
1000
0001
0010
0001
1000
0001
,
0100
0010
0100
0010
1000
0001
0100
0001
1000
0001
0010
0100
1000
0001
0010
0001
,
1000
0001
0100
0010
1000
0001
0100
0010
1000
0001
1000
0100
1000
0001
0010
0100
,
1000
0001
1000
0001
0100
0010
1000
0001
1000
0100
0010
0001
1000
0100
1000
0001
,
0100
0010
1000
0010
1000
0001
0100
0001
1000
0100
1000
0001
0100
0001
1000
0010
,
1000
0001
1000
0100
0010
0001
1000
0100
0010
0100
1000
0001
1000
0010
0100
0001
,
1000
0010
0100
0001
1000
0001
0010
0100
1000
0001
1000
0010
0100
0001
1000
0100
,
0000
0000
0000
0000
,
0000
0000
0000
0000
1000
0001
1000
0001
0100
0010
1000
0001
1000
0001
0010
0100
,
1000
0001
1000
0001
0000
0000
1000
0010
1000
0010
0000
0000
0100
0001
0100
0001
,
0000
0000
0100
0010
1000
0001
1000
0001
0010
0100
1000
0001
1000
0001
0100
0010
,
1000
0001
1000
0001
0000
0000
1000
0010
1000
0010
0000
0000
0100
0001
0100
0001
,
0000
0000
1000
0100
1000
0100
0000
0000
1000
0001
1000
0001
0010
0100
0010
0001
,
2000
0000
0000
3000
0000
0000
2000
0000
0000
3000
0000
0000
2000
0000
0000
3000
,
0000
0000
2000
0000
0000
3000
0000
0000
1000
0000
0100
0000
1000
0000
0100
0000
,
0020
0000
0000
0030
0000
0000
0002
0000
0000
0003
0000
0000
2000
0000
0000
3000
,
0000
0000
0020
0000
0000
0030
0000
0000
1000
0100
0010
0100
1000
0001
1000
0010
,
0200
0000
0000
0300
0000
0000
0002
0000
0000
0003
0000
0000
0020
0000
0000
0030
,
0000
0000
0200
0000
0000
0300
0000
0000
1000
0010
1000
0001
0010
0100
1000
0001
,
0200
0000
0000
0300
0000
0000
0020
0000
0000
0030
0000
0000
2000
0000
0000
3000
,
0000
0000
0002
0000
0000
0003
0000
0000
0010
0100
1000
0001
1000
0010
0100
0001
,
2000
0000
0000
3000
0000
0000
0200
0000
0000
0300
0000
0000
0020
0000
0000
0030
,
0000
0000
0002
0000
0000
0003
0000
0000
1000
0001
0010
0100
0010
0001
1000
0100
,
0020
0031
1000
0020
0130
0001
2000
3100
,
0010
0000
0002
0000
0103
0000
0010
0000
1000
0100
0010
0100
1000
0001
1000
0010
,
0200
0301
1000
0200
0310
0001
0200
0310
,
1000
0000
0002
0000
0013
0000
0100
0000
1000
0010
1000
0001
0010
0100
1000
0001
,
0200
0310
1000
0002
0013
0100
2000
3001
,
0100
0000
0020
0000
1030
0000
0001
0000
0010
0100
1000
0001
1000
0010
0100
0001
,
2000
3100
0010
0002
1003
0010
0200
0301
,
1000
0000
0002
0000
0013
0000
0100
0000
1000
0001
0010
0100
0010
0001
1000
0100
,
0020
0031
1000
0020
0130
0010
2000
3001
,
0010
0000
0002
0000
0103
0000
0010
0000
1000
0100
0010
0100
1000
0001
1000
0010
,
0200
0301
1000
0200
1300
0001
0200
0310
,
1000
0000
0002
0000
0013
0000
0100
0000
1000
0010
1000
0001
0010
0100
1000
0001
,
0200
0310
1000
0020
0130
0001
2000
3001
,
0010
0000
0200
0000
1300
0000
0001
0000
0010
0100
1000
0001
1000
0010
0100
0001
,
2000
3010
0100
0002
0103
0010
2000
3001
,
0010
0000
0200
0000
1300
0000
0010
0000
1000
0001
0010
0100
0010
0001
1000
0100
,
0020
0031
1000
0020
0130
0001
2000
3001
,
0010
0000
0200
0000
1300
0000
0001
0000
0010
0100
1000
0001
1000
0010
0100
0001
,
2000
3010
0100
0002
0103
0010
2000
3001
,
0010
0000
0200
0000
1300
0000
0010
0000
1000
0001
0010
0100
0010
0001
1000
0100
,
2000
3010
1000
0010
0200
0301
1000
0010
,
0100
0000
0001
0000
1000
0000
0010
0000
0100
0010
1000
0001
1000
0100
1000
0001
,
0020
0031
0010
0001
2000
3100
0010
0001
,
1000
0000
0100
0000
0010
0000
0001
0000
0100
0001
1000
0010
1000
0001
0100
0010
,
1000
0001
1000
0100
1000
0001
0010
0100
1000
0001
0010
0100
1000
0001
1000
0010
,
0100
0001
1000
0010
0100
0001
1000
0010
1000
0001
1000
0100
0010
0001
1000
0001
,
1000
0010
0100
0001
1000
0001
0010
0100
1000
0001
1000
0010
1000
0001
0100
0001
,
1000
0100
0010
0001
1000
0010
0100
0001
,
1000
1000
0000
0001
0001
0000
0020
0000
,
0000
0230
2300
3002
,
0103
0010
1000
0001
1000
0000
0200
0000
0000
0000
0000
0000
0300
0000
1000
0100
,
1000
0001
0010
0100
1000
0001
1000
0010
1000
0001
0100
0010
1000
0001
0100
0001
,
1000
1000
0000
0001
0001
0000
2000
0000
,
3000
0000
0010
0000
1000
0000
0010
0000
0100
0010
0100
0000
0001
0000
1000
0000
,
0001
1000
0010
0100
0001
1000
0010
1000
0001
1000
0100
0010
0001
1000
0100
0010
,
0001
1000
0001
0100
0001
1000
0010
0100
0001
1000
0010
0100
0001
1000
0100
1000
,
0001
0001
0000
1000
1000
0000
0200
0000
,
0000
2300
3002
0203
,
0310
1000
0001
0100
0010
0100
0001
0000
0000
0000
1000
0000
0000
0000
0001
0000
,
0000
0000
0010
0000
0000
0000
0100
0010
0001
1000
0100
1000
0001
0010
0100
1000
,
0002
0000
0000
1003
0000
0000
0020
0000
,
0030
0000
1000
0000
0001
0000
0010
0000
0100
1000
0100
0000
1000
0000
0010
0000
,
1000
0001
0010
0100
0010
0001
1000
0100
1000
0001
0010
0100
1000
0001
1000
0010
,
0100
0001
1000
0010
1000
0001
0100
0001
1000
0100
1000
0001
0010
0100
1000
0001
,
0100
0001
1000
0000
0000
0000
0001
0100
0001
0000
0000
0000
1000
0100
1000
0000
,
0000
0000
0001
0000
0100
0000
0001
0000
1000
0100
0010
0100
1000
0001
0010
0100
,
2000
0000
0000
0000
0000
0000
3001
0000
0000
0000
0000
0000
1000
0010
1000
0001
,
0100
0010
1000
0001
1000
0100
0010
0001
1000
0100
0010
0001
1000
0001
0100
0010
,
2000
0000
0000
3010
0000
0000
0100
0002
,
0000
0000
1003
0000
0100
0000
1000
0000
0001
0010
0001
0000
1000
0000
0010
0000
,
0100
0100
0000
0000
0000
0010
1000
0002
,
0000
0000
0000
0003
,
1000
0001
1000
0001
0010
0100
1000
0001
0010
0001
1000
0001
0100
0010
1000
0001
,
0100
0010
0100
0010
1000
0001
1000
0100
0010
0100
1000
0001
0010
0001
1000
0001
,
0100
0010
0100
0010
1000
0001
0100
0001
1000
0001
0010
0100
1000
0001
0010
0001
,
1000
0001
0100
0010
1000
0001
0100
0010
1000
0001
1000
0100
1000
0001
0010
0100
,
1000
0001
1000
0001
0100
0010
1000
0001
1000
0100
0010
0001
1000
0100
1000
0001
,
0100
0010
1000
0010
1000
0001
0100
0001
1000
0100
1000
0001
0100
0001
1000
0010
,
1000
0001
1000
0100
0010
0001
1000
0100
0010
0100
1000
0001
1000
0010
0100
0001
,
1000
0010
0100
0001
1000
0001
0010
0100
1000
0001
1000
0010
0100
0001
1000
0100
,
0000
0000
0000
0000
,
0000
0000
0000
0000
1000
0001
1000
0001
0100
0010
1000
0001
1000
0001
0010
0100
,
1000
0001
1000
0001
0000
0000
1000
0010
1000
0010
0000
0000
0100
0001
0100
0001
;

//---------------dance-single - Mad Matt----------------
#NOTES:
     dance-single:
     Mad Matt:
     Beginner:
     17:
     1.000,1.000,0.062,1.000,1.000,926.000,7.000,161.000,0.000,0.000:



0000
0000
0000
0000
,
0000
0000
0000
0000
,
0000
0000
0000
0000
,
0000
0000
0000
0000
1000
0100
0010
0001
,
2000
0000
0000
3010
0000
0000
0200
0000
,
0000
0302
2003
3200
,
0310
0100
1000
0002
0000
0000
0000
0000
,
0003
1000
0000
0010
0000
1000
0100
0010
,
0002
0000
0000
0013
0000
0000
0200
0000
,
0000
2300
3002
0203
,
0301
1000
0100
0010
0100
1000
0001
0010
0100
1000
0001
1000
0010
1000
0001
0100
,
0010
1000
0001
1000
0100
1000
0001
0010
0100
1000
0001
1000
0010
0100
0001
1000
,
0020
0000
0000
0130
0000
0000
0002
0000
,
0000
2003
3020
0230
,
0301
0010
0100
1000
0000
0100
0000
0010
,
0000
0001
0000
0100
0000
0001
0010
0100
,
2000
0000
0000
3010
0000
0000
0200
0000
,
0300
0010
1000
0100
1000
0001
1000
0100
,
0010
0001
1000
0001
0100
0010
1000
0001
1000
0010
1000
0001
0100
0010
1000
0001
,
1000
0100
1000
0001
0010
0100
1000
0001
0010
0100
1000
0001
1000
0010
1000
0001
,
0200
0000
0300
0110
0000
0000
2010
0000
,
0000
3001
0010
0001
0100
0000
0010
0000
,
2010
0000
3000
0110
0000
0000
0102
0000
,
2003
0000
3200
0000
0320
0000
0032
0003
,
2001
0000
3000
1100
0000
0000
1000
0002
,
0000
0000
0103
0000
0010
0000
1000
0000
0001
0010
0001
0000
1000
0000
0100
0000
,
0010
0010
0000
0000
0000
0001
0010
0200
,
0000
0000
0000
0300
,
1000
0001
1000
0001
0010
0100
1000
0001
0010
0001
1000
0001
0100
0010
1000
0001
,
0100
0010
0100
0010
1000
0001
1000
0100
0010
0100
1000
0001
0010
0001
1000
0001
,
0100
0010
0100
0010
1000
0001
0100
0001
1000
0001
0010
0100
1000
0001
0010
0001
,
2000
3000
0000
0000
0020
0030
0000
0000
0200
0300
0000
0000
0002
0003
0000
0000
2000
3000
0000
0000
0200
0300
0000
0000
0020
0030
0000
0000
0002
0003
0000
0000
,
1000
0001
1000
0001
0100
0010
1000
0001
1000
0100
0010
0001
1000
0100
1000
0001
,
0100
0010
1000
0010
1000
0001
0100
0001
1000
0100
1000
0001
0100
0001
1000
0010
,
2000
3000
0000
0000
0002
0003
0000
0000
0020
0030
0000
0000
0200
0300
0000
0000
2000
3000
0000
0000
0002
0003
0000
0000
0200
0300
0000
0000
0020
0030
0000
0000
,
2000
3000
0000
0000
0002
0003
0000
0000
0020
0030
0000
0000
0200
0300
0000
0000
2000
3000
0000
0000
0002
0003
0000
0000
0200
0300
0000
0000
0020
0030
0000
0000
,
0000
0000
0000
0000
,
0000
0000
1000
0010
0100
0001
0010
0100
,
1000
0010
0000
1000
0100
0000
1000
0010
,
0000
0100
0001
0010
0100
1000
0001
0100
,
0010
1000
0000
0001
0010
0000
0001
0100
,
0000
0010
1000
0000
0100
0010
0100
0010
,
0002
0000
0000
0003
0000
0000
0002
0000
0000
0003
0000
0000
0002
0000
0000
0003
,
0000
0000
0002
0000
0000
0003
0000
0000
0001
0000
0010
0000
0001
0000
0010
0000
,
0200
0000
0000
0300
0000
0000
2000
0000
0000
3000
0000
0000
0002
0000
0000
0003
,
0000
0000
0200
0000
0000
0300
0000
0000
0001
0010
0100
0010
0001
1000
0001
0100
,
0020
0000
0000
0030
0000
0000
2000
0000
0000
3000
0000
0000
0200
0000
0000
0300
,
0000
0000
0020
0000
0000
0030
0000
0000
0001
0100
0001
1000
0100
0010
0001
1000
,
0020
0000
0000
0030
0000
0000
0200
0000
0000
0300
0000
0000
0002
0000
0000
0003
,
0000
0000
2000
0000
0000
3000
0000
0000
0100
0010
0001
1000
0001
0100
0010
1000
,
0002
0000
0000
0003
0000
0000
0020
0000
0000
0030
0000
0000
0200
0000
0000
0300
,
0000
0000
2000
0000
0000
3000
0000
0000
0001
1000
0100
0010
0100
1000
0001
0010
,
0200
1300
0001
0200
0310
1000
0002
0013
,
0100
2000
3010
0100
0001
0010
0001
0010
,
0200
1300
0001
0200
0310
1000
0200
0310
,
0001
2000
3100
0010
0001
0100
0001
0100
,
0020
0130
0001
2000
3100
0010
0002
1003
,
0010
0200
0301
1000
0100
0010
0100
0010
,
0002
0013
0100
2000
3001
0100
0020
1030
,
0001
0000
0000
0000
2000
0000
0000
0000
3100
0000
0000
0000
0010
0000
0000
0000
0002
0003
0000
0000
2000
3000
0000
0000
0020
0030
0000
0000
0200
0300
0000
0000
,
0002
1003
0001
0200
0310
0100
0002
1003
,
0100
2000
3010
0100
0001
0010
0100
1000
,
0020
1030
0001
0020
0031
1000
0020
0130
,
0001
2000
3100
0010
0001
0100
0010
1000
,
0020
0130
0001
0200
0310
1000
0002
1003
,
0100
0020
0031
1000
0001
0010
0100
1000
,
0002
0103
0010
2000
3010
0100
0002
1003
,
0100
0020
0031
0100
0001
1000
0010
1000
,
0200
0310
0001
0200
0310
1000
0002
1003
,
0100
0000
0020
0000
0031
0000
1000
0000
0100
0010
0001
1000
0001
0100
0010
1000
,
0002
0103
0010
2000
3010
0100
0002
1003
,
0100
0000
0020
0000
0031
0000
0100
0000
0001
1000
0100
0010
0100
1000
0001
0010
,
0002
0103
0001
0100
0020
1030
0001
0100
,
0010
0000
1000
0000
0001
0000
0100
0000
0010
0100
0001
1000
0001
0010
0001
1000
,
0200
1300
0100
1000
0002
0013
0100
1000
,
0001
0000
0010
0000
0100
0000
1000
0000
0010
1000
0001
0100
0001
1000
0010
0100
,
0001
1000
0001
0010
0001
1000
0100
0010
0001
1000
0100
0010
0001
1000
0001
0100
,
0010
1000
0001
0100
0010
1000
0001
0100
0001
1000
0001
0010
0100
1000
0001
0010
,
0001
1000
0100
1000
0001
0010
0100
1000
0001
1000
0001
0010
0100
1000
0001
1000
,
0001
0010
0100
1000
0001
0100
0010
1000
,
0001
0001
0000
1000
1000
0000
0200
0000
,
0000
0320
0032
2003
,
3010
0100
0001
1000
0001
0000
0200
0000
0000
0000
0000
0000
0300
0000
0001
1000
,
0001
1000
0100
0010
0001
1000
0001
0010
0001
1000
0100
0010
0001
1000
0100
1000
,
0001
0100
0000
0010
1000
0000
0002
0000
,
0003
0000
0100
0000
0001
0000
0100
0000
0010
0100
0010
0000
1000
0000
0001
0000
,
1000
0001
0100
0010
1000
0001
0100
0001
1000
0001
0010
0100
1000
0001
0010
0100
,
1000
0001
1000
0010
1000
0001
0100
0010
1000
0001
0100
0010
1000
0001
0100
0001
,
1000
0010
0000
0100
0001
0000
0020
0000
,
0000
0032
2003
3020
,
0130
0001
1000
0010
0100
0010
1000
0000
0000
0000
0001
0000
0000
0000
1000
0000
,
0000
0000
0100
0000
0000
0000
0010
0100
1000
0001
0010
0001
1000
0100
0010
0001
,
2000
0000
0000
3001
0000
0000
0200
0000
,
0300
0000
0001
0000
1000
0000
0100
0000
0010
0001
0010
0000
0001
0000
0100
0000
,
0001
1000
0100
0010
0100
1000
0001
0010
0001
1000
0100
0010
0001
1000
0001
0100
,
0010
1000
0001
0100
0001
1000
0010
1000
0001
0100
0001
1000
0010
0100
0001
1000
,
0010
1000
0001
0000
0000
0000
1000
0010
1000
0000
0000
0000
0001
0010
0001
0000
,
0000
0000
1000
0000
0010
0000
1000
0000
0001
0010
0100
0010
0001
1000
0100
0010
,
0002
0000
0000
0000
0000
0000
1003
0000
0000
0000
0000
0000
0001
0100
0001
1000
,
0010
0100
0001
1000
0010
0100
0001
1000
0001
0010
0100
1000
0001
0010
0100
1000
,
0002
0000
0000
0103
0000
0000
0010
2000
,
0000
0000
3001
0000
0010
0000
0001
0000
1000
0100
1000
0000
0001
0000
0100
0000
,
0010
0010
0000
0000
0000
0100
0001
2000
,
0000
0000
0000
3000
,
0001
1000
0001
1000
0100
0010
0001
1000
0100
1000
0001
0010
0001
1000
0100
0010
,
0001
1000
0001
0100
0010
1000
0001
0100
0001
1000
0010
1000
0001
0100
0010
1000
,
0001
1000
0100
0010
0001
1000
0100
0010
0100
1000
0001
0010
0100
1000
0001
1000
,
0002
0003
0000
0000
0200
0300
0000
0000
0020
0030
0000
0000
2000
3000
0000
0000
0002
0003
0000
0000
0020
0030
0000
0000
0200
0300
0000
0000
2000
3000
0000
0000
,
0001
1000
0001
1000
0010
0100
0001
1000
0001
0100
0010
1000
0001
0100
0001
1000
,
0001
0010
0100
1000
0001
0010
0001
1000
0100
1000
0001
0010
0100
1000
0001
1000
,
0002
0003
0000
0000
2000
3000
0000
0000
0200
0300
0000
0000
0020
0030
0000
0000
0002
0003
0000
0000
2000
3000
0000
0000
0020
0030
0000
0000
0200
0300
0000
0000
,
0002
0003
0000
0000
2000
3000
0000
0000
0200
0300
0000
0000
0020
0030
0000
0000
0002
0003
0000
0000
2000
3000
0000
0000
0020
0030
0000
0000
0200
0300
0000
0000
,
0000
0000
0000
0000
,
0000
0000
0001
0100
0010
1000
0100
0010
,
0001
0100
0000
0001
0010
0000
0001
0100
;
