#TITLE:Look At Me Tenderly;
#SUBTITLE:EXoduz Violation II;
#ARTIST:Goreshit;
#TITLETRANSLIT:;
#SUBTITLETRANSLIT:;
#ARTISTTRANSLIT:;
#CREDIT:;
#BANNER:../Banner.png;
#BACKGROUND:../Background.png;
#LYRICSPATH:;
#CDTITLE:;
#MUSIC:music.ogg;
#OFFSET:1.020;
#SAMPLESTART:15.323;
#SAMPLELENGTH:11.960;
#SELECTABLE:YES;
#DISPLAYBPM:192.000;
#BPMS:0.000=192.000;
#STOPS:;
#BGCHANGES:;
// cache tags:
#FIRSTBEAT:4.000;
#LASTBEAT:1344.000;
#SONGFILENAME:Songs/EXoduz Violation II/Look At Me Tenderly - [Ov3rHell3XoduZ]/SM.sm;
#HASMUSIC:1;
#HASBANNER:1;
#MUSICLENGTH:425.109;
// end cache tags

//---------------dance-single - ----------------
#NOTES:
     dance-single:
     :
     Beginner:
     13:
     1.000,1.000,0.066,0.753,0.533,2655.000,28.000,320.000,0.000,0.000:
0000
0000
0000
0000
,
2000
3002
0203
0320
,
2030
3200
0320
0032
,
2003
3002
0203
0320
,
2030
3200
0320
0032
,
2003
3002
0203
0320
,
2030
3020
0230
0302
,
0023
0230
2300
3002
,
0203
0000
0320
0000
2030
0000
3200
0300
,
1100
1000
0001
0100
0001
0010
0100
1000
,
0001
1000
0010
1000
0100
1000
0010
0100
,
0001
0010
0001
0010
0100
1000
0001
0100
,
0001
1000
0100
0010
0001
1000
0010
1000
,
0001
0100
0001
0010
0100
1000
0001
0100
,
0001
0010
0100
1000
0001
1000
0100
1000
,
0010
0100
0001
0010
0100
1000
0001
0100
,
0010
1000
0100
1000
0010
0100
0001
0010
,
1100
2000
3010
0200
0000
0302
0000
0023
,
0000
0230
0000
2300
0000
3002
1003
0020
,
0000
0230
0000
0302
0000
0023
0000
0230
,
0000
2300
0000
3002
0000
0203
0000
0320
,
1030
0200
0310
0002
0000
0203
0000
0320
,
1030
0200
0310
0002
1003
0020
0000
0230
,
0000
0302
0000
0023
0000
0230
0000
2300
,
0000
3002
0000
0203
0310
2000
0000
3200
,
0000
0320
0000
0032
0000
2003
0000
3020
,
0000
0230
0000
0302
0000
0023
0000
0230
,
0000
2300
3001
0200
0310
2000
3100
0020
,
0031
2000
0000
3002
0000
0203
0000
0320
,
0000
2030
0000
3200
0000
0320
0000
0032
,
0000
2003
0000
3002
0000
0203
0000
0302
,
0000
0203
0000
0302
0000
0023
0000
0230
,
0000
2300
0000
3002
0000
2003
3010
0100
,
0110
0010
1000
0100
1000
0010
0100
0001
,
0010
0100
1000
0001
0100
0001
1000
0100
,
0010
0001
1000
0010
1000
0100
1000
0010
,
0100
0001
0010
0100
0010
0001
1000
0100
,
1000
0010
0100
0001
0010
0100
1000
0001
,
1000
0010
0100
0001
1000
0100
1000
0010
,
0100
0001
0010
0001
1000
0100
0010
0001
,
1000
0010
0100
0001
0010
0001
1000
0100
,
0010
0001
1000
0001
0100
0001
1000
0100
,
1000
0010
0100
0001
0010
0100
1000
0001
,
0100
0001
1000
0100
0010
0100
1000
0010
,
0100
0001
0010
0001
1000
0100
0010
0001
,
1000
0010
0100
0001
0010
0001
1000
0100
,
0010
0100
1000
0010
0100
0001
1000
0100
,
1000
0001
0100
0001
1000
0100
0010
0001
,
1000
0010
0100
0001
0010
0100
1000
0001
,
2002
0000
0000
0000
,
0000
0000
0000
0000
,
0000
0000
0000
0000
,
0000
0000
0000
0000
,
0000
0000
0000
0000
0000
0000
0000
3003
,
1000
0001
0100
0010
1000
0100
0010
0001
,
1000
0001
0100
0010
1000
0100
0010
0001
,
1000
0010
0100
0001
0010
0100
1000
0001
,
0100
0010
1000
0100
0010
0001
1000
0010
,
2000
3020
0230
0000
,
0301
0010
0100
1000
0001
0100
0010
1000
,
0100
0010
0001
1000
0010
0100
0001
0010
,
0100
1000
0001
0100
0010
1000
0010
0100
,
0002
0023
0230
0000
,
1300
0001
0100
0010
1000
0100
0010
0001
,
0010
0001
1000
0001
0100
0010
1000
0100
,
0010
0001
1000
0010
0100
0001
0010
0100
,
2000
3002
0203
0000
,
0310
1000
0100
0010
0001
1000
0001
1000
,
0001
1000
0010
0100
0001
0010
0100
1000
,
0001
0100
0001
1000
0010
0100
0001
0010
,
0200
2300
3020
0000
,
0130
0001
0010
0100
1000
0001
1000
0001
,
1000
0010
0100
0010
0100
0001
0010
0100
,
1000
0001
1000
0001
1000
0010
0100
0001
,
0020
0230
2300
0000
,
3001
0100
0001
1000
0010
1000
0010
1000
,
0010
0100
0001
0010
0100
1000
0001
1000
,
0001
1000
0010
0100
0001
0010
0100
1000
,
0002
0203
0320
0000
,
1030
0001
0100
0001
1000
0010
1000
0010
,
0100
0001
0010
0100
1000
0001
0100
0010
,
1000
0100
0010
0001
1000
0000
0001
0000
0100
0010
1000
0100
0010
0000
0001
0000
,
1000
0001
0100
0001
0100
0000
0010
0000
1000
0100
0010
0001
1000
0000
0001
0000
,
0100
0001
0010
0001
0010
0000
0100
0000
1000
0001
0100
0001
0100
0000
0010
0000
,
1000
0100
0010
0001
1000
0000
0001
0000
0100
0010
1000
0100
0010
0000
0001
0000
,
0010
0001
0100
0001
0100
0000
0010
0000
1000
0001
1000
0001
1000
0000
0010
0000
,
0100
0001
0010
0001
0010
0000
0100
0000
1000
0001
1000
0001
1000
0000
0010
0000
,
0100
0001
0010
0100
1000
0000
0001
0000
1000
0010
0100
0010
0100
0000
0001
0000
,
0010
0100
1000
0001
0010
0000
0100
0000
1000
0001
0010
0100
1000
0000
0001
0000
,
0100
0010
1000
0010
1000
0000
0010
0000
0100
0001
0010
0100
1000
0000
0001
0000
,
0100
0010
1000
0100
0010
0000
0001
0000
1000
0010
0100
0001
0010
0000
0100
0000
,
1000
0001
0100
0001
0100
0000
0010
0000
1000
0100
0010
0001
1000
0000
0010
0000
,
0100
0001
0010
0001
0010
0000
0100
0000
1000
0001
0100
0001
0100
0000
0010
0000
,
1000
0100
0010
0001
1000
0000
0010
0000
0100
0001
0010
0001
0010
0000
0100
0000
,
1000
0001
0100
0001
0100
0000
0010
0000
1000
0001
0100
0001
0100
0000
0010
0000
,
1000
0100
0010
0001
0010
0000
0100
0000
1000
0001
0100
0001
0100
0000
0010
0000
,
1000
0100
0010
0001
1000
0000
0010
0000
0100
0001
0010
0001
0010
0000
0100
0000
,
1000
0001
0100
0001
0100
0010
1000
0100
0010
0001
1000
0001
1000
0010
0100
0001
,
0020
0230
2300
3002
,
0103
0010
1000
0100
0010
0001
0010
0001
,
1000
0001
0100
0001
0010
0001
0010
0100
1000
0001
0100
0001
1000
0100
1000
0010
,
2000
3200
2300
3002
,
0203
0320
2030
3020
,
0130
0001
0100
0001
0010
0100
1000
0001
1000
0010
1000
0001
1000
0100
1000
0010
,
0100
0100
0001
0001
1000
1000
0010
0010
,
0100
0001
0010
0100
1000
0001
1000
0001
1000
0010
0100
0001
0010
0001
0010
0100
,
1000
0100
0010
0001
1000
0010
0100
0001
,
0010
0100
1000
0001
1000
0001
1000
0010
1000
0010
0100
0001
0010
0100
1000
0001
,
0200
0320
2030
3200
,
0320
0032
2003
3002
,
2003
3020
0230
0302
,
0023
0230
2300
3002
,
2003
3020
0230
0302
,
0013
0100
1000
0001
0100
0001
1000
0010
,
0100
0001
0010
0100
1000
0001
0100
0010
,
1000
0001
0100
0001
1000
0010
0100
0001
,
0010
0100
1000
0001
1000
0001
1000
1000
,
0010
0100
0001
0100
0001
0010
0100
1000
0001
1000
0010
1000
0001
1000
0100
1000
,
0100
0010
0001
1000
0010
1000
0010
0100
0001
0010
0100
1000
0001
0100
0001
1000
,
0001
1000
0010
0100
0001
0010
0100
1000
,
0002
2003
3002
2003
,
3001
1000
0001
1000
0010
0100
0001
0010
0001
0010
0100
1000
0100
1000
0010
0100
,
0001
1000
0001
1000
0100
0010
0001
0010
0001
1000
0001
1000
0010
0100
0010
0100
,
0020
0000
2030
3020
,
0230
0000
0302
0023
,
0230
0000
2300
3002
,
0203
0000
0320
2030
,
3020
0000
0230
0302
,
0013
0100
1000
0100
0010
0001
1000
0001
,
1000
0010
0100
0001
1000
0100
1000
0010
1000
0010
0100
0001
0010
0001
0010
0100
,
1000
0001
0100
0001
0100
0010
1000
0100
0010
0001
1000
0001
1000
0010
1000
0001
,
0100
0001
0010
0001
0010
0100
1000
0010
0100
0001
1000
0100
1000
0100
0010
0001
,
1000
0010
0010
0100
0001
0010
0001
0010
,
0100
1000
0001
1000
0001
1000
0010
0100
,
0001
0010
0100
1000
0001
1000
0001
1000
,
0100
0010
0001
0010
0001
1000
0010
1000
,
0010
0100
0001
0100
0001
1000
0010
0100
,
0001
0010
0100
1000
0100
0010
0001
1000
,
0001
1000
0010
0100
0001
0010
0001
0010
,
0100
1000
0001
1000
0010
0100
0001
1000
,
0010
1000
0010
0100
0001
0010
0001
0010
,
0100
1000
0001
1000
0010
0100
0001
1000
,
0010
0100
0001
0010
0001
0010
0100
1000
,
0001
1000
0010
0100
0001
0010
0001
0010
,
0100
1000
0001
0100
0001
1000
0010
0100
,
0001
0010
0001
0010
0100
1000
0001
1000
,
0001
1000
0010
0100
0001
0100
0001
0010
,
0001
0010
0100
1000
0001
1000
0001
1000
,
0010
0100
0001
0010
0001
0010
0100
1000
,
0001
1000
0001
1000
0010
0100
0001
0010
,
0100
1000
0001
0100
0001
1000
0010
0100
,
0001
0010
0100
1000
0100
0010
0001
1000
,
0001
1000
0010
0100
0001
0010
0100
1000
,
0001
0100
0001
1000
0100
1000
0001
0100
,
0010
1000
0010
0100
0001
0010
0001
1000
,
0010
0100
0001
0010
0100
1000
0001
0100
,
0010
1000
0010
0100
0001
0010
0100
1000
,
0001
0100
0001
1000
0100
1000
0001
0100
,
0010
1000
0010
1000
0001
0010
0001
1000
,
0010
0100
0001
0010
0100
1000
0001
1000
,
0001
1000
0010
0100
0001
0010
0100
1000
,
0002
0000
0000
0000
,
0000
0000
0000
0000
,
1003
1000
0100
0010
0001
1000
0010
0100
,
0001
0001
0010
0100
1000
0001
0100
0001
,
1000
1000
0100
0010
0100
1000
0010
0100
,
0001
0001
0010
0100
1000
1000
0100
1000
,
0001
0010
0100
1000
0001
1000
0010
0100
,
0001
0010
0100
1000
0001
0100
0001
1000
,
0010
0100
0001
0010
0100
1000
0001
1000
,
0010
0100
0001
0010
0100
1000
0100
0010
,
0001
1000
0010
0100
0001
1000
0001
1000
,
0100
0010
0001
0100
0001
0010
0100
1000
,
0010
0100
0001
0100
0001
1000
0010
0100
,
0001
0010
0100
1000
0100
0010
0001
1000
,
0010
0100
0001
0100
0010
1000
0100
0010
,
0001
1000
0100
1000
0010
0100
0001
1000
0100
0010
0001
1000
,
0002
2003
3020
0230
,
0320
2030
3200
0320
,
0032
2003
3200
0320
,
0032
2003
3020
0230
,
0302
0023
0230
2300
,
3002
2003
3002
2003
,
3020
0230
0302
0023
,
0230
2300
3002
0203
,
0310
1000
0001
0100
0010
0100
0010
1000
0100
0010
0001
0010
0001
1000
0001
1000
,
0010
0100
0001
0010
0001
0010
0100
1000
0001
1000
0001
1000
0010
0100
0001
0010
,
0001
0010
0100
1000
0001
0100
0001
1000
0010
0100
0001
0010
0001
0010
0001
0010
,
0100
1000
0001
1000
0001
1000
0100
0010
0001
0010
0001
1000
0001
1000
0010
0100
,
0001
1000
0010
1000
0010
0100
0001
0010
0001
0010
0100
1000
0001
1000
0001
1000
,
0010
0100
0001
0010
0100
1000
0001
0100
0001
1000
0010
0100
0001
0010
0001
0010
,
0100
1000
0001
1000
0001
1000
0010
0100
0001
0010
0100
1000
0001
0100
0001
1000
,
0010
1000
0010
0100
0001
0010
0100
1000
0001
0100
0001
1000
0010
0100
0001
0010
,
0100
1000
0001
0100
0001
1000
0100
0010
0100
1000
0100
1000
0010
0100
0001
0010
,
0001
0010
0100
1000
0001
0100
0001
1000
0100
1000
0010
0100
0001
0010
0001
0010
,
0100
1000
0001
0100
0001
1000
0100
1000
0010
0100
0010
0100
0001
0010
0100
1000
,
0001
0100
0001
1000
0010
0100
0001
0010
,
0100
1000
0100
1000
0010
0100
0001
0010
0001
0010
0100
1000
0001
0100
0001
1000
,
0100
0010
0100
1000
0010
0100
0001
0010
0001
0010
0100
1000
0100
1000
0010
0100
,
0002
2003
3002
0203
,
0320
0000
0000
2030
0000
0000
3200
0000
0000
0310
0001
1000
,
0100
0010
0001
0010
0001
1000
0001
1000
,
0010
0100
0001
0010
0001
0010
0100
1000
,
0001
1000
0001
1000
0010
0100
0001
0010
,
0100
1000
0001
0100
0001
1000
0010
1000
,
0010
1000
0001
0100
0010
1000
0100
0010
,
0001
0010
0001
1000
0001
1000
0010
0100
,
0001
0010
0100
1000
0001
0100
0001
1000
,
0001
1000
0010
0100
0001
0010
0100
1000
,
2002
0000
0000
0000
,
0000
0000
0000
0000
0000
0000
0000
3003
,
0220
0000
0000
0000
,
0000
0000
0000
0000
0000
0000
0000
0330
,
0022
0000
0000
0000
,
0000
0000
0000
0000
0000
0000
0000
0033
,
2200
0000
0000
3300
0202
0000
0000
0303
,
2020
3030
0202
0303
0022
0033
0220
0330
1001
1000
0001
0100
0010
1000
0010
1000
,
0100
0010
0001
1000
0001
1000
0010
0100
,
0001
0010
0100
1000
0001
0100
0010
1000
,
0010
0100
0001
0010
0001
0010
0100
1000
,
0001
0100
0001
0100
0010
1000
0010
0100
,
0001
0010
0001
0010
0100
1000
0001
1000
,
0001
1000
0010
0100
0001
0010
0100
1000
,
0001
0100
0001
0100
0010
1000
0010
0100
,
0001
0010
0100
1000
0001
0100
0001
0100
,
0010
1000
0010
0100
0001
0010
0100
1000
,
0001
0100
0010
1000
0010
0100
0001
0010
,
0001
0010
0100
1000
0001
0100
0001
1000
,
0010
0100
0001
0010
0001
0010
0100
1000
,
0001
1000
0010
0100
0001
0010
0001
0010
,
0100
1000
0100
1000
0010
0100
0001
1000
,
0001
1000
0010
0100
0001
0010
0100
1000
,
0001
0100
0001
1000
0010
0100
0001
0010
,
0100
1000
0001
1000
0001
1000
0010
0100
,
0001
0010
0100
1000
0100
0010
0001
1000
,
0010
1000
0010
0100
0001
0010
0100
1000
,
0001
1000
0001
1000
0010
0100
0001
0010
,
0100
1000
0001
1000
0001
1000
0010
0100
,
0001
0010
0100
1000
0001
1000
0010
0100
,
0001
0010
0100
1000
0001
0100
0001
1000
,
0010
1000
0010
0100
0001
0010
0100
1000
,
0001
1000
0001
1000
0010
0100
0001
0010
,
0100
1000
0001
0100
0001
1000
0010
1000
,
0010
0100
0001
0010
0100
1000
0001
0100
,
0001
1000
0001
1000
0010
0100
0001
0010
,
0100
1000
0001
0100
0010
1000
0010
0100
,
0001
0010
0100
1000
0001
0010
0100
1000
,
0010
0100
0010
0100
0010
0100
0010
0100
,
0001
0010
0100
1000
0001
0010
0100
1000
,
2020
0000
0000
0000
,
0000
0000
0000
0000
0000
3030
1000
0001
,
0110
0010
1000
0100
1000
0010
0100
0001
,
0010
0100
1000
0001
0100
0001
1000
0100
,
1000
0010
0100
0001
0010
0100
1000
0001
,
0100
0001
1000
0100
1000
0010
0100
0001
,
0010
0100
1000
0001
0100
0001
1000
0100
,
1000
0010
0100
0001
0010
0100
2000
0000
,
3001
0100
0001
0010
0100
1000
0001
0100
,
0001
1000
0100
1000
0001
0100
0001
1000
,
0200
2300
3020
0230
,
0302
0023
0230
2300
,
3001
0100
0001
0100
0001
0100
0010
1000
,
0010
1000
0010
0100
0001
0010
0001
0010
,
0100
1000
0001
1000
0001
1000
0010
0100
,
0001
0010
0100
1000
0001
0100
0010
1000
0010
0100
0001
0010
,
0100
1000
0100
1000
0010
0100
0001
0010
0001
0010
0100
1000
0001
0100
0001
0010
,
0200
2300
3020
0230
,
0301
0010
0001
0010
0100
1000
0100
1000
0010
0100
0001
1000
0100
0010
0001
1000
,
0200
0320
0032
2003
,
3001
0100
0001
0010
0001
0010
0100
1000
0001
1000
0100
1000
0010
0100
0001
1000
,
0002
0023
0230
2300
,
3001
0100
0001
0100
0010
1000
0100
0010
0001
1000
0010
1000
0001
1000
0100
1000
,
0020
0000
2030
0000
3200
0000
0310
0001
,
1000
0001
0100
0001
1000
0010
0100
0001
,
0010
0100
1000
0001
1000
0001
1000
0010
,
0100
0001
0010
0100
1000
0001
1000
0010
,
1000
0010
0100
0001
0010
0001
0010
0100
,
1000
0001
0100
0001
1000
0001
1000
0010
,
1000
0010
0100
0001
0010
0100
1000
0001
,
1000
0100
0010
0100
1000
0010
0100
0001
,
0202
0303
0202
0303
0202
0303
0202
0303
,
0110
0100
0001
0010
0100
1000
0001
1000
0001
1000
0010
0100
0001
0010
0100
1000
,
0001
0100
0001
1000
0010
0100
0001
0010
0001
0010
0100
1000
0001
0100
0001
1000
,
0010
0100
0001
0010
0001
0010
0100
1000
0001
0100
0001
1000
0100
1000
0001
0100
,
0001
1000
0010
0100
0001
0010
0100
1000
0100
0010
0001
1000
0010
0100
0010
1000
,
0100
0010
0001
1000
0001
0100
0001
0010
0100
1000
0001
0100
0010
1000
0010
0100
,
0010
1000
0100
0010
0001
1000
0001
1000
0010
1000
0010
0100
0001
0010
0100
1000
,
0001
1000
0001
1000
0010
1000
0010
0100
0001
0010
0100
1000
0001
0100
0001
1000
,
0010
1000
0010
0100
0001
0010
0100
1000
0001
1000
0001
1000
0001
1000
0010
0100
,
0201
0302
0023
0230
,
2300
3002
0203
0320
,
2030
3020
0230
0302
,
0013
0100
1000
0100
0010
0001
0010
0100
1000
0010
0100
0001
0100
0010
1000
0010
,
0200
0302
2003
3002
,
2003
3020
0230
0302
,
2003
0000
3020
0000
0230
0000
0302
0003
,
2002
3003
2002
3003
2002
3003
2002
3003
,
0101
0100
0010
1000
0100
0010
0001
1000
0001
1000
0010
0100
0001
0010
0100
1000
,
0001
1000
0001
1000
0010
0100
0001
0010
0001
0010
0100
1000
0001
0100
0001
1000
,
0100
0010
0001
1000
0010
0100
0001
1000
0100
1000
0100
0010
0001
1000
0010
0100
,
0001
0010
0001
0010
0100
1000
0001
0100
0001
1000
0100
1000
0010
0100
0001
1000
,
0001
0100
0001
0010
0100
1000
0001
0100
,
0020
0230
0302
2003
,
3010
0100
0001
0010
0100
1000
0001
1000
,
0001
1000
0010
0100
0001
0010
0100
1000
,
0001
0100
0001
1000
0010
0100
0001
0010
,
0001
0010
0100
1000
0001
0100
0001
1000
,
0010
0100
0001
0010
0001
0010
0100
1000
,
0001
0100
0001
1000
0010
0100
0001
0010
,
0100
1000
0001
1000
0010
0100
0001
0010
,
0100
1000
0001
0100
0010
1000
0010
0100
,
0001
0010
0100
1000
0001
0100
0001
1000
,
0010
0100
0001
0010
0100
1000
0001
1000
,
0001
1000
0010
0100
0001
0010
0100
1000
,
0001
0100
0010
1000
0010
0100
0001
0010
,
0100
1000
0001
0100
0001
1000
0010
0100
,
0001
0010
0100
1000
0001
1000
0001
1000
,
0010
0100
0001
0010
0100
1000
0001
0100
,
0001
1000
0010
0100
0001
0010
0100
1000
,
0002
2003
3020
0230
,
0302
0023
0230
2300
,
3002
0203
0320
2030
,
3020
0230
0302
0023
,
0230
2300
3200
0320
,
0032
2003
3002
0203
,
0310
1000
0100
1000
0100
0010
0001
1000
0010
1000
0010
0100
0001
0100
0001
0010
,
0100
1000
0001
1000
0010
1000
0010
0100
0001
0010
0100
1000
0001
0100
0001
1000
,
0100
1000
0010
0100
0001
0010
0001
0010
0100
1000
0001
0100
0001
1000
0100
0010
,
0100
1000
0010
0100
0001
0010
0001
1000
0100
1000
0010
0100
0001
0010
0001
0000
,
2002
0000
0000
0000
,
0000
0000
0000
0000
,
0000
0000
0000
0000
,
0000
0000
0000
0000
,
3003
0000
0000
0000
;

//---------------dance-single - ----------------
#NOTES:
     dance-single:
     :
     Easy:
     14:
     1.000,1.000,0.064,0.308,1.000,3259.000,27.000,131.000,0.000,0.000:
0000
0000
0000
0000
,
1000
0100
1000
0010
0100
0001
0010
0001
,
1000
0100
0010
0001
1000
0010
0100
0001
,
0100
0001
0010
0100
1000
0010
0100
0001
,
1000
0100
1000
0100
0010
0001
1000
0010
,
0100
0001
0010
0001
0010
0100
1000
0001
,
0100
0001
1000
0100
1000
0010
0100
0001
,
0010
0001
1000
0100
0010
0001
1000
0010
,
0100
0001
0010
0001
1000
0100
0010
0100
,
1100
1000
0001
0100
0001
0010
0100
1000
,
0001
1000
0010
1000
0100
1000
0010
0100
,
0001
0010
0001
0010
0100
1000
0001
0100
,
0001
1000
0100
0010
0001
1000
0010
1000
,
0001
0100
0001
0010
0100
1000
0001
0100
,
0001
0010
0100
1000
0001
1000
0100
1000
,
0010
0100
0001
0010
0100
1000
0001
0100
,
0010
1000
0100
1000
0010
0100
0001
0010
,
1100
0000
1000
0010
0100
0001
1000
0100
1000
0100
0010
0001
1000
0010
0100
0001
,
0010
0001
0010
0100
1000
0001
0100
0001
1000
0100
1000
0010
0100
0001
0010
0100
,
1000
0001
0100
0001
1000
0010
1000
0100
1000
0010
0100
0001
0010
0001
0010
0100
,
1000
0001
1000
0010
1000
0001
1000
0100
1000
0100
1000
0010
1000
0001
1000
0100
,
0010
0001
1000
0010
0100
0001
0010
0001
1000
0100
0010
0001
1000
0000
0020
0000
,
1030
0200
0310
0002
1003
0020
0000
0230
,
0000
0302
0000
0023
0000
0230
0000
2300
,
0000
0000
3002
0000
0000
0000
0203
0000
0310
1000
0100
1000
0010
0100
0001
0010
,
0001
1000
0100
0010
0001
1000
0001
0100
0001
1000
0001
0100
0001
0010
0100
1000
,
0010
0100
0001
1000
0100
1000
0100
0010
0001
1000
0010
0100
0001
0010
0001
1000
,
0100
2000
3001
0200
0310
2000
3100
0020
,
0031
2000
0000
3002
0000
0203
0000
0320
,
0000
2030
0000
3200
0000
0320
0000
0032
,
0000
2003
0000
3002
0000
0203
0000
0302
,
0000
0203
0000
0302
0000
0023
0000
0230
,
0000
2300
0000
3002
0000
2003
3010
0100
,
0110
0010
1000
0100
1000
0010
0100
0001
,
0010
0100
1000
0001
0100
0001
1000
0100
,
0010
0001
1000
0010
1000
0100
1000
0010
,
0100
0001
0010
0100
0010
0001
1000
0100
,
1000
0010
0100
0001
0010
0100
1000
0001
,
1000
0010
0100
0001
1000
0100
1000
0010
,
0100
0001
0010
0001
1000
0100
0010
0001
,
1000
0010
0100
0001
0010
0001
1000
0100
,
0010
0001
1000
0001
0100
0001
1000
0100
,
1000
0010
0100
0001
0010
0100
1000
0001
,
0100
0001
1000
0100
0010
0100
1000
0010
,
0100
0001
0010
0001
1000
0100
0010
0001
,
1000
0010
0100
0001
0010
0001
1000
0100
,
0010
0100
1000
0010
0100
0001
1000
0100
,
1000
0001
0100
0001
1000
0100
0010
0001
,
1000
0010
0100
0001
0010
0100
1000
0001
,
2002
0000
0000
0000
,
0000
0000
0000
0000
,
0000
0000
0000
0000
,
0000
0000
0000
0000
,
0000
0000
0000
0000
0000
0000
0000
3003
,
1000
0001
0100
0010
1000
0100
0010
0001
,
1000
0001
0100
0010
1000
0100
0010
0001
,
1000
0010
0100
0001
0010
0100
1000
0001
,
0100
0010
1000
0100
0010
0001
1000
0010
,
1000
0100
1000
0100
0000
0000
0010
0001
0010
0001
0000
0000
1000
0100
1000
0001
0000
0000
0000
0000
0000
0000
0000
0000
,
0001
0010
0100
1000
0001
0100
0010
1000
,
0100
0010
0001
1000
0010
0100
0001
0010
,
0100
1000
0001
0100
0010
1000
0010
0100
,
0001
0010
0001
0010
0000
0000
0100
1000
0001
1000
0000
0000
0010
0100
0010
1000
0000
0000
0000
0000
0000
0000
0000
0000
,
1000
0001
0100
0010
1000
0100
0010
0001
,
0010
0001
1000
0001
0100
0010
1000
0100
,
0010
0001
1000
0010
0100
0001
0010
0100
,
1000
0001
1000
0001
0000
0000
1000
0100
0010
0001
0000
0000
1000
0010
1000
0010
0000
0000
0000
0000
0000
0000
0000
0000
,
0010
1000
0100
0010
0001
1000
0001
1000
,
0001
1000
0010
0100
0001
0010
0100
1000
,
0001
0100
0001
1000
0010
0100
0001
0010
,
0100
1000
0100
1000
0000
0000
0001
0100
0001
0100
0000
0000
0010
0100
0010
0100
0000
0000
0000
0000
0000
0000
0000
0000
,
0100
0001
0010
0100
1000
0001
1000
0001
,
1000
0010
0100
0010
0100
0001
0010
0100
,
1000
0001
1000
0001
1000
0010
0100
0001
,
0010
0100
1000
0100
0000
0000
0010
0001
0010
0001
0000
0000
1000
0010
1000
0001
0000
0000
0000
0000
0000
0000
0000
0000
,
0001
0100
0001
1000
0010
1000
0010
1000
,
0010
0100
0001
0010
0100
1000
0001
1000
,
0001
1000
0010
0100
0001
0010
0100
1000
,
0001
0100
0001
0100
0000
0000
0010
1000
0010
1000
0000
0000
0001
0100
0001
1000
0000
0000
0000
0000
0000
0000
0000
0000
,
1000
0001
0100
0001
1000
0010
1000
0010
,
0100
0001
0010
0100
1000
0001
0100
0010
,
1000
0100
0010
0001
1000
0000
0001
0000
0100
0010
1000
0100
0010
0000
0001
0000
,
1000
0001
0100
0001
0100
0000
0010
0000
1000
0100
0010
0001
1000
0000
0001
0000
,
0100
0001
0010
0001
0010
0000
0100
0000
1000
0001
0100
0001
0100
0000
0010
0000
,
1000
0100
0010
0001
1000
0000
0001
0000
0100
0010
1000
0100
0010
0000
0001
0000
,
0010
0001
0100
0001
0100
0000
0010
0000
1000
0001
1000
0001
1000
0000
0010
0000
,
0100
0001
0010
0001
0010
0000
0100
0000
1000
0001
1000
0001
1000
0000
0010
0000
,
0100
0001
0010
0100
1000
0000
0001
0000
1000
0010
0100
0010
0100
0000
0001
0000
,
0010
0100
1000
0001
0010
0000
0100
0000
1000
0001
0010
0100
1000
0000
0001
0000
,
0100
0010
1000
0010
1000
0000
0010
0000
0100
0001
0010
0100
1000
0000
0001
0000
,
0100
0010
1000
0100
0010
0000
0001
0000
1000
0010
0100
0001
0010
0000
0100
0000
,
1000
0001
0100
0001
0100
0000
0010
0000
1000
0100
0010
0001
1000
0000
0010
0000
,
0100
0001
0010
0001
0010
0000
0100
0000
1000
0001
0100
0001
0100
0000
0010
0000
,
1000
0100
0010
0001
1000
0000
0010
0000
0100
0001
0010
0001
0010
0000
0100
0000
,
1000
0001
0100
0001
0100
0000
0010
0000
1000
0001
0100
0001
0100
0000
0010
0000
,
1000
0100
0010
0001
0010
0000
0100
0000
1000
0001
0100
0001
0100
0000
0010
0000
,
1000
0100
0010
0001
1000
0000
0010
0000
0100
0001
0010
0001
0010
0000
0100
0000
,
1000
0001
0100
0001
0100
0010
1000
0100
0010
0001
1000
0001
1000
0010
0100
0001
,
0010
0000
0100
0000
1000
0001
0100
0001
0010
0000
0100
0000
1000
0010
1000
0100
,
0010
0000
0001
0000
0100
0001
0100
0001
0010
0000
0100
0000
1000
0001
1000
0100
,
0010
0001
1000
0001
0100
0001
0010
0100
1000
0001
0100
0001
1000
0100
1000
0010
,
1000
0000
0100
0000
0010
0001
1000
0001
0100
0000
0010
0000
1000
0100
1000
0100
,
0010
0000
0001
0000
1000
0100
1000
0010
0100
0000
0001
0000
0100
0001
0010
0100
,
1000
0001
0100
0001
0010
0100
1000
0001
1000
0010
1000
0001
1000
0100
1000
0010
,
0100
0100
0001
0001
1000
1000
0010
0010
,
0100
0001
0010
0100
1000
0001
1000
0001
1000
0010
0100
0001
0010
0001
0010
0100
,
1000
0000
0001
0000
0100
0001
0010
0100
1000
0000
0001
0000
1000
0100
1000
0010
,
1000
0100
1000
0010
1000
0001
1000
0010
1000
0010
0100
0001
0010
0100
1000
0001
,
0100
0000
0010
0000
1000
0100
1000
0010
0100
0000
0001
0000
1000
0100
0010
0001
,
1000
0000
0010
0000
0100
0001
0100
0001
0010
0000
0100
0000
1000
0001
0100
0001
,
0010
0000
0100
0000
1000
0010
0100
0010
1000
0000
0100
0000
0010
0001
0010
0001
,
1000
0000
0010
0000
0100
0001
0100
0001
0010
0000
0100
0000
1000
0001
0100
0001
,
0010
0000
0100
0000
1000
0010
1000
0100
1000
0000
0010
0000
0100
0001
0010
0100
,
1000
0001
0100
0001
0010
0001
1000
0100
1000
0100
0010
0001
1000
0010
0100
0001
,
0010
0001
0010
0100
1000
0001
0100
0010
,
1000
0001
0100
0001
1000
0010
1000
0010
0100
0001
0010
0100
1000
0001
0100
0001
,
1000
0010
1000
0100
1000
0001
1000
1000
,
0010
0100
0001
0100
0001
0010
0100
1000
0001
1000
0010
1000
0001
1000
0100
1000
,
0100
0010
0001
1000
0010
1000
0010
0100
0001
0010
0100
1000
0001
0100
0001
1000
,
0001
1000
0010
0100
0001
0010
0100
1000
,
0002
2003
3002
2003
,
3001
1000
0001
1000
0010
0100
0001
0010
0001
0010
0100
1000
0100
1000
0010
0100
,
0001
1000
0001
1000
0100
0010
0001
0010
0001
1000
0001
1000
0010
0100
0010
0100
,
0001
0000
1000
0000
0100
0010
0001
1000
0010
0000
0100
0000
0001
1000
0100
1000
,
0010
0000
0100
0000
0001
1000
0001
1000
0100
0000
0010
0000
0001
1000
0010
1000
,
0010
0000
0100
0000
0001
0010
0100
0010
0001
0000
1000
0000
0100
1000
0100
1000
,
0010
0000
0100
0000
0001
1000
0100
1000
0010
0000
0100
0000
0001
0010
0100
0010
,
0001
0000
1000
0000
0100
1000
0100
1000
0010
0000
0100
0000
0001
0010
0100
1000
,
0001
1000
0010
0100
0001
0010
0100
0100
,
1000
0010
0100
0001
1000
0100
1000
0010
1000
0010
0100
0001
0010
0001
0010
0100
,
1000
0001
0100
0001
0100
0010
1000
0100
0010
0001
1000
0001
1000
0010
1000
0001
,
0100
0001
0010
0001
0010
0100
1000
0010
0100
0001
1000
0100
1000
0100
0010
0001
,
1000
0010
0010
0100
0001
0010
0001
0010
,
0100
1000
0001
0100
0001
1000
0100
1000
0100
0010
0001
1000
0010
0100
0001
0010
,
0100
1000
0010
1000
0001
1000
0001
1000
,
0100
0010
0001
0010
0001
1000
0010
1000
,
0010
0100
0001
0100
0001
1000
0010
0100
,
0001
0010
0100
1000
0001
0100
0001
1000
0100
1000
0010
0100
0001
0010
0001
1000
,
0100
0010
0001
1000
0010
0100
0001
0100
0001
0010
0100
1000
0010
0100
0001
1000
,
0001
1000
0001
1000
0010
0100
0001
1000
,
0010
1000
0010
0100
0001
0010
0001
0010
,
0100
1000
0001
0100
0001
1000
0100
1000
0100
0010
0001
1000
0010
0100
0001
0010
,
0001
1000
0100
0010
0001
1000
0010
1000
0100
0010
0001
1000
0010
1000
0010
0100
,
0001
1000
0100
1000
0010
0100
0001
0010
,
0100
1000
0001
0100
0001
1000
0100
1000
,
0100
0010
0001
1000
0010
0100
0001
0010
,
0001
1000
0100
0010
0100
1000
0010
0100
,
0001
0010
0001
1000
0010
1000
0001
0010
,
0100
1000
0001
0100
0001
1000
0100
1000
,
0010
0100
0001
0010
0100
1000
0001
0100
,
0001
1000
0100
0010
0001
1000
0010
0100
,
0001
0010
0001
1000
0100
0010
0001
1000
,
0010
0100
0001
0010
0001
1000
0100
0010
,
0100
1000
0010
0100
0001
0010
0100
0010
,
0001
1000
0010
0100
0010
1000
0100
0010
,
0001
1000
0010
0100
0001
0010
0100
0010
,
0001
1000
0010
0100
0010
1000
0100
0010
,
0100
1000
0010
0100
0010
1000
0100
1000
,
0010
0100
0001
0010
0001
1000
0100
0010
,
0001
1000
0010
1000
0001
0010
0001
1000
,
0100
1000
0010
0100
0001
1000
0100
0010
,
0002
0000
0000
0000
,
0000
0000
0000
0000
,
1003
1000
0100
0010
0001
1000
0010
0100
,
0001
0001
0010
0100
1000
0001
0100
0001
,
1000
1000
0100
0010
0100
1000
0010
0100
,
0001
0001
0010
0100
1000
1000
0100
1000
,
0001
0010
0100
1000
0001
1000
0010
0100
,
0001
0010
0100
1000
0001
0100
0001
1000
,
0010
0100
0001
0010
0100
1000
0001
1000
,
0010
0100
0001
0010
0100
1000
0100
0010
,
0001
1000
0010
0100
0001
1000
0001
1000
,
0100
0010
0001
0100
0001
0010
0100
1000
,
0010
0100
0001
0100
0001
1000
0010
0100
,
0001
0010
0100
1000
0100
0010
0001
1000
,
0010
0100
0001
0100
0010
1000
0100
0010
,
0001
1000
0100
1000
0010
0100
0001
1000
0100
0010
0001
1000
,
0010
0100
0001
1000
0100
1000
0010
0100
0001
0010
0100
1000
0001
0100
0001
1000
,
0100
0010
0001
1000
0010
1000
0010
0100
0001
0010
0100
1000
0001
0100
0001
1000
,
0100
0010
0001
1000
0010
1000
0001
0010
0001
1000
0100
0010
0001
1000
0010
1000
,
0010
0100
0001
0010
0100
1000
0001
0100
0001
0100
0010
1000
0100
0010
0001
1000
,
0010
1000
0100
1000
0010
0100
0001
0010
0100
1000
0001
0100
0001
1000
0100
1000
,
0010
0100
0001
1000
0100
1000
0010
0100
,
0001
0010
0100
1000
0001
0100
0001
1000
,
0100
0010
0001
1000
0010
1000
0001
0010
,
0100
1000
0001
0100
0001
1000
0010
0100
0001
0010
0100
0010
0001
1000
0100
1000
,
0010
0100
0001
0010
0100
1000
0001
0100
0001
1000
0100
1000
0100
0010
0001
1000
,
0010
0100
0001
0010
0100
0010
0001
0010
0001
1000
0010
0100
0001
0010
0100
1000
,
0001
1000
0100
1000
0100
0010
0001
1000
0010
0100
0001
0010
0001
1000
0100
0010
,
0100
1000
0010
0100
0001
1000
0010
1000
0010
0100
0001
0010
0100
1000
0001
0100
,
0001
1000
0100
0010
0100
1000
0010
0100
0001
0010
0001
1000
0010
1000
0010
0100
,
0001
0010
0100
1000
0001
0100
0001
1000
0100
0010
0001
1000
0010
1000
0001
1000
,
0100
1000
0100
0010
0001
1000
0010
0100
0001
0010
0001
1000
0010
0100
0001
0010
,
0100
1000
0001
0100
0001
1000
0100
1000
0010
0100
0001
0010
0100
1000
0001
0100
,
0001
1000
0100
0010
0001
1000
0010
1000
0001
0100
0001
0010
0100
1000
0010
0100
,
0001
0010
0100
1000
0001
0100
0001
1000
0100
0010
0001
1000
0010
0100
0001
1000
,
0001
0100
0001
1000
0010
0100
0001
0010
,
0100
1000
0010
0100
0001
0010
0001
1000
0100
0010
0001
1000
0010
1000
0100
0010
,
0001
1000
0010
0100
0001
0010
0001
1000
0010
0100
0001
0010
0100
1000
0001
0100
,
0010
1000
0100
1000
0010
0100
0001
0010
,
0100
0000
0000
1000
0000
0000
0001
0000
0000
0100
0000
0000
0001
0000
0000
1000
0000
0000
0100
0000
0010
0000
0001
0000
,
1000
0010
0100
0001
1000
0100
1000
0100
,
0010
0001
1000
0010
0100
0001
0010
0001
,
1000
0100
0010
0100
1000
0010
0100
0001
,
0010
0001
1000
0010
1000
0001
0100
0001
,
0010
0100
1000
0010
0100
0001
1000
0100
,
1000
0010
0100
0001
0010
0100
1000
0100
,
1000
0010
0100
0001
0010
0001
1000
0100
,
0010
0001
1000
0010
0100
0001
0010
0100
,
2200
0000
0000
0000
,
0000
0000
0000
0000
0000
0000
0000
3300
,
0220
0000
0000
0000
,
0000
0000
0000
0000
0000
0000
0000
0330
,
0022
0000
0000
0000
,
0000
0000
0000
0000
0000
0000
0000
0033
,
2200
0000
0000
3300
0202
0000
0000
0303
,
2020
3030
0202
0303
0022
0033
0220
0330
1001
1000
0001
0100
0010
1000
0010
1000
,
0100
0010
0001
1000
0010
0100
0001
0010
0001
1000
0100
0010
0001
1000
0010
0100
,
0001
0010
0001
1000
0100
0010
0001
1000
0010
0100
0001
0010
0001
1000
0100
0010
,
0001
1000
0010
0100
0001
0010
0001
1000
0100
0010
0100
1000
0010
0100
0001
0010
,
0001
1000
0010
1000
0010
0100
0001
0010
0100
1000
0001
0100
0001
1000
0010
0100
,
0001
1000
0100
0010
0100
1000
0010
0100
0001
1000
0010
0100
0001
1000
0100
1000
,
0010
0100
0001
0010
0100
1000
0001
0100
0001
1000
0100
1000
0010
0100
0001
0010
,
0100
1000
0010
0100
0001
0010
0001
1000
0100
0010
0001
1000
0010
0100
0001
0010
,
0001
1000
0010
0100
0001
0010
0100
1000
0001
0100
0001
1000
0100
0010
0100
1000
,
0010
0100
0001
0010
0001
1000
0010
1000
0010
0100
0001
0010
0100
1000
0001
0100
,
0001
1000
0100
0010
0001
1000
0010
0100
0001
0010
0100
0010
0001
1000
0010
1000
,
0001
0010
0001
1000
0100
0010
0001
1000
0010
0100
0001
0010
0001
1000
0100
0010
,
0001
1000
0010
0100
0001
0010
0001
1000
0100
0010
0001
1000
0010
1000
0001
1000
,
0100
1000
0010
0100
0001
0010
0100
1000
0001
0100
0001
1000
0100
0010
0001
1000
,
0010
0100
0001
1000
0100
1000
0010
0100
0001
0010
0100
1000
0001
0100
0001
1000
,
0100
0010
0100
1000
0010
0100
0001
0010
0001
1000
0100
0010
0001
1000
0010
0100
,
0001
0010
0001
1000
0100
0010
0001
1000
0010
0100
0001
0010
0001
1000
0010
1000
,
0010
0100
0001
0010
0100
1000
0001
0100
0001
1000
0100
0010
0001
1000
0010
0100
,
0001
0010
0001
1000
0010
1000
0100
0010
0001
1000
0010
0100
0001
0010
0100
0010
,
0001
1000
0100
1000
0010
0100
0001
0010
0100
1000
0001
0100
0001
1000
0010
0100
,
0001
0010
0100
1000
0001
0100
0001
1000
0100
0010
0001
1000
0010
0100
0001
0010
,
0100
1000
0010
1000
0001
1000
0010
0100
,
0001
0010
0100
1000
0001
1000
0010
0100
,
0001
0010
0100
1000
0001
0100
0001
1000
,
0010
1000
0010
0100
0001
0010
0100
1000
,
0001
1000
0001
1000
0010
0100
0001
0010
,
0100
1000
0001
0100
0001
1000
0010
1000
,
0010
0100
0001
0010
0100
1000
0001
0100
,
0001
1000
0001
1000
0010
0100
0001
0010
,
0100
1000
0001
0100
0010
1000
0010
0100
,
0001
0010
0100
1000
0001
0010
0100
1000
,
0010
0100
0010
0100
0010
0100
0010
0100
,
0001
0010
0100
1000
0001
0010
0100
1000
,
2020
0000
0000
0000
,
0000
0000
0000
0000
0000
3030
1000
0001
,
0110
0010
1000
0100
1000
0010
0100
0001
,
0010
0100
1000
0001
0100
0001
1000
0100
,
1000
0010
0100
0001
0010
0100
1000
0001
,
0100
0001
1000
0100
1000
0010
0100
0001
,
0010
0100
1000
0001
0100
0001
1000
0100
,
1000
0010
0100
0001
0010
0100
2000
0000
,
3001
0100
0001
0010
0100
1000
0001
0100
,
0001
1000
0100
1000
0001
0100
0001
1000
,
0200
2300
3020
0230
,
0302
0023
0230
2300
,
3001
0100
0001
0100
0001
0100
0010
1000
,
0010
1000
0010
0100
0001
0010
0001
0010
,
0100
1000
0001
1000
0001
1000
0010
0100
,
0001
0010
0100
1000
0001
0100
0010
1000
0010
0100
0001
0010
,
0100
1000
0001
0100
0001
1000
0100
0010
0001
1000
0010
1000
0001
0010
0100
1000
,
0002
2003
3020
0230
,
0301
0010
0001
1000
0100
0010
0001
1000
0010
0100
0001
1000
0100
1000
0010
0100
,
0002
0023
0032
2003
,
3001
0100
0001
0010
0001
0010
0100
1000
0001
1000
0100
1000
0010
0100
0001
1000
,
0002
0023
0230
2300
,
3001
0100
0001
0100
0010
1000
0100
0010
0001
1000
0010
1000
0001
1000
0100
1000
,
0020
0000
2030
0000
3200
0000
0310
0001
,
1000
0001
0100
0001
1000
0010
0100
0001
,
0010
0100
1000
0001
1000
0001
1000
0010
,
0100
0001
0010
0100
1000
0001
1000
0010
,
1000
0010
0100
0001
0010
0001
0010
0100
,
1000
0001
0100
0001
1000
0001
1000
0010
,
1000
0010
0100
0001
0010
0100
1000
0001
,
1000
0100
0010
0100
1000
0010
0100
0001
,
0202
0303
0202
0303
0202
0303
0202
0303
,
0110
0010
1000
0100
0010
0001
1000
0010
0100
0001
0010
0001
1000
0100
0010
0001
,
1000
0010
0100
0001
0010
0001
1000
0010
1000
0100
0010
0001
1000
0010
0100
0001
,
0010
0100
1000
0001
0100
0001
1000
0100
0010
0001
1000
0010
0100
0001
0010
0001
,
1000
0010
0100
0001
1000
0100
1000
0010
0100
0001
0010
0100
1000
0001
0100
0001
,
1000
0100
0010
0001
1000
0010
0100
0001
0010
0001
1000
0010
0100
0001
1000
0100
,
1000
0010
0100
0001
0010
0100
1000
0001
0100
0001
1000
0100
0010
0001
1000
0010
,
0100
0001
0010
0001
1000
0100
0010
0001
1000
0010
0100
0001
1000
0100
1000
0010
,
0100
0001
0010
0100
0010
0001
1000
0100
1000
0010
0100
0001
1000
0100
0010
0001
,
1000
0100
1000
0010
0100
0001
0010
0001
,
1000
0100
1000
0010
0100
0001
0010
0100
,
1000
0001
0100
0001
1000
0100
0010
0001
,
1000
0010
1000
0100
0010
0001
0010
0100
1000
0010
0100
0001
0100
0010
1000
0010
,
0100
0001
1000
0100
1000
0010
0100
0001
,
0010
0100
1000
0001
0100
0001
1000
0100
,
0010
0001
1000
0010
0100
0001
0010
0001
,
2002
3003
2002
3003
2002
3003
2002
3003
,
0101
0100
0010
1000
0100
0010
0001
1000
0001
1000
0010
0100
0001
0010
0100
1000
,
0001
1000
0001
1000
0010
0100
0001
0010
0001
0010
0100
1000
0001
0100
0001
1000
,
0100
0010
0001
1000
0010
0100
0001
1000
0100
1000
0100
0010
0001
1000
0010
0100
,
0001
0010
0001
0010
0100
1000
0001
0100
0001
1000
0100
1000
0010
0100
0001
1000
,
0001
0100
0001
0010
0100
1000
0001
0100
,
0020
0230
0302
2003
,
3010
0100
0001
0010
0100
1000
0001
1000
,
0001
1000
0010
0100
0001
0010
0100
1000
,
0001
0100
0001
1000
0010
0100
0001
0010
,
0001
0010
0100
1000
0001
0100
0001
1000
,
0010
0100
0001
0010
0001
0010
0100
1000
,
0001
0100
0001
1000
0010
0100
0001
0010
,
0100
1000
0001
1000
0010
0100
0001
0010
,
0100
1000
0001
0100
0010
1000
0010
0100
,
0001
0010
0100
1000
0001
0100
0001
1000
,
0010
0100
0001
0010
0100
1000
0001
1000
,
0001
1000
0010
0100
0001
0010
0100
1000
,
0001
0100
0010
1000
0010
0100
0001
0010
,
0100
1000
0001
0100
0001
1000
0010
0100
,
0001
0010
0100
1000
0001
1000
0001
1000
,
0010
0100
0001
0010
0100
1000
0001
0100
,
0001
1000
0010
0100
0001
0010
0100
1000
,
0002
2003
3020
0230
,
0302
0023
0230
2300
,
3002
0203
0320
2030
,
3020
0230
0302
0023
,
0230
2300
3200
0320
,
0032
2003
3002
0203
,
0310
1000
0100
1000
0100
0010
0001
1000
0010
1000
0010
0100
0001
0100
0001
0010
,
0100
1000
0001
1000
0010
1000
0010
0100
0001
0010
0100
1000
0001
0100
0001
1000
,
0100
1000
0010
0100
0001
0010
0001
0010
0100
1000
0001
0100
0001
1000
0100
0010
,
0100
1000
0010
0100
0001
0010
0001
1000
0100
1000
0010
0100
0001
0010
0001
0000
,
2002
0000
0000
0000
,
0000
0000
0000
0000
,
0000
0000
0000
0000
,
0000
0000
0000
0000
,
3003
0000
0000
0000
;

//---------------dance-single - ----------------
#NOTES:
     dance-single:
     :
     Medium:
     16:
     1.000,1.000,0.068,0.162,1.000,3708.000,29.000,69.000,0.000,0.000:
0000
0000
0000
0000
,
1000
0100
0010
0001
1000
0010
0100
0001
0010
0001
1000
0100
0010
0001
1000
0010
,
0100
0001
0010
0001
1000
0010
0100
0001
1000
0100
0010
0100
1000
0010
0100
0001
,
1000
0100
1000
0010
0100
0001
0010
0100
0010
0001
1000
0010
1000
0001
0010
0100
,
1000
0001
0100
0001
1000
0100
0010
0001
1000
0010
0100
0001
0010
0100
0010
0001
,
1000
0010
0100
0010
1000
0100
1000
0010
0100
0001
0010
0100
1000
0001
0100
0001
,
1000
0100
0010
0100
1000
0010
0100
0001
0010
0001
1000
0010
0100
0001
1000
0100
,
1000
0010
0100
0001
0010
0100
1000
0001
0100
0001
1000
0100
0010
0001
1000
0010
,
0100
0001
0010
0001
1000
0100
0010
0001
1000
0010
1000
0100
0010
0001
0100
0001
,
1000
0010
0100
0001
1000
0100
1000
0010
0100
0001
0010
0100
1000
0001
0100
0001
,
1000
0100
0010
0001
1000
0010
0100
0001
0010
0001
1000
0100
0010
0001
1000
0010
,
0100
0001
0010
0001
1000
0010
0100
0001
1000
0100
0010
0100
1000
0010
0100
0001
,
0010
0001
1000
0010
0100
0001
1000
0100
1000
0010
0100
0001
0010
0100
1000
0001
,
0100
0001
1000
0100
0010
0001
1000
0010
1000
0001
0010
0001
1000
0100
0010
0001
,
1000
0010
0100
0001
0010
0001
1000
0100
0010
0100
1000
0010
0100
0001
0010
0001
,
1000
0010
0100
0001
1000
0100
1000
0010
0100
0001
0010
0100
1000
0001
0100
0001
,
1000
0100
0010
0001
1000
0010
0100
0001
1000
0100
1000
0010
0100
0001
0010
0100
,
1000
0001
0100
0001
1000
0010
0100
0001
0010
0100
1000
0001
0100
0010
1000
0100
,
1000
0010
0100
0001
0010
0100
1000
0001
0100
0010
1000
0100
0010
0100
1000
0010
,
0100
0001
0010
0001
1000
0100
0010
0001
1000
0010
1000
0001
0010
0001
1000
0100
,
0010
0001
1000
0010
0100
0001
0010
0001
1000
0100
0010
0001
1000
0010
0100
0001
,
1000
0100
1000
0010
0100
0001
0010
0100
0010
0001
1000
0010
0100
0001
0010
0100
,
1000
0001
0100
0001
1000
0010
0100
0001
0010
0001
1000
0100
0010
0001
1000
0010
,
0100
0001
0010
0001
1000
0100
1000
0010
0100
0001
0010
0100
1000
0001
0100
0001
,
1000
0100
0010
0001
1000
0010
0100
0001
0010
0100
1000
0001
0100
0001
1000
0100
,
0010
0001
1000
0010
0100
0001
0010
0001
1000
0100
0010
0001
1000
0010
0100
0001
,
0010
0001
1000
0100
0010
0100
1000
0010
0100
0001
0010
0001
1000
0010
1000
0100
,
0010
0001
1000
0010
0100
0001
0010
0001
1000
0010
1000
0100
0010
0001
1000
0010
,
0100
0001
0010
0100
1000
0001
0100
0010
1000
0100
0010
0100
1000
0010
0100
0001
,
0010
0001
1000
0100
0010
0001
1000
0010
0100
0001
0010
0001
1000
0010
0100
0001
,
1000
0100
1000
0010
0100
0001
0010
0100
1000
0001
0100
0001
1000
0100
0010
0100
,
1000
0010
0100
0001
0010
0001
1000
0010
1000
0100
0010
0001
1000
0010
0100
0001
,
0010
0001
1000
0100
1000
0010
0100
0001
0010
0100
1000
0001
0100
0010
1000
0100
,
1100
0010
1000
0100
1000
0010
0100
0001
,
0010
0100
1000
0001
0100
0001
1000
0100
,
0010
0001
1000
0010
1000
0100
1000
0010
,
0100
0001
0010
0100
0010
0001
1000
0100
,
1000
0010
0100
0001
0010
0100
1000
0001
,
1000
0010
0100
0001
1000
0100
1000
0010
,
0100
0001
0010
0001
1000
0100
0010
0001
,
1000
0010
0100
0001
0010
0001
1000
0100
,
0010
0001
1000
0001
0100
0001
1000
0100
,
1000
0010
0100
0001
0010
0100
1000
0001
,
0100
0001
1000
0100
0010
0100
1000
0010
,
0100
0001
0010
0001
1000
0100
0010
0001
,
1000
0010
0100
0001
0010
0001
1000
0100
,
0010
0100
1000
0010
0100
0001
1000
0100
,
1000
0001
0100
0001
1000
0100
0010
0001
,
1000
0010
0100
0001
0010
0100
1000
0001
,
2002
0000
0000
0000
,
0000
0000
0000
0000
,
0000
0000
0000
0000
,
0000
0000
0000
0000
,
0000
0000
0000
0000
0000
0000
0000
3003
,
1000
0001
0100
0010
1000
0100
0010
0001
,
1000
0001
0100
0010
1000
0100
0010
0001
,
1000
0010
0100
0001
0010
0100
1000
0001
,
0100
0010
1000
0100
0010
0001
1000
0010
,
1000
0100
1000
0100
0000
0000
0010
0001
0010
0001
0000
0000
1000
0100
1000
0001
0000
0000
0000
0000
0000
0000
0000
0000
,
0001
0010
0100
1000
0001
0100
0010
1000
,
0100
0010
0001
1000
0010
0100
0001
0010
,
0100
1000
0001
0100
0010
1000
0010
0100
,
0001
0010
0001
0010
0000
0000
0100
1000
0001
1000
0000
0000
0010
0100
0010
1000
0000
0000
0000
0000
0000
0000
0000
0000
,
1000
0001
0100
0010
1000
0100
0010
0001
,
0010
0001
1000
0001
0100
0010
1000
0100
,
0010
0001
1000
0010
0100
0001
0010
0100
,
1000
0001
1000
0001
0000
0000
1000
0100
0010
0001
0000
0000
1000
0010
1000
0010
0000
0000
0000
0000
0000
0000
0000
0000
,
0010
1000
0100
0010
0001
1000
0001
1000
,
0001
1000
0010
0100
0001
0010
0100
1000
,
0001
0100
0001
1000
0010
0100
0001
0010
,
0100
1000
0100
1000
0000
0000
0001
0100
0001
0100
0000
0000
0010
0100
0010
0100
0000
0000
0000
0000
0000
0000
0000
0000
,
0100
0001
0010
0100
1000
0001
1000
0001
,
1000
0010
0100
0010
0100
0001
0010
0100
,
1000
0001
1000
0001
1000
0010
0100
0001
,
0010
0100
1000
0100
0000
0000
0010
0001
0010
0001
0000
0000
1000
0010
1000
0001
0000
0000
0000
0000
0000
0000
0000
0000
,
0001
0100
0001
1000
0010
1000
0010
1000
,
0010
0100
0001
0010
0100
1000
0001
1000
,
0001
1000
0010
0100
0001
0010
0100
1000
,
0001
0100
0001
0100
0000
0000
0010
1000
0010
1000
0000
0000
0001
0100
0001
1000
0000
0000
0000
0000
0000
0000
0000
0000
,
1000
0001
0100
0001
1000
0010
1000
0010
,
0100
0001
0010
0100
1000
0001
0100
0010
,
1000
0100
0010
0001
1000
0000
0001
0000
0100
0010
1000
0100
0010
0000
0001
0000
,
1000
0001
0100
0001
0100
0000
0010
0000
1000
0100
0010
0001
1000
0000
0001
0000
,
0100
0001
0010
0001
0010
0000
0100
0000
1000
0001
0100
0001
0100
0000
0010
0000
,
1000
0100
0010
0001
1000
0000
0001
0000
0100
0010
1000
0100
0010
0000
0001
0000
,
0010
0001
0100
0001
0100
0000
0010
0000
1000
0001
1000
0001
1000
0000
0010
0000
,
0100
0001
0010
0001
0010
0000
0100
0000
1000
0001
1000
0001
1000
0000
0010
0000
,
0100
0001
0010
0100
1000
0000
0001
0000
1000
0010
0100
0010
0100
0000
0001
0000
,
0010
0100
1000
0001
0010
0000
0100
0000
1000
0001
0010
0100
1000
0000
0001
0000
,
0100
0010
1000
0010
1000
0000
0010
0000
0100
0001
0010
0100
1000
0000
0001
0000
,
0100
0010
1000
0100
0010
0000
0001
0000
1000
0010
0100
0001
0010
0000
0100
0000
,
1000
0001
0100
0001
0100
0000
0010
0000
1000
0100
0010
0001
1000
0000
0010
0000
,
0100
0001
0010
0001
0010
0000
0100
0000
1000
0001
0100
0001
0100
0000
0010
0000
,
1000
0100
0010
0001
1000
0000
0010
0000
0100
0001
0010
0001
0010
0000
0100
0000
,
1000
0001
0100
0001
0100
0000
0010
0000
1000
0001
0100
0001
0100
0000
0010
0000
,
1000
0100
0010
0001
0010
0000
0100
0000
1000
0001
0100
0001
0100
0000
0010
0000
,
1000
0100
0010
0001
1000
0000
0010
0000
0100
0001
0010
0001
0010
0000
0100
0000
,
1000
0001
0100
0001
0010
0100
1000
0010
0100
0001
1000
0100
1000
0010
0100
0001
,
0010
0100
1000
0001
0100
0001
1000
0100
0010
0001
1000
0010
1000
0100
0010
0001
,
1000
0010
0100
0001
0010
0001
1000
0100
0010
0001
1000
0010
0100
0001
0010
0001
,
1000
0010
0100
0001
1000
0100
1000
0010
0100
0001
0010
0100
1000
0001
0100
0001
,
1000
0100
0010
0001
1000
0010
0100
0001
0010
0100
0010
0001
1000
0010
0100
0010
,
1000
0100
0010
0001
1000
0010
0100
0001
0010
0001
1000
0100
0010
0001
1000
0010
,
0100
0001
0010
0001
1000
0100
0010
0001
1000
0010
0100
0001
1000
0100
1000
0010
,
0100
0100
0001
0001
1000
1000
0010
0010
,
0100
0001
0010
0100
1000
0010
0100
0001
1000
0100
1000
0010
0100
0001
0010
0100
,
1000
0001
0100
0001
1000
0100
0010
0001
1000
0010
0100
0001
0010
0001
1000
0100
,
0010
0100
1000
0010
0100
0001
0010
0001
1000
0010
0100
0001
1000
0100
1000
0010
,
0100
0001
0010
0100
1000
0001
0100
0001
1000
0100
0010
0001
1000
0010
0100
0001
,
0100
0000
0010
0000
0100
0001
0100
0001
0010
0000
0100
0000
1000
0001
0100
0001
,
0010
0000
0100
0000
1000
0010
0100
0010
1000
0000
0100
0000
0010
0001
0010
0001
,
1000
0000
0010
0000
0100
0001
0100
0001
0010
0000
0100
0000
1000
0001
0100
0001
,
0010
0000
0100
0000
1000
0010
1000
0100
1000
0000
0010
0000
0100
0001
0010
0100
,
1000
0001
0100
0001
0010
0001
1000
0100
1000
0100
0010
0001
1000
0010
0100
0001
,
0010
0001
0010
0100
1000
0001
0100
0010
,
1000
0001
0100
0001
1000
0010
1000
0010
0100
0001
0010
0100
1000
0001
0100
0001
,
1000
0010
1000
0100
1000
0001
1000
1000
,
0010
0100
0001
0100
0001
0010
0100
1000
0001
1000
0010
1000
0001
1000
0100
1000
,
0100
0010
0001
1000
0010
1000
0010
0100
0001
0010
0100
1000
0001
0100
0001
1000
,
0001
1000
0010
0100
0001
0010
0100
1000
,
1100
0100
0110
0010
0011
0001
0101
0100
,
0010
1000
0100
1000
0010
0100
0001
0010
0100
1000
0001
0100
0001
1000
0100
0010
,
0001
1000
0010
0100
0001
0010
0001
1000
0100
0010
0001
0010
0100
1000
0010
0100
,
0001
1000
0100
1000
0010
0100
0001
0010
0100
1000
0001
0100
0001
1000
0100
0010
,
0001
0000
0100
0000
0001
1000
0001
1000
0100
0000
0010
0000
0001
1000
0010
1000
,
0010
0000
0100
0000
0001
0010
0100
0010
0001
0000
1000
0000
0100
1000
0100
1000
,
0010
0000
0100
0000
0001
1000
0100
1000
0010
0000
0100
0000
0001
0010
0100
0010
,
0001
0000
1000
0000
0100
1000
0100
1000
0010
0000
0100
0000
0001
0010
0100
1000
,
0001
0100
0001
0010
0100
1000
0010
0100
0001
1000
0100
1000
0010
0100
0001
0010
,
0100
1000
0001
0100
0001
1000
0100
0010
0001
1000
0010
0100
0001
0010
0001
1000
,
0010
0100
0001
1000
0100
1000
0010
0100
0001
0010
0100
1000
0001
0100
0001
1000
,
0100
0010
0001
1000
0010
0100
0001
0010
0001
1000
0100
0010
0001
0010
0100
1000
,
0010
0100
0001
1000
0100
1000
0010
0100
0001
0010
0100
0010
0001
1000
0010
1000
,
0001
0010
0100
1000
0001
0100
0001
1000
0100
0010
0001
1000
0010
0100
0010
1000
,
0100
0010
0001
1000
0010
0100
0001
0010
0100
1000
0001
0100
0001
1000
0100
0010
,
0001
1000
0010
0100
0001
0010
0001
1000
0100
0010
0001
1000
0010
0100
0001
0010
,
0100
0010
0001
1000
0100
1000
0010
0100
0001
0010
0100
1000
0001
0100
0001
0010
,
0100
1000
0010
1000
0001
0100
0001
1000
0100
1000
0010
0100
0001
0010
0001
1000
,
0100
0010
0001
1000
0010
0100
0001
0100
0001
0010
0100
1000
0010
0100
0001
1000
,
0001
1000
0001
1000
0010
0100
0001
1000
,
0010
1000
0010
0100
0001
0010
0001
0010
,
0100
1000
0001
0100
0001
1000
0100
0010
0001
1000
0010
0100
0001
0010
0001
1000
,
0100
0010
0001
1000
0010
0100
0001
0010
0100
0010
0001
1000
0010
0100
0001
0010
,
0100
1000
0010
1000
0001
0100
0001
0010
,
0100
1000
0001
0100
0001
1000
0100
1000
,
0100
0010
0001
1000
0010
0100
0001
0010
,
0001
1000
0100
0010
0100
1000
0010
0100
,
0001
0010
0001
1000
0010
1000
0001
0010
,
0100
1000
0001
0100
0001
1000
0100
1000
,
0010
0100
0001
0010
0100
1000
0001
0100
,
0001
1000
0100
0010
0001
1000
0010
0100
,
0001
0010
0001
1000
0100
0010
0001
1000
,
0010
0100
0001
1000
0100
1000
0010
0100
0001
0010
0100
1000
0001
0100
0001
1000
,
0100
0010
0001
1000
0010
0100
0001
0010
0001
1000
0100
0010
0100
1000
0010
0100
,
0001
0010
0001
1000
0010
0100
0001
1000
0100
1000
0010
0100
0001
0010
0100
1000
,
0001
1000
0010
0100
0001
0010
0100
0010
,
0001
1000
0010
0100
0010
1000
0100
0010
,
0001
1000
0100
1000
0010
0100
0001
0010
0100
1000
0001
0100
0001
1000
0100
1000
,
0010
0100
0001
0010
0100
1000
0001
0100
0001
1000
0100
0010
0001
1000
0010
0100
,
0001
0010
0001
1000
0100
1000
0010
0100
0001
0010
0100
1000
0001
0100
0001
1000
,
0100
0010
0100
1000
0010
0100
0001
0010
0001
1000
0100
0010
0001
1000
0010
0100
,
0002
0000
0000
0000
,
0000
0000
0000
0000
,
1003
1000
0100
0010
0001
1000
0010
0100
,
0001
0001
0010
0100
1000
0001
0100
0001
,
1000
1000
0100
0010
0100
1000
0010
0100
,
0001
0001
0010
0100
1000
1000
0100
1000
,
0001
0010
0100
1000
0001
1000
0010
0100
,
0001
0010
0100
1000
0001
0100
0001
1000
,
0010
0100
0001
0010
0100
1000
0001
1000
,
0010
0100
0001
0010
0100
1000
0100
0010
,
0001
1000
0010
0100
0001
1000
0001
1000
,
0100
0010
0001
0100
0001
0010
0100
1000
,
0010
0100
0001
0100
0001
1000
0010
0100
,
0001
0010
0100
1000
0100
0010
0001
1000
,
0010
0100
0001
0100
0010
1000
0100
0010
,
0001
1000
0100
1000
0010
0100
0001
1000
0100
0010
0001
1000
,
0010
0100
0001
1000
0100
1000
0010
0100
0001
0010
0100
1000
0001
0100
0001
1000
,
0100
0010
0001
1000
0010
1000
0010
0100
0001
0010
0100
1000
0001
0100
0001
1000
,
0100
0010
0001
1000
0010
1000
0001
0010
0001
1000
0100
0010
0001
1000
0010
1000
,
0010
0100
0001
0010
0100
1000
0001
0100
0001
0100
0010
1000
0100
0010
0001
1000
,
0010
1000
0100
1000
0010
0100
0001
0010
0100
1000
0001
0100
0001
1000
0100
1000
,
0010
0100
0001
1000
0100
1000
0010
0100
,
0001
0010
0100
1000
0001
0100
0001
1000
,
0100
0010
0001
1000
0010
1000
0001
0010
,
0100
1000
0001
0100
0001
1000
0010
0100
0001
0010
0100
0010
0001
1000
0100
1000
,
0010
0100
0001
0010
0100
1000
0001
0100
0001
1000
0100
1000
0100
0010
0001
1000
,
0010
0100
0001
0010
0100
0010
0001
0010
0001
1000
0010
0100
0001
0010
0100
1000
,
0001
1000
0100
1000
0100
0010
0001
1000
0010
0100
0001
0010
0001
1000
0100
0010
,
0100
1000
0010
0100
0001
1000
0010
1000
0010
0100
0001
0010
0100
1000
0001
0100
,
0001
1000
0100
0010
0100
1000
0010
0100
0001
0010
0001
1000
0010
1000
0010
0100
,
0001
0010
0100
1000
0001
0100
0001
1000
0100
0010
0001
1000
0010
1000
0001
1000
,
0100
1000
0100
0010
0001
1000
0010
0100
0001
0010
0001
1000
0010
0100
0001
0010
,
0100
1000
0001
0100
0001
1000
0100
1000
0010
0100
0001
0010
0100
1000
0001
0100
,
0001
1000
0100
0010
0001
1000
0010
1000
0001
0100
0001
0010
0100
1000
0010
0100
,
0001
0010
0100
1000
0001
0100
0001
1000
0100
0010
0001
1000
0010
0100
0001
1000
,
0001
0100
0001
1000
0010
0100
0001
0010
,
0100
1000
0010
0100
0001
0010
0001
1000
0100
0010
0001
1000
0010
1000
0100
0010
,
0001
1000
0010
0100
0001
0010
0001
1000
0010
0100
0001
0010
0100
1000
0001
0100
,
0010
1000
0100
1000
0010
0100
0001
0010
,
0100
0000
0000
1000
0000
0000
0001
0000
0000
0100
0000
0000
0001
0000
0000
1000
0000
0000
0100
0000
0010
0000
0001
0000
,
1000
0010
0100
0001
1000
0100
1000
0100
,
0010
0001
1000
0010
0100
0001
0010
0001
,
1000
0100
0010
0100
1000
0010
0100
0001
,
0010
0001
1000
0010
1000
0001
0100
0001
,
0010
0100
1000
0010
0100
0001
1000
0100
,
1000
0010
0100
0001
0010
0100
1000
0100
,
1000
0010
0100
0001
0010
0001
1000
0100
,
0010
0001
1000
0010
0100
0001
0010
0100
,
2200
0000
0000
0000
,
0000
0000
0000
0000
0000
0000
0000
3300
,
0220
0000
0000
0000
,
0000
0000
0000
0000
0000
0000
0000
0330
,
0022
0000
0000
0000
,
0000
0000
0000
0000
0000
0000
0000
0033
,
2200
0000
0000
3300
0202
0000
0000
0303
,
2020
3030
0202
0303
0022
0033
0220
0330
1001
1000
0001
0100
0010
1000
0010
1000
,
0100
0010
0001
1000
0010
0100
0001
0010
0001
1000
0100
0010
0001
1000
0010
0100
,
0001
0010
0001
1000
0100
0010
0001
1000
0010
0100
0001
0010
0001
1000
0100
0010
,
0001
1000
0010
0100
0001
0010
0001
1000
0100
0010
0100
1000
0010
0100
0001
0010
,
0001
1000
0010
1000
0010
0100
0001
0010
0100
1000
0001
0100
0001
1000
0010
0100
,
0001
1000
0100
0010
0100
1000
0010
0100
0001
1000
0010
0100
0001
1000
0100
1000
,
0010
0100
0001
0010
0100
1000
0001
0100
0001
1000
0100
1000
0010
0100
0001
0010
,
0100
1000
0010
0100
0001
0010
0001
1000
0100
0010
0001
1000
0010
0100
0001
0010
,
0001
1000
0010
0100
0001
0010
0100
1000
0001
0100
0001
1000
0100
0010
0100
1000
,
0010
0100
0001
0010
0001
1000
0010
1000
0010
0100
0001
0010
0100
1000
0001
0100
,
0001
1000
0100
0010
0001
1000
0010
0100
0001
0010
0100
0010
0001
1000
0010
1000
,
0001
0010
0001
1000
0100
0010
0001
1000
0010
0100
0001
0010
0001
1000
0100
0010
,
0001
1000
0010
0100
0001
0010
0001
1000
0100
0010
0001
1000
0010
1000
0001
1000
,
0100
1000
0010
0100
0001
0010
0100
1000
0001
0100
0001
1000
0100
0010
0001
1000
,
0010
0100
0001
1000
0100
1000
0010
0100
0001
0010
0100
1000
0001
0100
0001
1000
,
0100
0010
0100
1000
0010
0100
0001
0010
0001
1000
0100
0010
0001
1000
0010
0100
,
0001
0010
0001
1000
0100
0010
0001
1000
0010
0100
0001
0010
0001
1000
0010
1000
,
0010
0100
0001
0010
0100
1000
0001
0100
0001
1000
0100
0010
0001
1000
0010
0100
,
0001
0010
0001
1000
0010
1000
0100
0010
0001
1000
0010
0100
0001
0010
0100
0010
,
0001
1000
0100
1000
0010
0100
0001
0010
0100
1000
0001
0100
0001
1000
0010
0100
,
0001
0010
0100
1000
0001
0100
0001
1000
0100
0010
0001
1000
0010
0100
0001
0010
,
0100
1000
0010
1000
0001
1000
0010
0100
,
0001
0010
0100
1000
0001
1000
0010
0100
,
0001
1000
0100
1000
0010
0100
0001
0010
0100
1000
0001
0100
0001
1000
0100
0010
,
0001
1000
0010
0100
0001
1000
0100
0010
,
0001
1000
0100
1000
0010
0100
0001
0010
0100
1000
0001
0100
0001
1000
0100
0010
,
0001
1000
0010
1000
0100
0010
0001
0100
,
0001
1000
0001
0010
0100
1000
0001
0100
,
0001
1000
0001
1000
0010
0100
0001
0010
,
0100
1000
0001
0100
0010
1000
0010
0100
,
0001
0010
0100
1000
0001
0010
0100
1000
,
0010
0100
0001
1000
0100
1000
0010
0100
0001
0010
0100
1000
0001
0100
0001
1000
,
0100
0010
0001
1000
0010
1000
0100
1000
0010
0100
0001
0010
0100
1000
0001
1000
,
2020
0000
0000
0000
,
0000
0000
0000
0000
0000
3030
1000
0001
,
0110
0010
1000
0100
1000
0010
0100
0001
,
0010
0100
1000
0001
0100
0001
1000
0100
,
1000
0010
0100
0001
0010
0100
1000
0001
,
0100
0001
1000
0100
1000
0010
0100
0001
,
0010
0100
1000
0001
0100
0001
1000
0100
,
1000
0000
0010
0000
0100
0000
0001
0000
0010
0000
0100
0000
1000
0001
0100
0001
,
1000
0100
0010
0100
1000
0010
0100
0001
0010
0001
1000
0100
0010
0001
1000
0010
,
0100
0001
0010
0001
1000
0100
0010
0001
1000
0010
0100
0001
0010
0001
1000
0100
,
0010
0001
1000
0010
0100
0001
1000
0100
,
1000
0010
0100
0001
0010
0100
0010
0001
,
1000
0010
0100
0001
1000
0100
1000
0010
,
0100
0001
0010
0100
1000
0001
0100
0001
,
1000
0100
0010
0001
1000
0010
0100
0001
,
1000
0100
0010
0001
1000
0010
0100
0001
1000
0100
0010
0001
,
1000
0100
1000
0010
0100
0001
0010
0001
1000
0100
0010
0001
1000
0010
0100
0001
,
0010
0100
1000
0001
0100
0001
1000
0100
,
0010
0001
1000
0001
0100
0001
0010
0100
1000
0010
0100
0001
1000
0100
0010
0001
,
1000
0010
0100
0001
1000
0100
1000
0010
,
0100
0001
1000
0100
1000
0010
0100
0001
0010
0100
1000
0001
0100
0001
1000
0100
,
0010
0001
1000
0001
0100
0001
0010
0100
,
1000
0001
0100
0001
1000
0010
0100
0001
0010
0100
0010
0001
1000
0100
1000
0010
,
0100
0001
0010
0100
1000
0001
0100
0001
,
1000
0001
0100
0001
1000
0010
0100
0001
,
0010
0100
1000
0001
1000
0001
1000
0010
,
0100
0001
0010
0100
1000
0001
1000
0010
,
1000
0010
0100
0001
0010
0001
0010
0100
,
1000
0001
0100
0001
1000
0010
0100
0001
0010
0100
0010
0001
1000
0100
1000
0010
,
0100
0001
0010
0100
1000
0001
0100
0001
1000
0100
0010
0001
1000
0010
0100
0001
,
0010
0001
1000
0100
0010
0001
1000
0010
0100
0001
1000
0100
1000
0010
0100
0000
,
0202
0303
0202
0303
0202
0303
0202
0303
,
0110
0010
1000
0100
0010
0001
1000
0010
0100
0001
0010
0001
1000
0100
0010
0001
,
1000
0010
0100
0001
0010
0001
1000
0010
1000
0100
0010
0001
1000
0010
0100
0001
,
0010
0100
1000
0001
0100
0001
1000
0100
0010
0001
1000
0010
0100
0001
0010
0001
,
1000
0010
0100
0001
1000
0100
1000
0010
0100
0001
0010
0100
1000
0001
0100
0001
,
1000
0100
0010
0001
1000
0010
0100
0001
0010
0001
1000
0010
0100
0001
1000
0100
,
1000
0010
0100
0001
0010
0100
1000
0001
0100
0001
1000
0100
0010
0001
1000
0010
,
0100
0001
0010
0001
1000
0100
0010
0001
1000
0010
0100
0001
1000
0100
1000
0010
,
0100
0001
0010
0100
0010
0001
1000
0100
1000
0010
0100
0001
1000
0100
0010
0001
,
1000
0100
1000
0010
0100
0001
0010
0001
,
1000
0100
1000
0010
0100
0001
0010
0100
,
1000
0001
0100
0001
1000
0100
0010
0001
,
1000
0010
1000
0100
0010
0001
0010
0100
1000
0010
0100
0001
0100
0010
1000
0010
,
0100
0001
1000
0100
1000
0010
0100
0001
,
0010
0100
1000
0001
0100
0001
1000
0100
,
0010
0001
1000
0010
0100
0001
0010
0001
,
2002
3003
2002
3003
2002
3003
2002
3003
,
0101
0100
0010
1000
0100
0010
0001
1000
0001
1000
0010
0100
0001
0010
0100
1000
,
0001
1000
0001
1000
0010
0100
0001
0010
0001
0010
0100
1000
0001
0100
0001
1000
,
0100
0010
0001
1000
0010
0100
0001
1000
0100
1000
0100
0010
0001
1000
0010
0100
,
0001
0010
0001
0010
0100
1000
0001
0100
0001
1000
0100
1000
0010
0100
0001
1000
,
0001
0100
0001
0010
0100
1000
0001
0100
,
0020
0230
0302
2003
,
3010
0100
0001
0010
0100
1000
0001
1000
,
0001
1000
0010
0100
0001
0010
0100
1000
,
0001
0100
0001
1000
0010
0100
0001
0010
,
0001
0010
0100
1000
0001
0100
0001
1000
,
0010
0100
0001
0010
0001
0010
0100
1000
,
0001
0100
0001
1000
0010
0100
0001
0010
,
0100
1000
0001
1000
0010
0100
0001
0010
,
0100
1000
0001
0100
0010
1000
0010
0100
,
0001
0010
0100
1000
0001
0100
0001
1000
,
0010
0100
0001
0010
0100
1000
0001
1000
,
0001
1000
0010
0100
0001
0010
0100
1000
,
0001
0100
0010
1000
0010
0100
0001
0010
,
0100
1000
0001
0100
0001
1000
0010
0100
,
0001
0010
0100
1000
0001
1000
0001
1000
,
0010
0100
0001
0010
0100
1000
0001
0100
,
0001
1000
0010
0100
0001
0010
0100
1000
,
0002
2003
3020
0230
,
0302
0023
0230
2300
,
3002
0203
0320
2030
,
3020
0230
0302
0023
,
0230
2300
3200
0320
,
0032
2003
3002
0203
,
0310
1000
0100
1000
0100
0010
0001
1000
0010
1000
0010
0100
0001
0100
0001
0010
,
0100
1000
0001
1000
0010
1000
0010
0100
0001
0010
0100
1000
0001
0100
0001
1000
,
0100
1000
0010
0100
0001
0010
0001
0010
0100
1000
0001
0100
0001
1000
0100
0010
,
0100
1000
0010
0100
0001
0010
0001
1000
0100
1000
0010
0100
0001
0010
0001
0000
,
2002
0000
0000
0000
,
0000
0000
0000
0000
,
0000
0000
0000
0000
,
0000
0000
0000
0000
,
3003
0000
0000
0000
;

//---------------dance-single - ----------------
#NOTES:
     dance-single:
     :
     Hard:
     17:
     1.000,1.000,0.066,0.096,1.000,4563.000,28.000,41.000,0.000,0.000:

0000
0000
0000
0000
,
1000
0100
0010
0001
1000
0010
0100
0001
0010
0001
1000
0100
0010
0001
1000
0010
,
0100
0001
0010
0001
1000
0010
0100
0001
1000
0100
0010
0100
1000
0010
0100
0001
,
1000
0100
1000
0010
0100
0001
0010
0100
0010
0001
1000
0010
1000
0001
0010
0100
,
1000
0001
0100
0001
1000
0100
0010
0001
1000
0010
0100
0001
0010
0100
0010
0001
,
1000
0010
0100
0010
1000
0100
1000
0010
0100
0001
0010
0100
1000
0001
0100
0001
,
1000
0100
0010
0100
1000
0010
0100
0001
0010
0001
1000
0010
0100
0001
1000
0100
,
1000
0010
0100
0001
0010
0100
1000
0001
0100
0001
1000
0100
0010
0001
1000
0010
,
0100
0001
0010
0001
1000
0100
0010
0001
1000
0010
1000
0100
0010
0001
0100
0001
,
1000
0010
0100
0001
1000
0100
1000
0010
0100
0001
0010
0100
1000
0001
0100
0001
,
1000
0100
0010
0001
1000
0010
0100
0001
0010
0001
1000
0100
0010
0001
1000
0010
,
0100
0001
0010
0001
1000
0010
0100
0001
1000
0100
0010
0100
1000
0010
0100
0001
,
0010
0001
1000
0010
0100
0001
1000
0100
1000
0010
0100
0001
0010
0100
1000
0001
,
0100
0001
1000
0100
0010
0001
1000
0010
1000
0001
0010
0001
1000
0100
0010
0001
,
1000
0010
0100
0001
0010
0001
1000
0100
0010
0100
1000
0010
0100
0001
0010
0001
,
1000
0010
0100
0001
1000
0100
1000
0010
0100
0001
0010
0100
1000
0001
0100
0001
,
1000
0100
0010
0001
1000
0010
0100
0001
1000
0100
1000
0010
0100
0001
0010
0100
,
1000
0001
0100
0001
1000
0010
0100
0001
0010
0100
1000
0001
0100
0010
1000
0100
,
1000
0010
0100
0001
0010
0100
1000
0001
0100
0010
1000
0100
0010
0100
1000
0010
,
0100
0001
0010
0001
1000
0100
0010
0001
1000
0010
1000
0001
0010
0001
1000
0100
,
0010
0001
1000
0010
0100
0001
0010
0001
1000
0100
0010
0001
1000
0010
0100
0001
,
1000
0100
1000
0010
0100
0001
0010
0100
0010
0001
1000
0010
0100
0001
0010
0100
,
1000
0001
0100
0001
1000
0010
0100
0001
0010
0001
1000
0100
0010
0001
1000
0010
,
0100
0001
0010
0001
1000
0100
1000
0010
0100
0001
0010
0100
1000
0001
0100
0001
,
1000
0100
0010
0001
1000
0010
0100
0001
0010
0100
1000
0001
0100
0001
1000
0100
,
0010
0001
1000
0010
0100
0001
0010
0001
1000
0100
0010
0001
1000
0010
0100
0001
,
0010
0001
1000
0100
0010
0100
1000
0010
0100
0001
0010
0001
1000
0010
1000
0100
,
0010
0001
1000
0010
0100
0001
0010
0001
1000
0010
1000
0100
0010
0001
1000
0010
,
0100
0001
0010
0100
1000
0001
0100
0010
1000
0100
0010
0100
1000
0010
0100
0001
,
0010
0001
1000
0100
0010
0001
1000
0010
0100
0001
0010
0001
1000
0010
0100
0001
,
1000
0100
1000
0010
0100
0001
0010
0100
1000
0001
0100
0001
1000
0100
0010
0100
,
1000
0010
0100
0001
0010
0001
1000
0010
1000
0100
0010
0001
1000
0010
0100
0001
,
0010
0001
1000
0100
1000
0010
0100
0001
0010
0100
1000
0001
0100
0010
1000
0100
,
1000
0010
0100
0001
0010
0001
1000
0100
0010
0001
1000
0010
0100
0001
1000
0100
,
1000
0010
0100
0001
0010
0100
1000
0001
0100
0001
1000
0100
0010
0001
1000
0010
,
0100
0001
0010
0001
1000
0100
0010
0001
1000
0010
0100
0001
0010
0001
1000
0100
,
0010
0001
1000
0010
0100
0001
1000
0100
1000
0010
0100
0001
0010
0100
1000
0001
,
0100
0001
1000
0100
0010
0001
1000
0010
0100
0001
0010
0001
1000
0010
0100
0001
,
1000
0100
1000
0010
0100
0001
0010
0100
1000
0001
0100
0001
1000
0100
0010
0001
,
1000
0010
0100
0001
0010
0001
1000
0010
0100
0001
1000
0100
1000
0010
0100
0001
,
0010
0001
1000
0100
0010
0001
1000
0010
0100
0001
0010
0001
1000
0010
0100
0001
,
1000
0100
1000
0010
0100
0001
0010
0100
1000
0001
0100
0010
1000
0100
1000
0010
,
0100
0001
0010
0100
1000
0001
0100
0001
1000
0100
0010
0001
1000
0010
0100
0001
,
1000
0100
1000
0010
0100
0001
0010
0100
0010
0001
1000
0010
0100
0010
1000
0100
,
1000
0010
0100
0001
0010
0100
1000
0001
0100
0001
1000
0100
0010
0001
1000
0010
,
0100
0001
0010
0001
1000
0010
0100
0001
1000
0100
1000
0010
0100
0001
0010
0100
,
1000
0001
0100
0001
1000
0100
0010
0001
1000
0010
0100
0001
1000
0100
1000
0001
,
0100
0001
1000
0010
0100
0001
0010
0100
0010
0001
1000
0010
0100
0001
1000
0100
,
1000
0010
0100
0001
0010
0100
1000
0001
0100
0001
1000
0100
0010
0001
1000
0001
,
2002
0000
0000
0000
,
0000
0000
0000
0000
,
0000
0000
0000
0000
,
0000
0000
0000
0000
,
0000
0000
0000
0000
0000
0000
0000
3003
,
1000
0001
0100
0010
1000
0100
0010
0001
,
1000
0001
0100
0010
1000
0100
0010
0001
,
1000
0010
0100
0001
0010
0100
1000
0001
,
0100
0010
1000
0100
0010
0001
1000
0010
,
1000
0100
0010
0001
0000
0000
1000
0010
0100
0001
0000
0000
0010
0100
1000
0001
0000
0000
0100
0000
0000
0001
0000
0000
,
0010
0010
0100
1000
0001
0100
0010
1000
,
0100
0010
0001
1000
0010
0100
0001
0010
,
0100
1000
0001
0100
0010
1000
0010
0100
,
0001
0010
0100
1000
0000
0000
0001
0100
0001
1000
0000
0000
0010
0100
0001
0010
0000
0000
0100
0000
0000
1000
0000
0000
,
0001
0001
0100
0010
1000
0100
0010
0001
,
0010
0001
1000
0001
0100
0010
1000
0100
,
0010
0001
1000
0010
0100
0001
0010
0100
,
1000
0001
1000
0001
0000
0000
1000
0100
0010
0001
0000
0000
1000
0010
1000
0010
0000
0000
0100
0000
0000
0010
0000
0000
,
0010
1000
0100
0010
0001
1000
0010
0100
,
0001
0010
0100
1000
0001
0010
0100
1000
,
0001
0100
0001
1000
0010
0100
0001
0010
,
0100
1000
0001
0100
0000
0000
0010
1000
0100
0010
0000
0000
0001
1000
0100
1000
0000
0000
1000
0000
0000
0100
0000
0000
,
0010
0001
0010
0100
1000
0100
1000
0010
,
1000
0001
0100
0010
0100
0001
0010
0100
,
1000
0010
1000
0001
1000
0010
0100
0001
,
0010
0100
1000
0001
0000
0000
0100
0010
1000
0100
0000
0000
0010
0001
1000
0001
0000
0000
0010
0000
0000
0100
0000
0000
,
1000
1000
0001
1000
0100
1000
0001
1000
,
0010
0100
0001
0010
0100
1000
0010
1000
,
0001
1000
0010
0100
0001
0010
0100
1000
,
0001
0100
0001
0010
0000
0000
0100
1000
0001
1000
0000
0000
0010
0100
0001
0010
0000
0000
0010
0000
0000
0100
0000
0000
,
1000
0001
0100
0001
1000
0100
1000
0010
,
0100
0001
0010
0100
1000
0001
0100
0010
,
1000
0100
1000
0010
0100
0001
0010
0100
1000
0001
0100
0001
1000
0100
0010
0001
,
1000
0010
0100
0001
0010
0001
1000
0100
0010
0001
1000
0010
0100
0001
0010
0001
,
1000
0100
0010
0100
1000
0010
0100
0001
0010
0001
1000
0010
0100
0001
1000
0100
,
1000
0010
0100
0001
0010
0100
0010
0001
1000
0010
0100
0001
1000
0100
1000
0010
,
0100
0001
0010
0100
1000
0001
0100
0001
1000
0100
0010
0001
1000
0010
0100
0001
,
0010
0001
1000
0010
0100
0001
1000
0100
1000
0010
0100
0001
0010
0100
1000
0001
,
0100
0001
1000
0100
0010
0001
1000
0010
0100
0001
1000
0100
1000
0010
0100
0001
,
0010
0100
1000
0001
0100
0001
1000
0100
1000
0010
0100
0001
0010
0100
1000
0001
,
0100
0001
1000
0100
1000
0010
0100
0001
0010
0100
1000
0001
0100
0001
1000
0010
,
0100
0001
1000
0100
1000
0010
0100
0001
0010
0100
1000
0010
0100
0001
1000
0100
,
0010
0001
1000
0010
0100
0001
1000
0100
1000
0010
0100
0001
0010
0001
1000
0100
,
0010
0001
1000
0010
0100
0001
1000
0100
1000
0010
0100
0001
0010
0100
1000
0001
,
0100
0001
0010
0100
1000
0010
0100
0001
1000
0100
1000
0010
0100
0001
0010
0100
,
1000
0001
0100
0001
1000
0100
0010
0001
1000
0010
0100
0001
0010
0001
1000
0100
,
0010
0001
1000
0010
0100
0001
0010
0001
1000
0010
0100
0001
1000
0100
1000
0010
,
0100
0001
0010
0100
1000
0001
0100
0001
1000
0100
0010
0001
1000
0010
0100
0001
,
1000
0001
0100
0001
0010
0100
1000
0010
0100
0001
1000
0100
1000
0010
0100
0001
,
0010
0100
1000
0001
0100
0001
1000
0100
0010
0001
1000
0010
1000
0100
0010
0001
,
1000
0010
0100
0001
0010
0001
1000
0100
0010
0001
1000
0010
0100
0001
0010
0001
,
1000
0010
0100
0001
1000
0100
1000
0010
0100
0001
0010
0100
1000
0001
0100
0001
,
1000
0100
0010
0001
1000
0010
0100
0001
0010
0100
0010
0001
1000
0010
0100
0010
,
1000
0100
0010
0001
1000
0010
0100
0001
0010
0001
1000
0100
0010
0001
1000
0010
,
0100
0001
0010
0001
1000
0100
0010
0001
1000
0010
0100
0001
1000
0100
1000
0010
,
0100
0110
0001
0101
1000
1010
0010
0110
,
0100
0001
0010
0100
1000
0010
0100
0001
1000
0100
1000
0010
0100
0001
0010
0100
,
1000
0001
0100
0001
1000
0100
0010
0001
1000
0010
0100
0001
0010
0001
1000
0100
,
0010
0100
1000
0010
0100
0001
0010
0001
1000
0010
0100
0001
1000
0100
1000
0010
,
0100
0001
0010
0100
1000
0001
0100
0001
1000
0100
0010
0001
1000
0010
0100
0001
,
1000
0100
1000
0010
0100
0001
0010
0100
1000
0001
0100
0001
1000
0100
0010
0001
,
1000
0010
0100
0001
0010
0001
1000
0100
0010
0100
1000
0010
0100
0001
0010
0001
,
1000
0010
0100
0001
1000
0100
1000
0010
0100
0001
0010
0100
0010
0001
1000
0001
,
0100
0001
1000
0010
0100
0001
1000
0100
1000
0010
1000
0001
0100
0001
0010
0001
,
1000
0001
0100
0001
0010
0100
1000
0010
0100
0001
1000
0100
1000
0010
1000
0001
,
1000
0100
0010
0001
1000
0100
0010
0001
1000
0010
0100
0001
1000
0100
1000
0010
,
0100
0001
0010
0001
1000
0100
0010
0001
1000
0010
0100
0001
1000
0100
1000
0010
,
0100
0001
0010
0001
1000
0100
0010
0001
1000
0001
0100
0001
0010
0100
1000
0010
,
0100
0001
1000
0100
1000
0001
1000
0010
1000
0100
1000
0010
0100
0001
0010
0100
,
1000
0001
0100
0001
1000
0100
0010
0001
1000
0010
0100
0001
0010
0001
1000
0100
,
0010
0001
1000
0010
0100
0001
0010
0001
1000
0100
0010
0001
1000
0010
0100
0001
,
1000
0100
1000
0010
0100
0001
0010
0100
1000
0001
0100
0001
1000
0010
0100
0001
,
1000
0100
1000
0010
0100
0001
0010
0100
1000
0001
0100
0001
1000
0100
0010
0001
,
1000
0010
0100
0001
0010
0001
1000
0100
0010
0001
1000
0010
0100
0001
0010
0001
,
1000
0010
0100
0001
1000
0100
1000
0010
0100
0001
0010
0100
1000
0001
0100
0001
,
1000
0100
0010
0001
1000
0010
0100
0001
1000
0100
1000
0010
0100
0001
0010
0100
,
1000
0001
0100
0001
1000
0100
0010
0001
1000
0010
0100
0001
1000
0100
1000
0010
,
0100
0010
1000
0100
0010
0001
0100
0001
0010
0100
0010
0001
1000
0001
0100
0001
,
0010
0100
1000
0010
0100
0010
1000
0100
0010
0001
0100
0001
0010
0100
1000
0010
,
0100
0001
0010
0100
0010
0001
1000
0100
0010
0001
1000
0100
1000
0010
0100
0001
,
0010
0100
1000
0010
0100
0001
1000
0100
1000
0010
0100
0001
0010
0100
0010
0001
,
1000
0010
0100
0001
0010
0100
1000
0001
0100
0001
0010
0100
0010
0001
0010
0100
,
1000
0001
0100
0001
1000
0100
0010
0100
1000
0010
0100
0001
1000
0100
0010
0100
,
1000
0010
0100
0010
1000
0100
0010
0001
0100
0001
0010
0100
0010
0001
1000
0010
,
0100
0001
0010
0100
0010
0001
1000
0010
0100
0001
0010
0100
0010
0001
0010
0100
,
0010
0001
1000
0010
0100
0001
1000
0100
1000
0010
0100
0001
0010
0100
1000
0001
,
0100
0001
1000
0100
0010
0001
1000
0010
0100
0001
1000
0100
0010
0001
1000
0010
,
0100
0001
1000
0100
1000
0010
0100
0001
0010
0001
1000
0100
0010
0001
1000
0010
,
0100
0001
1000
0100
1000
0010
0100
0001
0010
0001
1000
0100
0010
0001
1000
0010
,
0100
0001
1000
0100
1000
0010
0100
0001
0010
0100
1000
0001
0100
0001
1000
0100
,
0010
0001
1000
0010
1000
0001
0010
0001
1000
0100
0010
0001
1000
0010
0100
0001
,
1000
0100
1000
0010
0100
0001
0010
0100
0010
0001
1000
0010
1000
0001
0010
0100
,
1000
0001
0100
0001
1000
0100
0010
0001
1000
0010
0100
0001
0010
0001
1000
0100
,
0010
0001
1000
0010
0100
0001
1000
0100
1000
0010
0100
0001
0010
0100
1000
0001
,
0100
0001
1000
0100
0010
0001
1000
0010
0100
0001
0010
0001
1000
0010
0100
0001
,
1000
0100
1000
0010
0100
0001
0010
0100
0010
0001
1000
0010
0100
0010
1000
0100
,
0010
0001
1000
0010
0100
0001
0010
0001
1000
0100
0010
0001
1000
0010
0100
0001
,
1000
0100
1000
0010
0100
0001
0010
0100
1000
0001
0100
0001
1000
0100
0010
0001
,
1000
0010
0100
0001
0010
0001
1000
0100
0010
0001
1000
0010
1000
0001
0010
0100
,
1000
0001
0100
0001
1000
0100
0010
0001
1000
0100
1000
0010
0100
0001
0010
0100
,
1000
0001
0100
0001
1000
0100
0010
0001
1000
0010
1000
0001
0010
0100
1000
0001
,
0100
0001
1000
0100
0010
0001
1000
0010
0100
0001
0010
0001
1000
0100
0010
0001
,
1000
0010
0100
0001
0010
0001
1000
0010
1000
0001
0100
0001
0010
0100
1000
0001
,
1000
0100
1000
0010
0100
0001
0010
0100
1000
0001
0100
0001
1000
0100
1000
0010
,
0100
0001
0010
0001
1000
0100
0010
0001
1000
0010
0100
0001
0010
0001
1000
0100
,
0010
0001
1000
0010
0100
0001
1000
0100
1000
0010
0100
0001
0010
0100
1000
0001
,
1000
0010
0010
0100
0001
0010
0100
0010
,
0001
1000
0010
0100
0010
1000
0100
0010
,
0001
1000
0100
1000
0010
0100
0001
0010
0100
1000
0001
0100
0001
1000
0100
1000
,
0010
0100
0001
0010
0100
1000
0001
0100
0001
1000
0100
0010
0001
1000
0010
0100
,
0001
0010
0001
1000
0100
1000
0010
0100
0001
0010
0100
1000
0001
0100
0001
1000
,
0100
0010
0100
1000
0010
0100
0001
0010
0001
1000
0100
0010
0001
1000
0010
0100
,
0002
0000
0000
0000
,
0000
0000
0000
0000
,
1003
1000
0100
0010
0001
1000
0010
0100
,
0001
0001
0010
0100
1000
0001
0100
0001
,
1000
1000
0100
0010
0100
1000
0010
0100
,
0001
0001
0010
0100
1000
1000
0100
1000
,
0001
0010
0100
1000
0001
1000
0010
0100
,
0001
0010
0100
1000
0001
0100
0001
1000
,
0010
0100
0001
1000
0100
1000
0001
0100
0001
1000
0100
1000
0010
0100
0001
0010
,
0100
1000
0001
0100
0001
1000
0100
0010
0001
1000
0010
0100
0001
0010
0001
1000
,
0100
0010
0001
1000
0010
0100
0001
0010
0001
1000
0100
0010
0001
1000
0010
0100
,
0001
1000
0100
1000
0010
0100
0001
0010
0100
1000
0001
0100
0001
1000
0100
0010
,
0001
1000
0010
1000
0001
0010
0001
1000
0100
0010
0001
1000
0010
0100
0001
0010
,
0100
1000
0001
0100
0001
1000
0100
1000
0010
0100
0001
0010
0100
1000
0001
0100
,
0001
1000
0100
1000
0010
0100
0001
0010
0100
1000
0001
0100
0001
1000
0100
0010
,
0001
1000
0100
1000
0010
0100
0001
1000
0100
0010
0001
1000
,
0010
0100
0001
1000
0100
1000
0010
0100
0001
0010
0100
1000
0001
0100
0001
1000
,
0100
0010
0001
1000
0010
1000
0010
0100
0001
0010
0100
1000
0001
0100
0001
1000
,
0100
0010
0001
1000
0010
1000
0001
0010
0001
1000
0100
0010
0001
1000
0010
1000
,
0010
0100
0001
0010
0100
1000
0001
0100
0001
0100
0010
1000
0100
0010
0001
1000
,
0010
1000
0100
1000
0010
0100
0001
0010
0100
1000
0001
0100
0001
1000
0100
1000
,
0001
0100
0001
1000
0100
0010
0001
1000
0010
1000
0001
0010
0100
1000
0001
0100
,
0001
1000
0100
0010
0001
1000
0010
0100
0001
0010
0001
1000
0100
0010
0001
1000
,
0010
0100
0001
0010
0001
1000
0100
0010
0001
1000
0010
0100
0001
1000
0100
1000
,
0010
1000
0001
0100
0001
1000
0010
0100
0001
0010
0100
0010
0001
1000
0100
1000
,
0010
0100
0001
0010
0100
1000
0001
0100
0010
1000
0100
1000
0010
0100
0001
0010
,
0100
1000
0001
0100
0001
1000
0100
0010
0001
1000
0010
1000
0001
0010
0001
1000
,
0100
0010
0001
1000
0010
0100
0001
0010
0001
1000
0100
0010
0001
1000
0010
0100
,
0001
1000
0100
1000
0001
0100
0001
1000
0010
0100
0001
1000
0100
0010
0100
1000
,
0001
0100
0001
0010
0100
0010
0001
1000
0100
1000
0010
0100
0001
1000
0100
0010
,
0100
1000
0010
0100
0001
0010
0001
1000
0100
0010
0100
1000
0010
0100
0001
1000
,
0100
1000
0010
0100
0001
0010
0100
0010
0001
1000
0100
1000
0010
0100
0001
1000
,
0100
0010
0100
1000
0001
0100
0001
1000
0100
0010
0100
1000
0010
0100
0010
1000
,
0100
1000
0001
1000
0010
1000
0100
0010
0100
1000
0010
0100
0001
0010
0100
0010
,
0001
1000
0001
0100
0001
1000
0100
0010
0001
1000
0010
0100
0001
0010
0001
1000
,
0100
0010
0001
1000
0010
0100
0001
1000
0100
1000
0010
0100
0001
1000
0100
0010
,
0100
1000
0010
0100
0001
0010
0001
1000
0100
0010
0001
1000
0010
1000
0100
0010
,
0001
1000
0010
0100
0001
0010
0001
1000
0010
0100
0001
0010
0100
1000
0001
0100
,
0010
1000
0100
1000
0010
0100
0001
0010
0100
1000
0001
0100
0001
1000
0100
0010
,
0001
1000
0010
1000
0001
0010
0001
1000
0100
0010
0001
1000
0010
0100
0001
0010
,
0100
1000
0001
0100
0001
1000
0100
0010
0001
1000
0010
0100
0001
0010
0100
1000
,
0001
0100
0001
1000
0100
0010
0001
1000
0010
0100
0001
0010
0001
1000
0100
0010
,
0001
1000
0010
1000
0001
0010
0001
1000
0100
0010
0001
1000
0010
0100
0001
0010
,
0001
1000
0010
0100
0001
1000
0100
1000
0010
0100
0001
0010
0001
1000
0100
0010
,
0001
1000
0010
1000
0001
0010
0001
1000
0100
0010
0001
1000
0010
0100
0001
0010
,
0001
1000
0100
0010
0001
1000
0100
0010
0001
1000
0010
0100
0001
1000
0100
0010
,
0001
1000
0100
0010
0001
1000
0010
0100
0001
1000
0100
0010
0001
1000
0100
0010
,
0001
1000
0010
1000
0100
0010
0001
1000
0010
0100
0001
0010
0001
1000
0100
1000
,
2200
0000
0000
0000
,
0000
0000
0000
0000
0000
0000
0000
3300
,
0220
0000
0000
0000
,
0000
0000
0000
0000
0000
0000
0000
0330
,
0022
0000
0000
0000
,
0000
0000
0000
0000
0000
0000
0000
0033
,
2200
0000
0000
3300
0202
0000
0000
0303
,
2020
3030
0202
0303
0022
0033
0220
0330
1001
1000
0001
0100
0010
1000
0001
1000
,
0100
0010
0001
1000
0010
0100
0001
0010
0001
1000
0100
0010
0001
1000
0010
0100
,
0001
0010
0001
1000
0100
0010
0001
1000
0010
0100
0001
0010
0001
1000
0100
0010
,
0001
1000
0010
0100
0001
0010
0001
1000
0100
0010
0100
1000
0010
0100
0001
0010
,
0001
1000
0100
1000
0010
0100
0001
0010
0100
1000
0001
0100
0001
1000
0010
0100
,
0001
1000
0100
0010
0100
1000
0010
0100
0001
1000
0010
0100
0001
1000
0100
1000
,
0010
0100
0001
0010
0100
1000
0001
0100
0001
1000
0100
1000
0010
0100
0001
0010
,
0100
1000
0010
0100
0001
0010
0001
1000
0100
0010
0001
1000
0010
0100
0001
0010
,
0001
1000
0010
0100
0001
0010
0100
1000
0001
0100
0001
1000
0100
0010
0100
1000
,
0010
0100
0001
0010
0001
1000
0100
1000
0010
0100
0001
0010
0100
1000
0001
0100
,
0001
1000
0100
0010
0001
1000
0010
0100
0001
0010
0100
0010
0001
1000
0010
1000
,
0001
0010
0001
1000
0100
0010
0001
1000
0010
0100
0001
0010
0001
1000
0100
0010
,
0001
1000
0010
0100
0001
0010
0001
1000
0100
0010
0001
1000
0010
1000
0001
1000
,
0100
1000
0010
0100
0001
0010
0100
1000
0001
0100
0001
1000
0100
0010
0001
1000
,
0010
0100
0001
1000
0100
1000
0010
0100
0001
0010
0100
1000
0001
0100
0001
1000
,
0100
0010
0100
1000
0010
0100
0001
0010
0001
1000
0100
0010
0001
1000
0010
0100
,
0001
0010
0001
1000
0100
0010
0001
1000
0010
0100
0001
0010
0001
1000
0100
1000
,
0010
0100
0001
0010
0100
1000
0001
0100
0001
1000
0100
0010
0001
1000
0010
0100
,
0001
0010
0001
1000
0010
1000
0100
0010
0001
1000
0010
0100
0001
0010
0100
0010
,
0001
1000
0100
1000
0010
0100
0001
0010
0100
1000
0001
0100
0001
1000
0010
0100
,
0001
0010
0100
1000
0001
0100
0001
1000
0100
0010
0001
1000
0010
0100
0001
0010
,
0100
1000
0010
1000
0001
1000
0010
0100
,
0001
0010
0100
1000
0001
1000
0010
0100
,
0001
1000
0100
1000
0010
0100
0001
0010
0100
1000
0001
0100
0001
1000
0100
0010
,
0001
1000
0100
1000
0010
0100
0001
0010
0100
1000
0001
0100
0001
1000
0100
0010
,
0001
1000
0100
1000
0010
0100
0001
0010
0100
1000
0001
0100
0001
1000
0100
0010
,
0001
1000
0100
1000
0010
0100
0001
0010
0100
1000
0001
0100
0001
1000
0100
0010
,
0001
1000
0100
1000
0010
0100
0001
0010
0100
1000
0001
0100
0001
1000
0100
0010
,
0001
1000
0010
0100
0001
0010
0001
1000
0100
0010
0001
1000
0010
1000
0001
0010
,
0001
1000
0100
1000
0010
0100
0001
0010
0100
1000
0001
0100
0001
1000
0100
0010
,
0001
1000
0010
1000
0100
0010
0001
1000
0010
0100
0001
0010
0100
1000
0001
0100
,
0010
0100
0001
1000
0100
1000
0010
0100
0001
0010
0100
1000
0001
0100
0001
1000
,
0100
0010
0001
1000
0010
1000
0100
1000
0010
0100
0001
0010
0100
1000
0001
1000
,
2020
0000
0000
0000
,
0000
0000
0000
0000
0000
3030
1000
0001
,
0110
0010
1000
0100
1000
0010
0100
0001
,
0010
0100
1000
0001
0100
0001
1000
0100
,
1000
0010
0100
0001
0010
0100
1000
0001
,
0100
0001
1000
0100
1000
0010
0100
0001
,
0010
0100
1000
0001
0100
0001
1000
0100
,
1000
0000
0010
0000
0100
0000
0001
0000
0010
0000
0100
0000
1000
0001
0100
0001
,
1000
0100
0010
0100
1000
0010
0100
0001
0010
0001
1000
0100
0010
0001
1000
0010
,
0100
0001
0010
0001
1000
0100
0010
0001
1000
0010
0100
0001
0010
0001
1000
0100
,
0010
0001
1000
0100
1000
0010
0100
0001
0010
0100
1000
0001
0100
0001
1000
0100
,
0010
0001
1000
0010
1000
0001
0010
0100
1000
0001
0100
0001
1000
0100
0010
0001
,
1000
0010
1000
0001
0010
0100
1000
0001
0100
0001
1000
0100
0010
0001
1000
0010
,
0100
0001
0010
0100
1000
0001
0100
0001
1000
0100
0010
0100
1000
0010
0100
0001
,
0010
0100
1000
0001
0100
0001
1000
0100
0010
0001
1000
0010
0100
0001
1000
0100
,
1000
0100
0010
0001
1000
0010
0100
0001
1000
0100
0010
0001
,
1000
0100
1000
0010
0100
0001
0010
0001
1000
0100
0010
0001
1000
0010
0100
0001
,
0010
0100
1000
0001
0100
0001
1000
0100
0010
0001
1000
0010
0100
0001
0010
0100
,
1000
0010
1000
0001
0100
0001
0010
0100
1000
0010
0100
0001
1000
0100
0010
0001
,
1000
0100
1000
0010
0100
0001
0010
0100
1000
0001
0100
0001
1000
0100
0010
0001
,
1000
0010
1000
0100
1000
0010
0100
0001
0010
0100
1000
0001
0100
0001
1000
0100
,
0010
0001
1000
0100
1000
0010
0100
0001
0010
0100
1000
0001
0100
0001
1000
0100
,
0010
0001
0100
0001
1000
0010
0100
0001
0010
0100
0010
0001
1000
0100
1000
0010
,
0100
0001
1000
0100
1000
0010
0100
0001
0010
0100
1000
0001
0100
0001
1000
0100
,
0010
0001
1000
0010
0100
0001
0010
0001
1000
0100
0010
0001
1000
0010
1000
0100
,
0010
0001
1000
0010
0100
0001
0010
0100
1000
0001
0100
0001
1000
0100
0010
0001
,
1000
0100
1000
0010
0100
0001
0010
0100
1000
0001
0100
0001
1000
0100
0010
0001
,
1000
0010
0100
0001
1000
0001
0010
0100
,
1000
0001
0100
0001
1000
0010
0100
0001
0010
0100
0010
0001
1000
0100
1000
0010
,
0100
0001
0010
0100
1000
0001
0100
0001
1000
0100
0010
0001
1000
0010
0100
0001
,
0010
0001
1000
0100
0010
0001
1000
0010
0100
0001
1000
0100
1000
0010
0100
0000
,
0202
0303
0202
0303
0202
0303
0202
0303
,
0110
0010
1000
0100
0010
0001
1000
0010
0100
0001
0010
0001
1000
0100
0010
0001
,
1000
0010
0100
0001
0010
0001
1000
0010
1000
0100
0010
0001
1000
0010
0100
0001
,
0010
0100
1000
0001
0100
0001
1000
0100
0010
0001
1000
0010
0100
0001
0010
0001
,
1000
0010
0100
0001
1000
0100
1000
0010
0100
0001
0010
0100
1000
0001
0100
0001
,
1000
0100
0010
0001
1000
0010
0100
0001
0010
0001
1000
0010
0100
0001
1000
0100
,
1000
0010
0100
0001
0010
0100
1000
0001
0100
0001
1000
0100
0010
0001
1000
0010
,
0100
0001
0010
0001
1000
0100
0010
0001
1000
0010
0100
0001
1000
0100
1000
0010
,
0100
0001
0010
0100
0010
0001
1000
0100
1000
0010
0100
0001
1000
0100
0010
0001
,
1000
0100
1000
0010
0100
0001
0010
0001
,
1000
0100
1000
0010
0100
0001
0010
0100
,
1000
0100
1000
0010
0100
0001
0010
0100
1000
0001
0100
0001
1000
0100
0010
0001
,
1000
0010
1000
0100
0010
0001
0010
0100
1000
0010
0100
0001
0100
0010
1000
0010
,
0100
0001
1000
0100
1000
0010
0100
0001
0010
0100
1000
0001
0100
0001
1000
0100
,
0010
0001
1000
0010
1000
0001
0010
0001
1000
0100
0010
0001
1000
0010
0100
0001
,
0010
0001
1000
0100
0010
0001
1000
0010
0100
0001
0010
0100
1000
0001
1000
0001
,
2002
3003
2002
3003
2002
3003
2002
3003
,
0101
0100
0010
1000
0100
0010
0001
1000
0010
0100
0001
0010
0001
1000
0100
0010
,
0001
1000
0010
0100
0001
0010
0100
1000
0001
0100
0001
1000
0100
0010
0001
1000
,
0010
1000
0001
0010
0001
1000
0100
0010
0001
1000
0010
0100
0001
0010
0100
1000
,
0001
0100
0001
1000
0100
0010
0001
1000
0010
0100
0001
0010
0100
1000
0001
1000
,
0100
0010
0001
0010
0100
1000
0001
0100
,
0001
1000
0100
1000
0010
0100
0001
0010
,
0100
1000
0001
0010
0100
1000
0010
1000
,
0001
1000
0010
0100
0001
0010
0100
1000
,
0001
0100
0001
1000
0010
0100
0001
1000
,
0001
0010
0100
1000
0001
0100
0001
1000
,
0010
0100
0001
1000
0001
0010
0100
1000
,
0001
0100
0001
1000
0010
0100
0001
0010
,
0100
1000
0001
0100
0001
1000
0100
0010
0001
1000
0010
1000
0001
0010
0001
1000
,
0100
0010
0001
1000
0010
0100
0001
0010
0001
1000
0100
0010
0001
1000
0010
0100
,
0001
0010
0001
1000
0100
0010
0001
1000
0010
1000
0001
0010
0100
1000
0001
0100
,
0001
1000
0100
0010
0001
1000
0010
0100
0001
0010
0001
1000
0100
0010
0001
1000
,
0010
1000
0001
0010
0100
1000
0001
0100
0001
1000
0100
0010
0001
1000
0010
1000
,
0001
0010
0001
1000
0100
0010
0001
1000
0010
0100
0010
1000
0100
0010
0001
1000
,
0010
0100
0001
0010
0100
1000
0001
0100
0001
1000
0100
0010
0001
1000
0010
1000
,
0001
0010
0001
1000
0100
0010
0001
1000
0010
0100
0001
0010
0001
1000
0100
0010
,
0100
1000
0010
0100
0001
1000
0100
1000
0010
0100
0001
0010
0001
1000
0100
0010
,
0100
1000
0010
0100
0001
0010
0001
1000
0100
0010
0001
1000
0010
1000
0001
0010
,
0001
1000
0100
0010
0001
1000
0010
0100
0001
0010
0001
1000
0100
0010
0001
1000
,
0010
1000
0001
0010
0100
1000
0001
0100
0001
1000
0100
0010
0100
1000
0010
0100
,
0001
0010
0001
1000
0100
0010
0001
1000
0010
1000
0001
0010
0100
1000
0001
0100
,
0001
1000
0100
0010
0100
1000
0010
0100
0001
0010
0001
1000
0100
0010
0001
1000
,
0010
1000
0001
0010
0100
1000
0001
0100
0001
1000
0100
0010
0001
1000
0010
0100
,
0001
0010
0001
1000
0100
0010
0001
1000
0010
0100
0001
1000
0100
1000
0010
0100
,
0001
1000
0010
1000
0100
0010
0001
1000
0100
1000
0010
0100
0001
1000
0001
0010
,
0100
1000
0001
1000
0100
1000
0010
0100
0001
0010
0100
1000
0001
0100
0001
1000
,
0100
1000
0010
0100
0001
1000
0001
0010
0100
1000
0001
0100
0001
1000
0100
0010
,
0100
1000
0010
0100
0001
0010
0001
1000
0100
1000
0010
0100
0001
0010
0001
0000
,
2002
0000
0000
0000
,
0000
0000
0000
0000
,
0000
0000
0000
0000
,
0000
0000
0000
0000
,
3003
0000
0000
0000
;

//---------------dance-single - ----------------
#NOTES:
     dance-single:
     :
     Challenge:
     18:
     1.000,1.000,0.028,0.056,1.000,4941.000,12.000,24.000,0.000,0.000:
0000
0000
0000
0000
,
1000
0100
0010
0001
1000
0010
0100
0001
0010
0001
1000
0100
0010
0001
1000
0010
,
0100
0001
0010
0001
1000
0010
0100
0001
1000
0100
0010
0100
1000
0010
0100
0001
,
1000
0100
1000
0010
0100
0001
0010
0100
0010
0001
1000
0010
1000
0001
0010
0100
,
1000
0001
0100
0001
1000
0100
0010
0001
1000
0010
0100
0001
0010
0100
0010
0001
,
1000
0010
0100
0010
1000
0100
1000
0010
0100
0001
0010
0100
1000
0001
0100
0001
,
1000
0100
0010
0100
1000
0010
0100
0001
0010
0001
1000
0010
0100
0001
1000
0100
,
1000
0010
0100
0001
0010
0100
1000
0001
0100
0001
1000
0100
0010
0001
1000
0010
,
0100
0001
0010
0001
1000
0100
0010
0001
1000
0010
1000
0100
0010
0001
0100
0001
,
1000
0010
0100
0001
1000
0100
1000
0010
0100
0001
0010
0100
1000
0001
0100
0001
,
1000
0100
0010
0001
1000
0010
0100
0001
0010
0001
1000
0100
0010
0001
1000
0010
,
0100
0001
0010
0001
1000
0010
0100
0001
1000
0100
0010
0100
1000
0010
0100
0001
,
0010
0001
1000
0010
0100
0001
1000
0100
1000
0010
0100
0001
0010
0100
1000
0001
,
0100
0001
1000
0100
0010
0001
1000
0010
1000
0001
0010
0001
1000
0100
0010
0001
,
1000
0010
0100
0001
0010
0001
1000
0100
0010
0100
1000
0010
0100
0001
0010
0001
,
1000
0010
0100
0001
1000
0100
1000
0010
0100
0001
0010
0100
1000
0001
0100
0001
,
1000
0100
0010
0001
1000
0010
0100
0001
1000
0100
1000
0010
0100
0001
0010
0100
,
1000
0001
0100
0001
1000
0010
0100
0001
0010
0100
1000
0001
0100
0010
1000
0100
,
1000
0010
0100
0001
0010
0100
1000
0001
0100
0010
1000
0100
0010
0100
1000
0010
,
0100
0001
0010
0001
1000
0100
0010
0001
1000
0010
1000
0001
0010
0001
1000
0100
,
0010
0001
1000
0010
0100
0001
0010
0001
1000
0100
0010
0001
1000
0010
0100
0001
,
1000
0100
1000
0010
0100
0001
0010
0100
0010
0001
1000
0010
0100
0001
0010
0100
,
1000
0001
0100
0001
1000
0010
0100
0001
0010
0001
1000
0100
0010
0001
1000
0010
,
0100
0001
0010
0001
1000
0100
1000
0010
0100
0001
0010
0100
1000
0001
0100
0001
,
1000
0100
0010
0001
1000
0010
0100
0001
0010
0100
1000
0001
0100
0001
1000
0100
,
0010
0001
1000
0010
0100
0001
0010
0001
1000
0100
0010
0001
1000
0010
0100
0001
,
0010
0001
1000
0100
0010
0100
1000
0010
0100
0001
0010
0001
1000
0010
1000
0100
,
0010
0001
1000
0010
0100
0001
0010
0001
1000
0010
1000
0100
0010
0001
1000
0010
,
0100
0001
0010
0100
1000
0001
0100
0010
1000
0100
0010
0100
1000
0010
0100
0001
,
0010
0001
1000
0100
0010
0001
1000
0010
0100
0001
0010
0001
1000
0010
0100
0001
,
1000
0100
1000
0010
0100
0001
0010
0100
1000
0001
0100
0001
1000
0100
0010
0100
,
1000
0010
0100
0001
0010
0001
1000
0010
1000
0100
0010
0001
1000
0010
0100
0001
,
0010
0001
1000
0100
1000
0010
0100
0001
0010
0100
1000
0001
0100
0010
1000
0100
,
1000
0010
0100
0001
0010
0001
1000
0100
0010
0001
1000
0010
0100
0001
1000
0100
,
1000
0010
0100
0001
0010
0100
1000
0001
0100
0001
1000
0100
0010
0001
1000
0010
,
0100
0001
0010
0001
1000
0100
0010
0001
1000
0010
0100
0001
0010
0001
1000
0100
,
0010
0001
1000
0010
0100
0001
1000
0100
1000
0010
0100
0001
0010
0100
1000
0001
,
0100
0001
1000
0100
0010
0001
1000
0010
0100
0001
0010
0001
1000
0010
0100
0001
,
1000
0100
1000
0010
0100
0001
0010
0100
1000
0001
0100
0001
1000
0100
0010
0001
,
1000
0010
0100
0001
0010
0001
1000
0010
0100
0001
1000
0100
1000
0010
0100
0001
,
0010
0001
1000
0100
0010
0001
1000
0010
0100
0001
0010
0001
1000
0010
0100
0001
,
1000
0100
1000
0010
0100
0001
0010
0100
1000
0001
0100
0010
1000
0100
1000
0010
,
0100
0001
0010
0100
1000
0001
0100
0001
1000
0100
0010
0001
1000
0010
0100
0001
,
1000
0100
1000
0010
0100
0001
0010
0100
0010
0001
1000
0010
0100
0010
1000
0100
,
1000
0010
0100
0001
0010
0100
1000
0001
0100
0001
1000
0100
0010
0001
1000
0010
,
0100
0001
0010
0001
1000
0010
0100
0001
1000
0100
1000
0010
0100
0001
0010
0100
,
1000
0001
0100
0001
1000
0100
0010
0001
1000
0010
0100
0001
1000
0100
1000
0001
,
0100
0001
1000
0010
0100
0001
0010
0100
0010
0001
1000
0010
0100
0001
1000
0100
,
1000
0010
0100
0001
0010
0100
1000
0001
0100
0001
1000
0100
0010
0001
1000
0001
,
2002
0000
0000
0000
,
0000
0000
0000
0000
0000
0000
0000
3003
,
1000
0100
0010
0001
1000
0010
0100
0001
,
1000
0100
1000
0010
0100
0001
0010
0100
,
1000
0001
0100
0001
0010
0100
1000
0010
,
1000
0001
0100
0010
1000
0100
0010
0001
,
1000
0001
0100
0010
1000
0100
0010
0001
,
1000
0010
0100
0001
0010
0100
1000
0001
,
0100
0010
1000
0100
0010
0001
1000
0010
,
1000
0100
0010
0001
0000
0000
1000
0010
0100
0001
0000
0000
0010
0100
1000
0001
0000
0000
0100
0000
0000
0001
0000
0000
,
0010
0010
0100
1000
0001
0100
0010
1000
,
0100
0010
0001
1000
0010
0100
0001
0010
,
0100
1000
0001
0100
0010
1000
0010
0100
,
0001
0010
0100
1000
0000
0000
0001
0100
0001
1000
0000
0000
0010
0100
0001
0010
0000
0000
0100
0000
0000
1000
0000
0000
,
0001
0001
0100
0010
1000
0100
0010
0001
,
0010
0001
1000
0001
0100
0010
1000
0100
,
0010
0001
1000
0010
0100
0001
0010
0100
,
1000
0001
1000
0001
0000
0000
1000
0100
0010
0001
0000
0000
1000
0010
1000
0010
0000
0000
0100
0000
0000
0010
0000
0000
,
0010
1000
0100
0010
0001
1000
0010
0100
,
0001
0010
0100
1000
0001
0010
0100
1000
,
0001
0100
0001
1000
0010
0100
0001
0010
,
0100
1000
0001
0100
0000
0000
0010
1000
0100
0010
0000
0000
0001
1000
0100
1000
0000
0000
1000
0000
0000
0100
0000
0000
,
0010
0001
0010
0100
1000
0001
1000
0010
,
1000
0001
0100
0010
0100
0001
0010
0100
,
1000
0010
1000
0001
1000
0010
0100
0001
,
0010
0100
1000
0001
0000
0000
0100
0010
1000
0100
0000
0000
0010
0001
1000
0001
0000
0000
0010
0000
0000
0100
0000
0000
,
1000
1000
0001
1000
0100
1000
0001
1000
,
0010
0100
0001
0010
0100
1000
0010
1000
,
0001
1000
0010
0100
0001
0010
0100
1000
,
0001
0100
0001
0010
0000
0000
0100
1000
0001
1000
0000
0000
0010
0100
0001
0010
0000
0000
0010
0000
0000
0100
0000
0000
,
1000
0001
0100
0001
1000
0100
1000
0010
,
0100
0001
0010
0100
1000
0001
0100
0010
,
1000
0100
1000
0010
0100
0001
0010
0100
1000
0001
0100
0001
1000
0100
0010
0001
,
1000
0010
0100
0001
0010
0001
1000
0100
0010
0001
1000
0010
0100
0001
0010
0001
,
1000
0100
0010
0100
1000
0010
0100
0001
0010
0001
1000
0010
0100
0001
1000
0100
,
1000
0010
0100
0001
0010
0100
0010
0001
1000
0010
0100
0001
1000
0100
1000
0010
,
0100
0001
0010
0100
1000
0001
0100
0001
1000
0100
0010
0001
1000
0010
0100
0001
,
0010
0001
1000
0010
0100
0001
1000
0100
1000
0010
0100
0001
0010
0100
1000
0001
,
0100
0001
1000
0100
0010
0001
1000
0010
0100
0001
1000
0100
1000
0010
0100
0001
,
0010
0100
1000
0001
0100
0001
1000
0100
1000
0010
0100
0001
0010
0100
1000
0001
,
0100
0001
1000
0100
1000
0010
0100
0001
0010
0100
1000
0001
0100
0001
1000
0010
,
0100
0001
1000
0100
1000
0010
0100
0001
0010
0100
1000
0010
0100
0001
1000
0100
,
0010
0001
1000
0010
0100
0001
1000
0100
1000
0010
0100
0001
0010
0001
1000
0100
,
0010
0001
1000
0010
0100
0001
1000
0100
1000
0010
0100
0001
0010
0100
1000
0001
,
0100
0001
0010
0100
1000
0010
0100
0001
1000
0100
1000
0010
0100
0001
0010
0100
,
1000
0001
0100
0001
1000
0100
0010
0001
1000
0010
0100
0001
0010
0001
1000
0100
,
0010
0001
1000
0010
0100
0001
0010
0001
1000
0010
0100
0001
1000
0100
1000
0010
,
0100
0001
0010
0100
1000
0001
0100
0001
1000
0100
0010
0001
1000
0010
0100
0001
,
1000
0001
0100
0001
0010
0100
1000
0010
0100
0001
1000
0100
1000
0010
0100
0001
,
0010
0100
1000
0001
0100
0001
1000
0100
0010
0001
1000
0010
1000
0100
0010
0001
,
1000
0010
0100
0001
0010
0001
1000
0100
0010
0001
1000
0010
0100
0001
0010
0001
,
1000
0010
0100
0001
1000
0100
1000
0010
0100
0001
0010
0100
1000
0001
0100
0001
,
1000
0100
0010
0001
1000
0010
0100
0001
0010
0100
0010
0001
1000
0010
0100
0010
,
1000
0100
0010
0001
1000
0010
0100
0001
0010
0001
1000
0100
0010
0001
1000
0010
,
0100
0001
0010
0001
1000
0100
0010
0001
1000
0010
0100
0001
1000
0100
1000
0010
,
0100
0001
1000
0100
1000
0010
0100
0001
0010
0100
1000
0001
0100
0001
1000
0100
,
0010
0001
0010
0100
1000
0010
0100
0001
1000
0100
1000
0010
0100
0001
0010
0100
,
1000
0001
0100
0001
1000
0100
0010
0001
1000
0010
0100
0001
0010
0001
1000
0100
,
0010
0100
1000
0010
0100
0001
0010
0001
1000
0010
0100
0001
1000
0100
1000
0010
,
0100
0001
0010
0100
1000
0001
0100
0001
1000
0100
0010
0001
1000
0010
0100
0001
,
1000
0100
1000
0010
0100
0001
0010
0100
1000
0001
0100
0001
1000
0100
0010
0001
,
1000
0010
0100
0001
0010
0001
1000
0100
0010
0100
1000
0010
0100
0001
0010
0001
,
1000
0010
0100
0001
1000
0100
1000
0010
0100
0001
0010
0100
0010
0001
1000
0001
,
0100
0001
1000
0010
0100
0001
1000
0100
1000
0010
1000
0001
0100
0001
0010
0001
,
1000
0001
0100
0001
0010
0100
1000
0010
0100
0001
1000
0100
1000
0010
1000
0001
,
1000
0100
0010
0001
1000
0100
0010
0001
1000
0010
0100
0001
1000
0100
1000
0010
,
0100
0001
0010
0001
1000
0100
0010
0001
1000
0010
0100
0001
1000
0100
1000
0010
,
0100
0001
0010
0001
1000
0100
0010
0001
1000
0001
0100
0001
0010
0100
1000
0010
,
0100
0001
1000
0100
1000
0001
1000
0010
1000
0100
1000
0010
0100
0001
0010
0100
,
1000
0001
0100
0001
1000
0100
0010
0001
1000
0010
0100
0001
0010
0001
1000
0100
,
0010
0001
1000
0010
0100
0001
0010
0001
1000
0100
0010
0001
1000
0010
0100
0001
,
1000
0100
1000
0010
0100
0001
0010
0100
1000
0001
0100
0001
1000
0010
0100
0001
,
1000
0100
1000
0010
0100
0001
0010
0100
1000
0001
0100
0001
1000
0100
0010
0001
,
1000
0010
0100
0001
0010
0001
1000
0100
0010
0001
1000
0010
0100
0001
0010
0001
,
1000
0010
0100
0001
1000
0100
1000
0010
0100
0001
0010
0100
1000
0001
0100
0001
,
1000
0100
0010
0001
1000
0010
0100
0001
1000
0100
1000
0010
0100
0001
0010
0100
,
1000
0001
0100
0001
1000
0100
0010
0001
1000
0010
0100
0001
1000
0100
1000
0010
,
0100
0010
1000
0100
0010
0001
0100
0001
0010
0100
0010
0001
1000
0001
0100
0001
,
0010
0100
1000
0010
0100
0010
1000
0100
0010
0001
0100
0001
0010
0100
1000
0010
,
0100
0001
0010
0100
0010
0001
1000
0100
0010
0001
1000
0100
1000
0010
0100
0001
,
0010
0100
1000
0010
0100
0001
1000
0100
1000
0010
0100
0001
0010
0100
0010
0001
,
1000
0010
0100
0001
0010
0100
1000
0001
0100
0001
0010
0100
0010
0001
0010
0100
,
1000
0001
0100
0001
1000
0100
0010
0100
1000
0010
0100
0001
1000
0100
0010
0100
,
1000
0010
0100
0010
1000
0100
0010
0001
0100
0001
0010
0100
0010
0001
1000
0010
,
0100
0001
0010
0100
0010
0001
1000
0010
0100
0001
0010
0100
0010
0001
0010
0100
,
0010
0001
1000
0010
0100
0001
1000
0100
1000
0010
0100
0001
0010
0100
1000
0001
,
0100
0001
1000
0100
0010
0001
1000
0010
0100
0001
1000
0100
0010
0001
1000
0010
,
0100
0001
1000
0100
1000
0010
0100
0001
0010
0001
1000
0100
0010
0001
1000
0010
,
0100
0001
1000
0100
1000
0010
0100
0001
0010
0001
1000
0100
0010
0001
1000
0010
,
0100
0001
1000
0100
1000
0010
0100
0001
0010
0100
1000
0001
0100
0001
1000
0100
,
0010
0001
1000
0010
1000
0001
0010
0001
1000
0100
0010
0001
1000
0010
0100
0001
,
1000
0100
1000
0010
0100
0001
0010
0100
0010
0001
1000
0010
1000
0001
0010
0100
,
1000
0001
0100
0001
1000
0100
0010
0001
1000
0010
0100
0001
0010
0001
1000
0100
,
0010
0001
1000
0010
0100
0001
1000
0100
1000
0010
0100
0001
0010
0100
1000
0001
,
0100
0001
1000
0100
0010
0001
1000
0010
0100
0001
0010
0001
1000
0010
0100
0001
,
1000
0100
1000
0010
0100
0001
0010
0100
0010
0001
1000
0010
0100
0010
1000
0100
,
0010
0001
1000
0010
0100
0001
0010
0001
1000
0100
0010
0001
1000
0010
0100
0001
,
1000
0100
1000
0010
0100
0001
0010
0100
1000
0001
0100
0001
1000
0100
0010
0001
,
1000
0010
0100
0001
0010
0001
1000
0100
0010
0001
1000
0010
1000
0001
0010
0100
,
1000
0001
0100
0001
1000
0100
0010
0001
1000
0100
1000
0010
0100
0001
0010
0100
,
1000
0001
0100
0001
1000
0100
0010
0001
1000
0010
1000
0001
0010
0100
1000
0001
,
0100
0001
1000
0100
0010
0001
1000
0010
0100
0001
0010
0001
1000
0100
0010
0001
,
1000
0010
0100
0001
0010
0001
1000
0010
1000
0001
0100
0001
0010
0100
1000
0001
,
1000
0100
1000
0010
0100
0001
0010
0100
1000
0001
0100
0001
1000
0100
1000
0010
,
0100
0001
0010
0001
1000
0100
0010
0001
1000
0010
0100
0001
0010
0001
1000
0100
,
0010
0001
1000
0010
0100
0001
1000
0100
1000
0010
0100
0001
0010
0100
1000
0001
,
0010
0001
1000
0100
1000
0010
0100
0001
0010
0100
1000
0001
0100
0001
1000
0100
,
1000
0010
0100
0001
0010
0100
1000
0001
0100
0001
1000
0100
0010
0001
1000
0010
,
0100
0001
1000
0100
1000
0010
0100
0001
0010
0100
0010
0001
1000
0100
1000
0010
,
0100
0001
0010
0100
1000
0001
0100
0001
1000
0100
0010
0001
1000
0010
1000
0100
,
0010
0001
1000
0010
0100
0001
0010
0100
0010
0001
1000
0010
1000
0001
0010
0100
,
1000
0001
0100
0001
1000
0100
0010
0001
1000
0010
0100
0001
0010
0100
1000
0001
,
2000
0000
0000
0000
,
0000
0000
0000
0000
,
3010
0100
0001
0010
0100
1000
0001
0100
0001
1000
0100
0010
0001
1000
0010
0100
,
0001
1000
0100
1000
0010
0100
0001
0010
0100
1000
0001
0100
0001
1000
0100
0010
,
0001
1000
0010
1000
0100
0010
0001
1000
0010
0100
0001
0010
0100
1000
0001
0100
,
0001
1000
0100
0010
0001
1000
0010
1000
0001
0010
0100
1000
0001
0100
0001
1000
,
0100
0010
0001
1000
0010
0100
0001
0010
0100
1000
0001
0100
0001
1000
0100
0010
,
0001
1000
0010
0100
0001
0010
0001
1000
0100
0010
0001
1000
0010
0100
0001
1000
,
0100
0010
0100
1000
0001
1000
0010
0100
0001
1000
0100
1000
0010
0100
0001
0010
,
0100
1000
0001
0100
0001
1000
0100
0010
0001
1000
0010
0100
0001
0010
0001
1000
,
0100
0010
0001
1000
0010
0100
0001
0010
0001
1000
0100
0010
0001
1000
0010
0100
,
0001
1000
0100
1000
0010
0100
0001
0010
0100
1000
0001
0100
0001
1000
0100
0010
,
0001
1000
0010
1000
0001
0010
0001
1000
0100
0010
0001
1000
0010
0100
0001
0010
,
0100
1000
0001
0100
0001
1000
0100
1000
0010
0100
0001
0010
0100
1000
0001
0100
,
0001
1000
0100
1000
0010
0100
0001
0010
0100
1000
0001
0100
0001
1000
0100
0010
,
0001
1000
0100
1000
0010
0100
0001
0010
0100
1000
0001
0100
0001
1000
0100
0010
,
0001
0100
0001
1000
0100
1000
0010
0100
0001
0010
0100
1000
0001
0100
0001
1000
,
0100
0010
0001
1000
0100
1000
0010
0100
0001
0010
0100
1000
0001
0100
0001
1000
,
0100
0010
0001
1000
0010
1000
0001
0010
0001
1000
0100
0010
0001
1000
0100
1000
,
0010
0100
0001
0010
0100
1000
0001
0010
0001
0100
0010
1000
0100
0010
0001
1000
,
0010
1000
0100
1000
0010
0100
0001
0010
0100
1000
0001
0100
0001
1000
0100
1000
,
0001
0100
0001
1000
0100
0010
0001
1000
0010
1000
0001
0010
0100
1000
0001
0100
,
0001
1000
0100
0010
0001
1000
0010
0100
0001
0010
0001
1000
0100
0010
0001
1000
,
0010
0100
0001
0010
0001
1000
0100
0010
0001
1000
0010
0100
0001
1000
0100
1000
,
0010
1000
0001
0100
0001
1000
0010
0100
0001
0010
0100
0010
0001
1000
0100
1000
,
0010
0100
0001
0010
0100
1000
0001
0100
0010
1000
0100
1000
0010
0100
0001
0010
,
0100
1000
0001
0100
0001
1000
0100
0010
0001
1000
0010
1000
0001
0010
0001
1000
,
0100
0010
0001
1000
0010
0100
0001
0010
0001
1000
0100
0010
0001
1000
0010
0100
,
0001
1000
0100
1000
0001
0100
0001
1000
0010
0100
0001
1000
0100
0010
0100
1000
,
0001
0100
0001
0010
0100
0010
0001
1000
0100
1000
0010
0100
0001
1000
0100
0010
,
0100
1000
0010
0100
0001
0010
0001
1000
0100
0010
0100
1000
0010
0100
0001
1000
,
0100
1000
0010
0100
0001
0010
0100
0010
0001
1000
0100
1000
0010
0100
0001
1000
,
0100
0010
0100
1000
0001
0100
0001
1000
0100
0010
0100
1000
0010
0100
0010
1000
,
0100
1000
0001
1000
0010
1000
0100
0010
0100
1000
0010
0100
0001
0010
0100
0010
,
0001
1000
0001
0100
0001
1000
0100
0010
0001
1000
0010
0100
0001
0010
0001
1000
,
0100
0010
0001
1000
0010
0100
0001
1000
0100
1000
0010
0100
0001
1000
0100
0010
,
0100
1000
0010
0100
0001
0010
0001
1000
0100
0010
0001
1000
0010
1000
0100
0010
,
0001
1000
0010
0100
0001
0010
0001
1000
0010
0100
0001
0010
0100
1000
0001
0100
,
0010
1000
0100
1000
0010
0100
0001
0010
0100
1000
0001
0100
0001
1000
0100
0010
,
0001
1000
0010
1000
0001
0010
0001
1000
0100
0010
0001
1000
0010
0100
0001
0010
,
0100
1000
0001
0100
0001
1000
0100
0010
0001
1000
0010
0100
0001
0010
0100
1000
,
0001
0100
0001
1000
0100
0010
0001
1000
0010
0100
0001
0010
0001
1000
0100
0010
,
0001
1000
0010
1000
0001
0010
0001
1000
0100
0010
0001
1000
0010
0100
0001
0010
,
0001
1000
0010
0100
0001
1000
0100
1000
0010
0100
0001
0010
0001
1000
0100
0010
,
0001
1000
0010
1000
0001
0010
0001
1000
0100
0010
0001
1000
0010
0100
0001
0010
,
0001
1000
0100
0010
0001
1000
0100
0010
0001
1000
0010
0100
0001
1000
0100
0010
,
0001
1000
0100
0010
0001
1000
0010
0100
0001
1000
0100
0010
0001
1000
0100
0010
,
0001
1000
0010
1000
0100
0010
0001
1000
0010
0100
0001
0010
0001
1000
0100
1000
,
2200
0000
0000
0000
,
0000
0000
0000
0000
0000
0000
0000
0000
0000
0000
0000
0000
0000
0000
0000
3300
,
0220
0000
0000
0000
,
0000
0000
0000
0000
0000
0000
0000
0330
,
0022
0000
0000
0000
,
0000
0000
0000
0000
0000
0000
0000
0033
,
2200
0000
0000
3300
0202
0000
0000
0303
,
2020
3030
0202
0303
0022
0033
0220
0330
1001
1000
0001
0100
0010
1000
0001
1000
,
0100
0010
0001
1000
0010
0100
0001
0010
0001
1000
0100
0010
0001
1000
0010
0100
,
0001
0010
0001
1000
0100
0010
0001
1000
0010
0100
0001
0010
0001
1000
0100
0010
,
0001
1000
0010
0100
0001
0010
0001
1000
0100
0010
0100
1000
0010
0100
0001
0010
,
0001
1000
0100
1000
0010
0100
0001
0010
0100
1000
0001
0100
0001
1000
0010
0100
,
0001
1000
0100
0010
0100
1000
0010
0100
0001
1000
0010
0100
0001
1000
0100
1000
,
0010
0100
0001
0010
0100
1000
0001
0100
0001
1000
0100
1000
0010
0100
0001
0010
,
0100
1000
0010
0100
0001
0010
0001
1000
0100
0010
0001
1000
0010
0100
0001
0010
,
0001
1000
0010
0100
0001
0010
0100
1000
0001
0100
0001
1000
0100
0010
0100
1000
,
0010
0100
0001
0010
0001
1000
0100
1000
0010
0100
0001
0010
0100
1000
0001
0100
,
0001
1000
0100
0010
0001
1000
0010
0100
0001
0010
0100
0010
0001
1000
0010
1000
,
0001
0010
0001
1000
0100
0010
0001
1000
0010
0100
0001
0010
0001
1000
0100
0010
,
0001
1000
0010
0100
0001
0010
0001
1000
0100
0010
0001
1000
0010
1000
0001
1000
,
0100
1000
0010
0100
0001
0010
0100
1000
0001
0100
0001
1000
0100
0010
0001
1000
,
0010
0100
0001
1000
0100
1000
0010
0100
0001
0010
0100
1000
0001
0100
0001
1000
,
0100
0010
0100
1000
0010
0100
0001
0010
0001
1000
0100
0010
0001
1000
0010
0100
,
0001
0010
0001
1000
0100
0010
0001
1000
0010
0100
0001
0010
0001
1000
0100
1000
,
0010
0100
0001
0010
0100
1000
0001
0100
0001
1000
0100
0010
0001
1000
0010
0100
,
0001
0010
0001
1000
0010
1000
0100
0010
0001
1000
0010
0100
0001
0010
0100
0010
,
0001
1000
0100
1000
0010
0100
0001
0010
0100
1000
0001
0100
0001
1000
0010
0100
,
0001
0010
0100
1000
0001
0100
0001
1000
0100
0010
0001
1000
0010
0100
0001
0010
,
0100
1000
0001
0100
0001
1000
0100
0010
0001
1000
0010
1000
0001
0010
0001
1000
,
0100
0010
0001
1000
0010
0100
0001
0010
0001
1000
0100
0010
0001
0100
0001
0010
,
0100
1000
0001
1000
0010
0100
0001
0010
0100
1000
0001
0100
0001
1000
0100
0010
,
0001
1000
0100
1000
0010
0100
0001
0010
0100
1000
0001
0100
0001
1000
0100
0010
,
0001
1000
0100
1000
0010
0100
0001
0010
0100
1000
0001
0100
0001
1000
0100
0010
,
0001
1000
0100
1000
0010
0100
0001
0010
0100
1000
0001
0100
0001
1000
0100
0010
,
0001
1000
0100
1000
0010
0100
0001
0010
0100
1000
0001
0100
0001
1000
0100
0010
,
0001
1000
0010
0100
0001
0010
0001
1000
0100
0010
0001
1000
0010
1000
0001
0010
,
0001
1000
0100
1000
0010
0100
0001
0010
0100
1000
0001
0100
0001
1000
0100
0010
,
0001
1000
0010
1000
0100
0010
0001
1000
0010
0100
0001
0010
0100
1000
0001
0100
,
0010
0100
0001
1000
0100
1000
0010
0100
0001
0010
0100
1000
0001
0100
0001
1000
,
0100
0010
0001
1000
0010
1000
0100
1000
0010
0100
0001
0010
0100
1000
0001
1000
,
2020
0000
0000
0000
,
0000
0000
0000
0000
0000
0000
0000
0000
0000
0000
3030
0000
1000
0001
0100
0001
,
1000
0100
1000
0010
0100
0001
0010
0100
1000
0001
0100
0001
1000
0100
0010
0001
,
1000
0010
1000
0001
0010
0100
1000
0001
0100
0001
1000
0100
0010
0001
1000
0010
,
0100
0001
0010
0001
1000
0100
0010
0001
1000
0010
1000
0001
0010
0100
1000
0001
,
0100
0001
1000
0100
0010
0001
1000
0010
1000
0001
0010
0100
1000
0001
0100
0001
,
1000
0100
0010
0001
1000
0010
0100
0001
0010
0001
1000
0100
0010
0001
1000
0010
,
0100
0001
1000
0100
1000
0010
0100
0001
1000
0100
0010
0001
1000
0001
0100
0001
,
1000
0100
0010
0100
1000
0010
0100
0001
0010
0001
1000
0100
0010
0001
1000
0010
,
0100
0001
0010
0001
1000
0100
0010
0001
1000
0010
0100
0001
0010
0001
1000
0100
,
0010
0001
1000
0100
1000
0010
0100
0001
0010
0100
1000
0001
0100
0001
1000
0100
,
0010
0001
1000
0010
1000
0001
0010
0100
1000
0001
0100
0001
1000
0100
0010
0001
,
1000
0010
1000
0001
0010
0100
1000
0001
0100
0001
1000
0100
0010
0001
1000
0010
,
0100
0001
0010
0100
1000
0001
0100
0001
1000
0100
0010
0100
1000
0010
0100
0001
,
0010
0100
1000
0001
0100
0001
1000
0100
0010
0001
1000
0010
0100
0001
1000
0100
,
0010
0001
1000
0100
1000
0010
0100
0001
0010
0100
0010
0001
1000
0010
0100
0001
,
1000
0100
1000
0010
0100
0001
0010
0001
1000
0100
0010
0001
1000
0010
0100
0001
,
0010
0100
1000
0001
0100
0001
1000
0100
0010
0001
1000
0010
0100
0001
0010
0100
,
1000
0010
1000
0001
0100
0001
0010
0100
1000
0010
0100
0001
1000
0100
0010
0001
,
1000
0100
1000
0010
0100
0001
0010
0100
1000
0001
0100
0001
1000
0100
0010
0001
,
1000
0010
1000
0100
1000
0010
0100
0001
0010
0100
1000
0001
0100
0001
1000
0100
,
0010
0001
1000
0100
1000
0010
0100
0001
0010
0100
1000
0001
0100
0001
1000
0100
,
0010
0001
0100
0001
1000
0010
0100
0001
0010
0100
0010
0001
1000
0100
1000
0010
,
0100
0001
1000
0100
1000
0010
0100
0001
0010
0100
1000
0001
0100
0001
1000
0100
,
0010
0001
1000
0010
0100
0001
0010
0001
1000
0100
0010
0001
1000
0010
1000
0100
,
0010
0001
1000
0010
0100
0001
0010
0100
1000
0001
0100
0001
1000
0100
0010
0001
,
1000
0100
1000
0010
0100
0001
0010
0100
1000
0001
0100
0001
1000
0100
0010
0001
,
1000
0001
0100
0001
0010
0100
1000
0010
0100
0001
1000
0100
1000
0010
0100
0001
,
1000
0001
0100
0001
1000
0010
0100
0001
0010
0100
0010
0001
1000
0100
1000
0010
,
0100
0001
0010
0100
1000
0001
0100
0001
1000
0100
0010
0001
1000
0010
0100
0001
,
0010
0001
1000
0100
0010
0001
1000
0010
0100
0001
1000
0100
1000
0001
0100
0001
,
1000
0010
0100
0001
0010
0100
1000
0001
0100
0001
1000
0100
0010
0001
1000
0100
,
1000
0010
1000
0100
0010
0001
1000
0010
0100
0001
0010
0001
1000
0100
0010
0001
,
1000
0010
0100
0001
0010
0001
1000
0010
1000
0100
0010
0001
1000
0010
0100
0001
,
0010
0100
1000
0001
0100
0001
1000
0100
0010
0001
1000
0010
0100
0001
0010
0001
,
1000
0010
0100
0001
1000
0100
1000
0010
0100
0001
0010
0100
1000
0001
0100
0001
,
1000
0100
0010
0001
1000
0010
0100
0001
0010
0001
1000
0010
0100
0001
1000
0100
,
1000
0010
0100
0001
0010
0100
1000
0001
0100
0001
1000
0100
0010
0001
1000
0010
,
0100
0001
0010
0001
1000
0100
0010
0001
1000
0010
0100
0001
1000
0100
1000
0010
,
0100
0001
0010
0100
0010
0001
1000
0100
1000
0010
0100
0001
1000
0100
0010
0001
,
1000
0100
1000
0010
0100
0001
0010
0100
1000
0001
0100
0001
1000
0100
0010
0001
,
1000
0010
1000
0001
0010
0100
1000
0001
0100
0001
1000
0100
0010
0001
1000
0001
,
0010
0100
1000
0010
0100
0001
0010
0100
1000
0001
0100
0001
1000
0100
0010
0001
,
1000
0010
1000
0100
0010
0001
0010
0100
1000
0010
0100
0001
0100
0010
1000
0010
,
0100
0001
1000
0100
1000
0010
0100
0001
0010
0100
1000
0001
0100
0001
1000
0100
,
0010
0001
1000
0010
1000
0001
0010
0001
1000
0100
0010
0001
1000
0010
0100
0001
,
0010
0001
1000
0100
0010
0001
1000
0010
0100
0001
0010
0100
1000
0001
1000
0100
,
0010
0001
1000
0010
0100
0001
0010
0001
1000
0100
0010
0001
1000
0010
0100
0001
,
1000
0100
0010
0001
1000
0010
1000
0001
0010
0100
1000
0001
0100
0001
1000
0100
,
1000
0010
0100
0001
0010
0100
1000
0001
0100
0001
1000
0100
0010
0001
1000
0010
,
1000
0001
0010
0001
1000
0100
0010
0001
1000
0010
0100
0001
0010
0001
1000
0100
,
0010
0001
1000
0010
1000
0100
0010
0001
1000
0010
0100
0001
0010
0001
1000
0100
,
0010
0001
1000
0100
1000
0010
0100
0001
0010
0100
1000
0001
0100
0001
1000
0100
,
0010
0001
1000
0010
1000
0001
0010
0001
1000
0100
0010
0001
1000
0010
0100
0001
,
1000
0100
1000
0010
0100
0001
0010
0001
1000
0100
0010
0001
1000
0010
1000
0001
,
0010
0001
1000
0100
0010
0001
1000
0010
0100
0001
1000
0100
1000
0010
0100
0001
,
0010
0001
1000
0100
0010
0001
1000
0010
1000
0001
0010
0001
1000
0100
0010
0001
,
1000
0010
0100
0001
1000
0100
1000
0010
0100
0001
0010
0100
1000
0001
0100
0001
,
1000
0100
0010
0001
1000
0010
1000
0001
0010
0001
1000
0100
0010
0001
1000
0010
,
0100
0001
1000
0100
1000
0010
0100
0001
0010
0001
1000
0100
0010
0001
1000
0001
,
0100
0001
0010
0001
1000
0100
0010
0001
1000
0010
1000
0001
0010
0001
1000
0100
,
0010
0001
1000
0010
0100
0001
0010
0001
1000
0100
0010
0001
1000
0010
0100
0001
,
0010
0001
1000
0100
0010
0001
1000
0010
1000
0001
0010
0100
1000
0001
0100
0001
,
1000
0100
0010
0001
1000
0010
0100
0001
0010
0001
1000
0100
0010
0001
1000
0010
,
1000
0001
0010
0100
1000
0001
0100
0001
1000
0100
0010
0001
1000
0010
1000
0001
,
0010
0001
1000
0100
0010
0001
1000
0010
0100
0010
1000
0100
0010
0001
1000
0010
,
0100
0001
0010
0100
1000
0001
0100
0001
1000
0100
0010
0001
1000
0010
1000
0001
,
0010
0001
1000
0100
0010
0001
1000
0010
0100
0001
0010
0001
1000
0100
0010
0100
,
1000
0010
0100
0001
1000
0100
1000
0010
0100
0001
0010
0001
1000
0100
0010
0100
,
1000
0010
0100
0001
0010
0001
1000
0100
0010
0001
1000
0010
1000
0001
0010
0001
,
1000
0100
0010
0001
1000
0010
0100
0001
0010
0001
1000
0100
0010
0001
1000
0010
,
1000
0001
0010
0100
1000
0001
0100
0001
1000
0100
0010
0100
1000
0010
0100
0001
,
0010
0001
1000
0100
0010
0001
1000
0010
1000
0001
0010
0100
1000
0001
0100
0001
,
1000
0100
0010
0100
1000
0010
0100
0001
0010
0001
1000
0100
0010
0001
1000
0010
,
1000
0001
0010
0100
1000
0001
0100
0001
1000
0100
0010
0001
1000
0010
0100
0001
,
0010
0001
1000
0100
0010
0001
1000
0010
0100
0001
1000
0100
1000
0010
0100
0001
,
1000
0010
1000
0100
0010
0001
1000
0100
1000
0010
0100
0001
1000
0001
0010
0100
,
1000
0001
1000
0100
1000
0010
0100
0001
0010
0100
1000
0001
0100
0001
1000
0100
,
1000
0010
0100
0001
1000
0001
0010
0100
1000
0001
0100
0001
1000
0100
0010
0100
,
1000
0010
0100
0001
0010
0001
1000
0100
1000
0010
0100
0001
0010
0001
1000
0100
,
0010
0001
1000
0010
1000
0100
0010
0001
1000
0010
0100
0001
0010
0001
1000
0100
,
0010
0001
1000
0010
0100
0001
0010
0001
1000
0100
0010
0001
1000
0010
1000
0001
,
0010
0001
1000
0100
0010
0001
1000
0010
0100
0001
0010
0001
1000
0100
0010
0001
,
1000
0010
0100
0001
1000
0100
1000
0010
0100
0001
0010
0001
1000
0100
0010
0001
,
1000
0001
0100
0001
1000
0010
0100
0001
0010
0100
1000
0001
0100
0001
1000
0100
,
0010
0001
1000
0010
0100
0001
0010
0001
1000
0100
0010
0001
1000
0010
0100
0001
,
2000
0000
0000
0000
,
3000
0000
0000
0000
;
