#TITLE:Freedom Dive;
#SUBTITLE:owenviau1's Index BOSS Song;
#ARTIST:Xi;
#TITLETRANSLIT:;
#SUBTITLETRANSLIT:;
#ARTISTTRANSLIT:;
#CREDIT:owenviau1;
#BANNER:BN.PNG;
#BACKGROUND:BG.PNG;
#LYRICSPATH:;
#CDTITLE:../ov1_title.png;
#MUSIC:XI - Freedom Dive.mp3;
#OFFSET:-2.280;
#SAMPLESTART:47.598;
#SAMPLELENGTH:29.999;
#SELECTABLE:YES;
#DISPLAYBPM:222.222;
#BPMS:0.000=222.222;
#STOPS:;
#BGCHANGES:;
// cache tags:
#FIRSTBEAT:0.000;
#LASTBEAT:967.000;
#SONGFILENAME:Songs/owenviau1 Simfiles 5/Freedom Dive - [owenviau1] v1.6/Freedom Dive.sm;
#HASMUSIC:1;
#HASBANNER:1;
#MUSICLENGTH:265.632;
// end cache tags

//---------------dance-single - Index----------------
#NOTES:
     dance-single:
     Index:
     Challenge:
     22:
     1.000,1.000,0.045,0.011,1.000,3648.000,12.000,3.000,211.000,0.000:
1000
0100
0010
0001
0100
0001
1000
0010
1000
0100
0010
0001
0010
0100
1000
0001
,
0100
0001
1000
0010
1000
0100
0010
0001
1000
0001
0010
0100
1000
0001
0100
0010
,
100M
0010
0100
0001
0100
0010
1000
0100
0010
0001
1000
0100
0010
0001
0100
0001
,
0010
0100
1000
0010
1000
0001
0100
0001
0010
0100
1000
0001
0100
0010
1000
0100
,
M010
0001
0100
0010
1000
0001
1000
0100
0010
0100
1000
0001
0100
0010
0100
0001
,
1000
0010
0100
0010
1000
0001
0100
0001
0010
0100
1000
0001
0100
0001
0010
0100
,
10M0
0001
0100
0010
1000
0100
0010
0001
1M00
0010
0100
0001
1000
0100
0010
0001
,
0100
0000
0000
0010
0000
0000
1000
0000
0000
0100
0000
0000
0010
0000
0000
0001
0000
0000
0100
0000
0000
0010
0000
0000
0100
0000
0000
0001
0000
0000
1000
0000
0000
0010
0000
0000
0100
0000
0000
0010
0000
0000
1000
0000
0001
0000
1000
0000
,
0001
0010
0100
1000
0001
1000
0010
0100
0001
1000
0100
1000
0001
0100
0001
0010
,
0100
1000
0010
0100
0010
1000
0001
0100
0010
0100
0001
1000
0100
0010
0001
1000
,
0001
0010
0100
1000
0100
0010
0001
0100
0010
1000
0010
0100
0001
1000
0100
0010
,
0001
1000
0001
0010
0100
1000
0001
0100
0010
1000
0001
0100
0010
1000
0100
0010
,
0001
1000
0010
1000
0001
1000
0010
0100
0001
0010
0100
1000
0100
0010
0001
1000
,
0001
0100
0001
0010
0100
1000
0010
1000
0001
0100
0010
1000
0010
0100
0010
1000
,
0001
0100
0010
0100
0001
1000
0001
0010
0100
1000
0001
1000
0100
0010
0001
1000
,
0001
0000
0000
1000
0000
0000
0100
0000
0000
0010
0000
0000
0001
0000
0000
1000
0000
0000
0001
0000
0000
1000
0000
0000
0001
0000
0000
0100
0000
0000
0010
0000
1000
0000
0010
0000
1000
0000
0000
0100
0000
0000
0001
0000
0000
1000
0000
0000
,
0001
0010
0100
1000
0001
1000
0010
0100
0001
1000
0100
1000
0001
0100
0001
0010
,
0100
1000
0010
0100
0010
1000
0001
0100
0010
0100
0001
1000
0100
0010
0001
1000
,
0001
0010
0100
1000
0100
0010
0001
0100
0010
1000
0010
0100
0001
1000
0100
0010
,
0001
1000
0001
0010
0100
1000
0001
0100
0010
1000
0001
0100
0010
1000
0100
0010
,
0001
0100
0010
1000
0001
1000
0010
0100
0001
0010
0100
1000
0100
0010
0001
1000
,
0001
0100
0001
0010
0100
1000
0010
1000
0001
0100
0010
1000
0010
0100
0010
1000
,
0001
0100
0010
0100
0001
1000
0001
0010
0100
1000
0001
1000
0100
0010
0001
1000
,
0001
1000
0100
0010
0001
1000
0001
1000
0001
0010
0100
1000
0001
0100
0010
1000
,
01MM
1000
0001
0100
0010
0100
0001
1000
0001
0010
0100
1000
0001
1000
0010
0100
,
0001
1000
0100
1000
0001
0100
0001
0010
0100
1000
0010
0100
0010
1000
0001
0100
,
0010
0100
0001
1000
0100
0010
0001
1000
0001
0010
0100
1000
0100
0010
0001
0100
,
0010
1000
0010
0100
0001
1000
0100
0010
0001
1000
0001
0010
0100
1000
0001
0100
,
0010
1000
0001
0100
0010
1000
0100
0010
0001
0100
0010
1000
0001
1000
0010
0100
,
0001
0010
0100
1000
0100
0010
0001
1000
0001
0100
0001
0010
0100
1000
0010
1000
,
0001
0100
0010
1000
0010
0100
0010
1000
0001
0100
0010
0100
0001
1000
0001
0010
,
0100
1000
0001
1000
0100
0010
0001
1000
0001
1000
0100
0010
0001
1000
0001
1000
,
0M01
0010
0100
1000
0001
0100
0010
1000
0001
0100
0001
1000
0001
0010
0100
1000
,
0001
1000
0010
0100
0001
1000
0100
1000
0001
0100
0001
0010
0100
1000
0010
0100
,
001M
1000
0001
0100
0010
0100
0001
1000
0100
0010
0001
1000
0001
0010
0100
1000
,
0100
0010
0001
0100
0010
1000
0010
0100
0001
1000
0100
0010
0001
1000
0001
0010
,
010M
1000
0001
0100
0010
1000
0001
0100
0010
1000
0100
0010
0001
0100
0010
1000
,
0001
1000
0010
0100
0001
0010
0100
1000
0100
0010
0001
1000
0001
0100
0001
0010
,
0100
1000
0010
1000
0001
0100
0010
1000
0010
0100
0010
1000
0001
0100
0010
0100
,
0001
1000
0001
0010
0100
1000
0001
1000
0100
0010
0001
1000
0001
1000
0100
0010
,
0001
1000
0001
1000
0000
0000
0001
0100
0001
0100
0000
0000
1000
0010
1000
0010
0000
0000
0001
0100
0001
0100
0000
0000
,
1000
0100
1000
0100
0000
0000
0010
0001
0010
0001
0000
0000
1000
0001
1000
0001
0000
0000
0100
0001
0100
0001
0000
0000
,
1001
0010
0100
1000
0001
0100
0001
1000
0001
0010
0100
1000
0001
1000
0010
0100
,
0001
1000
0100
1000
0001
0100
0001
0010
0100
1000
0010
0100
0010
1000
0001
0100
,
0010
0100
0001
1000
0100
0010
0001
1000
0001
0010
0100
1000
0100
0010
0001
0100
,
0010
1000
0010
0100
0001
1000
0100
0010
0001
1000
0001
0010
0100
1000
0001
0100
,
0010
1000
0001
0100
0010
1000
0100
0010
0001
0100
0010
1000
0001
1000
0010
0100
,
0001
0010
0100
1000
0100
0010
0001
1000
0001
0100
0001
0010
0100
1000
0010
1000
,
0001
0100
0010
1000
0010
0100
0010
1000
0001
0100
0010
0100
0001
1000
0001
0010
,
0100
1000
0001
1000
0100
0010
0001
1000
0001
1000
0100
0010
0001
1000
0100
1000
,
0001
0010
0100
1000
0001
0100
0001
1000
0001
0010
0100
1000
0001
1000
0010
0100
,
0001
1000
0100
1000
0001
0100
0001
0010
0100
1000
0010
0100
0010
1000
0001
0100
,
0010
0100
0001
1000
0100
0010
0001
1000
0001
0010
0100
1000
0100
0010
0001
0100
,
0010
1000
0010
0100
0001
1000
0100
0010
0001
1000
0001
0010
0100
1000
0001
0100
,
0010
1000
0001
0100
0010
1000
0100
0010
0001
0100
0010
1000
0001
1000
0010
0100
,
0001
0010
0100
1000
0100
0010
0001
1000
0001
0100
0001
0010
0100
1000
0010
1000
,
0001
0100
0010
1000
0010
0100
0010
1000
0001
0100
0010
0100
0001
1000
0001
0010
,
0100
1000
0001
1000
0100
0010
0001
1000
0001
1000
0100
0010
0001
1000
0001
0100
,
1001
0010
0100
1000
0001
0100
0001
1000
0001
0010
0100
1000
0001
1000
0010
0100
,
0001
1000
0100
1000
0001
0100
0001
0010
0100
1000
0010
0100
0010
1000
0001
0100
,
0010
0100
0001
1000
0100
0010
0001
1000
0001
0010
0100
1000
0100
0010
0001
0100
,
0010
1000
0010
0100
0001
1000
0100
0010
0001
1000
0001
0010
0100
1000
0001
0100
,
0010
1000
0001
0100
0010
1000
0100
0010
0001
0100
0010
1000
0001
1000
0010
0100
,
0001
0010
0100
1000
0100
0010
0001
1000
0001
0100
0001
0010
0100
1000
0010
1000
,
0001
0100
0010
1000
0010
0100
0010
1000
0001
0100
0010
0100
0001
1000
0001
0010
,
0100
1000
0001
1000
0100
0010
0001
1000
0001
1000
0100
0010
0001
1000
0001
0100
,
0001
0010
0100
1000
0001
0100
0001
1000
0001
0010
0100
1000
0001
1000
0010
0100
,
0001
1000
0100
1000
0001
0100
0001
0010
0100
1000
0010
0100
0010
1000
0001
0100
,
0010
0100
0001
1000
0100
0010
0001
1000
0001
0010
0100
1000
0100
0010
0001
0100
,
0010
1000
0010
0100
0001
1000
0100
0010
0001
1000
0001
0010
0100
1000
0001
0100
,
0010
1000
0001
0100
0010
1000
0100
0010
0001
0100
0010
1000
0001
1000
0010
0100
,
0001
0010
0100
1000
0100
0010
0001
1000
0001
0100
0001
0010
0100
1000
0010
1000
,
0001
0100
0010
1000
0010
0100
0010
1000
0001
0100
0010
0100
0001
1000
0001
0010
,
0100
1000
0001
1000
0100
0010
0001
1000
0001
1000
0100
0010
0001
1000
0100
1000
,
0MM1
1000
0001
0010
0100
1000
0100
0010
,
0100
0001
0010
0100
1000
0010
0001
1000
,
0010
1000
0001
0010
0100
1000
0010
0001
,
0100
0001
1000
0001
0100
0010
1000
0100
,
1000
0001
0010
0001
1000
0010
0100
0001
,
1000
0010
0001
1000
0010
0100
0001
1000
,
0001
0010
0100
0001
1000
0010
0100
0001
,
0010
0100
1000
0010
1000
0001
0010
0100
,
1001
0010
1000
0100
0010
0001
0100
0001
,
1000
0100
1000
0010
0100
0001
1000
0010
,
0101
1000
0001
1000
0010
0100
0001
1000
,
0001
0010
0100
1000
0001
0100
0010
1000
,
0101
0010
1000
0001
1000
0010
0100
0001
,
1100
0010
0100
1000
0110
0001
0100
0010
,
1001
0000
0000
0100
0000
0000
0011
0000
0000
1000
0000
0000
0101
0000
0000
0001
0000
0000
1010
0000
0000
1000
0001
1000
,
0001
0010
0100
1000
0001
1000
0010
0100
0001
1000
0100
1000
0001
0100
0001
0010
,
0100
1000
0010
0100
0010
1000
0001
0100
0010
0100
0001
1000
0100
0010
0001
1000
,
0001
0010
0100
1000
0100
0010
0001
0100
0010
1000
0010
0100
0001
1000
0100
0010
,
0001
1000
0001
0010
0100
1000
0001
0100
0010
1000
0001
0100
0010
1000
0100
0010
,
0001
1000
0100
1000
0001
1000
0010
0100
0001
0010
0100
1000
0100
0010
0001
1000
,
0001
0100
0001
0010
0100
1000
0010
1000
0001
0100
0010
1000
0010
0100
0010
1000
,
0001
0100
0010
0100
0001
1000
0001
0010
0100
1000
0001
1000
0100
0010
0001
1000
,
0001
1000
0100
0010
0001
0100
0001
1000
0100
0010
0001
1000
0010
0100
0001
1000
,
0200
0000
0000
0001
,
0301
0010
0100
1000
0001
1000
0010
0100
0001
1000
0100
1000
0001
0100
0001
0010
,
0100
1000
0010
0100
0010
1000
0001
0100
0010
0100
0001
1000
0100
0010
0001
1000
,
0001
0010
0100
1000
0100
0010
0001
0100
0010
1000
0010
0100
0001
1000
0100
0010
,
0001
1000
0001
0010
0100
1000
0001
0100
0010
1000
0001
0100
0010
1000
0100
0010
,
0001
0100
0010
1000
0001
1000
0010
0100
0001
0010
0100
1000
0100
0010
0001
1000
,
0001
0100
0001
0010
0100
1000
0010
1000
0001
0100
0010
1000
0010
0100
0010
1000
,
0001
0100
0010
0100
0001
1000
0001
0010
0100
1000
0001
1000
0100
0010
0001
1000
,
0001
1000
0100
0010
0001
1000
0100
1000
0001
0010
0100
1000
0001
0100
0010
1000
,
0001
0010
0100
1000
0001
1000
0010
0100
0001
1000
0100
1000
0001
0100
0001
0010
,
0100
1000
0010
0100
0010
1000
0001
0100
0010
0100
0001
1000
0100
0010
0001
1000
,
0001
0010
0100
1000
0100
0010
0001
0100
0010
1000
0010
0100
0001
1000
0100
0010
,
0001
1000
0001
0010
0100
1000
0001
0100
0010
1000
0001
0100
0010
1000
0100
0010
,
0001
0100
0010
1000
0001
1000
0010
0100
0001
0010
0100
1000
0100
0010
0001
1000
,
0001
0100
0001
0010
0100
1000
0010
1000
0001
0100
0010
1000
0010
0100
0010
1000
,
0001
0100
0010
0100
0001
1000
0001
0010
0100
1000
0001
1000
0100
0010
0001
1000
,
0001
1000
0100
0010
0001
1000
0001
1000
0001
0010
0100
1000
0001
0100
0010
1000
,
0001
0010
0100
1000
0001
1000
0010
0100
0001
1000
0010
1000
0001
0100
0001
0010
,
0100
1000
0010
0100
0010
1000
0001
0100
0010
0100
0001
1000
0100
0010
0001
1000
,
0001
0010
0100
1000
0100
0010
0001
0100
0010
1000
0010
0100
0001
1000
0100
0010
,
0001
1000
0001
0010
0100
1000
0001
0100
0010
1000
0001
0100
0010
1000
0100
0010
,
0001
0100
0010
1000
0001
1000
0010
0100
0001
0010
0100
1000
0100
0010
0001
1000
,
0001
0100
0001
0010
0100
1000
0010
1000
0001
0100
0010
1000
0010
0100
0010
1000
,
0001
0100
0010
0100
0001
1000
0001
0010
0100
1000
0001
1000
0100
0010
0001
1000
,
0001
1000
0100
0010
0001
1000
0001
1000
0001
0010
0100
1000
0001
0100
0010
1000
,
0001
0010
0100
1000
0001
1000
0010
0100
0001
1000
0010
1000
0001
0100
0001
0010
,
0100
1000
0010
0100
0010
1000
0001
0100
0010
0100
0001
1000
0100
0010
0001
1000
,
0001
0010
0100
1000
0100
0010
0001
0100
0010
1000
0010
0100
0001
1000
0100
0010
,
0001
1000
0001
0010
0100
1000
0001
0100
0010
1000
0001
0100
0010
1000
0100
0010
,
0001
0100
0010
1000
0001
1000
0010
0100
0001
0010
0100
1000
0100
0010
0001
1000
,
0001
0100
0001
0010
0100
1000
0010
1000
0001
0100
0010
1000
0010
0100
0010
1000
,
0001
0100
0010
0100
0001
1000
0001
0010
0100
1000
0001
1000
0100
0010
0001
1000
,
0001
1000
0100
0010
0001
1000
0001
1000
0001
0010
0100
1000
0001
0100
0010
1000
,
0100
0010
0001
0010
0100
1000
0100
0010
0001
0100
0010
1000
0001
0100
0010
1000
,
0001
0010
0100
0001
0100
0010
1000
0001
0100
0001
1000
0100
0010
0001
0010
0100
,
1000
0001
0100
0010
1000
0001
0100
0001
0010
0100
1000
0010
0100
0001
1000
0010
,
1000
0001
0010
0100
1000
0010
0100
0001
0010
0001
1000
0010
0100
0001
1000
0100
,
M010
M000
M001
M000
M010
0000
0100
0000
1000
0000
0100
0000
0010
0000
0100
0000
1000
0000
0001
0000
0010
0000
0100
0000
1000
0000
0100
0000
0010
0000
0001
0000
,
1000
0001
0010
0100
0010
1000
0001
0100
0010
0100
0001
1000
0100
0010
0001
1000
,
0001
0010
0100
1000
0100
0010
0001
0100
0010
1000
0010
0100
0001
1000
0100
0010
,
0001
1000
0001
0010
0100
1000
0001
0100
0010
1000
0001
0100
0010
1000
0100
0010
,
0001
0100
0010
1000
0001
1000
0010
0100
0001
0010
0100
1000
0100
0010
0001
1000
,
0001
0100
0001
0010
0100
1000
0010
1000
0001
0100
0010
1000
0010
0100
0010
1000
,
0001
0100
0010
0100
0001
1000
0001
0010
0100
1000
0001
1000
0100
0010
0001
1000
,
0001
1000
0100
0010
0001
1000
0001
1000
0001
0010
0100
1000
0001
0100
0010
1000
,
0001
0100
0001
1000
0001
0010
0100
1000
0010
0100
0001
0010
0100
1000
0001
0100
,
0010
0001
0010
0100
1000
0100
0010
0100
1000
0001
0010
0100
1000
0100
0010
0001
,
1000
0001
0010
0100
0010
1000
0001
0100
0010
0100
0001
1000
0100
0010
0001
1000
,
0001
0010
0100
1000
0100
0010
0001
0100
0010
1000
0010
0100
0001
1000
0100
0010
,
0001
1000
0001
0010
0100
1000
0001
0100
0010
1000
0001
0100
0010
1000
0100
0010
,
0001
0100
0010
1000
0001
1000
0010
0100
0001
0010
0100
1000
0100
0010
0001
1000
,
0001
0100
0001
0010
0100
1000
0010
1000
0001
0100
0010
1000
0010
0100
0010
1000
,
0001
0100
0010
0100
0001
1000
0001
0010
0100
1000
0001
1000
0100
0010
0001
1000
,
0001
1000
0100
0010
0001
1000
0001
1000
0001
0010
0100
1000
0001
0100
0010
1000
,
0100
1000
0001
0100
0010
0100
0001
1000
0001
0010
0100
1000
0001
1000
0010
0100
,
0001
1000
0100
1000
0001
0100
0001
0010
0100
1000
0010
0100
0010
1000
0001
0100
,
0010
0100
0001
1000
0100
0010
0001
1000
0001
0010
0100
1000
0100
0010
0001
0100
,
0010
1000
0010
0100
0001
1000
0100
0010
0001
1000
0001
0010
0100
1000
0001
0100
,
0010
1000
0001
0100
0010
1000
0100
0010
0001
0100
0010
1000
0001
1000
0010
0100
,
0001
0010
0100
1000
0100
0010
0001
1000
0001
0100
0001
0010
0100
1000
0010
1000
,
0001
0100
0010
1000
0010
0100
0010
1000
0001
0100
0010
0100
0001
1000
0001
0010
,
0100
1000
0001
1000
0100
0010
0001
1000
0001
1000
0100
0010
0001
1000
0010
1000
,
0001
1000
0001
0100
0010
0100
0001
1000
0001
0010
0100
1000
0001
1000
0010
0100
,
0001
1000
0100
1000
0001
0100
0001
0010
0100
1000
0010
0100
0010
1000
0001
0100
,
0010
0100
0001
1000
0100
0010
0001
1000
0001
0010
0100
1000
0100
0010
0001
0100
,
0010
1000
0010
0100
0001
1000
0100
0010
0001
1000
0001
0010
0100
1000
0001
0100
,
0010
1000
0001
0100
0010
1000
0100
0010
0001
0100
0010
1000
0001
1000
0010
0100
,
0001
0010
0100
1000
0100
0010
0001
1000
0001
0100
0001
0010
0100
1000
0010
1000
,
0001
0000
0000
0100
0000
0000
0010
0000
0000
1000
0000
0000
0010
0000
0000
0100
0000
0000
1000
0000
0000
0100
0000
0000
0010
0000
0000
0001
0000
0000
0010
0000
0000
0100
0000
0000
1000
0000
0000
0001
0000
0000
1000
0000
0001
0000
1000
0000
,
0001
1000
0001
0010
0100
1000
0001
1000
0100
0010
0001
1000
0001
1000
0100
0010
,
0001
1000
0001
0100
0001
0010
0100
1000
0001
0100
0001
1000
0001
0010
0100
1000
,
0001
1000
0010
0100
0001
1000
0100
1000
0001
0100
0001
0010
0100
1000
0010
0100
,
0010
1000
0001
0100
0010
0100
0001
1000
0100
0010
0001
1000
0001
0010
0100
1000
,
0100
0010
0001
0100
0010
1000
0010
0100
0001
1000
0100
0010
0001
1000
0001
0010
,
0100
1000
0001
0100
0010
1000
0001
0100
0010
1000
0100
0010
0001
0100
0010
1000
,
0001
1000
0010
0100
0001
0010
0100
1000
0100
0010
0001
1000
0001
0100
0001
0010
,
0100
1000
0010
1000
0001
0100
0010
1000
0010
0100
0010
1000
0001
0100
0010
0100
,
0001
1000
0001
0010
0100
1000
0001
1000
0100
0010
0001
1000
0001
1000
0100
0010
,
0001
1000
0100
1000
0001
0010
0100
1000
0001
0100
0001
1000
0001
0010
0100
1000
,
0001
1000
0010
0100
0001
1000
0100
1000
0001
0100
0001
0010
0100
1000
0010
0100
,
0010
1000
0001
0100
0010
0100
0001
1000
0100
0010
0001
1000
0001
0010
0100
1000
,
0100
0010
0001
0100
0010
1000
0010
0100
0001
1000
0100
0010
0001
1000
0001
0010
,
0100
1000
0001
0100
0010
1000
0001
0100
0010
1000
0100
0010
0001
0100
0010
1000
,
0001
1000
0010
0100
0001
0010
0100
1000
0100
0010
0001
1000
0001
0100
0001
0010
,
0100
1000
0010
1000
0001
0100
0010
1000
0010
0100
0010
1000
0001
0100
0010
0100
,
0001
1000
0001
0010
0100
1000
0001
1000
0100
0010
0001
1000
0001
1000
0100
0010
,
0001
1000
0001
0100
0010
1000
0001
0010
0100
1000
0010
0100
0001
1000
0010
0100
,
M001
0010
0100
1000
0001
0100
0001
1000
0001
0010
0100
1000
0001
1000
0010
0100
,
0001
1000
0100
1000
0001
0100
0001
0010
0100
1000
0010
0100
0010
1000
0001
0100
,
0010
0100
0001
1000
0100
0010
0001
1000
0001
0010
0100
1000
0100
0010
0001
0100
,
0010
1000
0010
0100
0001
1000
0100
0010
0001
1000
0001
0010
0100
1000
0001
0100
,
0010
1000
0001
0100
0010
1000
0100
0010
0001
0100
0010
1000
0001
1000
0010
0100
,
0001
0010
0100
1000
0100
0010
0001
1000
0001
0100
0001
0010
0100
1000
0010
1000
,
0001
0100
0010
1000
0010
0100
0010
1000
0001
0100
0010
0100
0001
1000
0001
0010
,
0100
1000
0001
1000
0100
0010
0001
1000
0001
1000
0100
0010
0001
1000
0100
1000
,
0M01
0010
0100
1000
0001
0100
0001
1000
0001
0010
0100
1000
0001
1000
0010
0100
,
0001
1000
0100
1000
0001
0100
0001
0010
0100
1000
0010
0100
0010
1000
0001
0100
,
M010
0100
0001
1000
0100
0010
0001
1000
0001
0010
0100
1000
0100
0010
0001
0100
,
0010
1000
0010
0100
0001
1000
0100
0010
0001
1000
0001
0010
0100
1000
0001
0100
,
001M
1000
0001
0100
0010
1000
0100
0010
0001
0100
0010
1000
0001
1000
0010
0100
,
M001
0010
0100
1000
0100
0010
0001
1000
00M1
0100
0001
0010
0100
1000
0010
1000
,
00M1
0100
0010
1000
0010
0100
0010
1000
00M1
0100
0010
0100
00M1
1000
0001
0010
,
010M
0000
1000
0000
0001
0000
1000
0000
0100
0000
0010
0000
0001
0000
1000
0000
00M1
00M0
1000
0000
0100
0000
0010
0000
0M01
0M00
1000
0000
0001
0000
0100
0000
,
M001
0010
0100
1000
0001
0100
0001
1000
0001
0010
0100
1000
0001
1000
0010
0100
,
0001
1000
0100
1000
0001
0100
0001
0010
0100
1000
0010
0100
0010
1000
0001
0100
,
0010
0100
0001
1000
0100
0010
0001
1000
0001
0010
0100
1000
0100
0010
0001
0100
,
0010
1000
0010
0100
0001
1000
0100
0010
0001
1000
0001
0010
0100
1000
0001
0100
,
0010
1000
0001
0100
0010
1000
0100
0010
0001
0100
0010
1000
0001
1000
0010
0100
,
0001
0010
0100
1000
0100
0010
0001
1000
0001
0100
0001
0010
0100
1000
0010
1000
,
0001
0100
0010
1000
0010
0100
0010
1000
0001
0100
0010
0100
0001
1000
0001
0010
,
0100
1000
0001
1000
0100
0010
0001
1000
0001
1000
0100
0010
0001
1000
0100
1000
,
0001
0010
0100
1000
0001
0100
0001
1000
0001
0010
0100
1000
0001
1000
0010
0100
,
0001
1000
0100
1000
0001
0100
0001
0010
0100
1000
0010
0100
0010
1000
0001
0100
,
0010
0100
0001
1000
0100
0010
0001
1000
0001
0010
0100
1000
0100
0010
0001
0100
,
0010
1000
0010
0100
0001
1000
0100
0010
0001
1000
0001
0010
0100
1000
0001
0100
,
0010
1000
0001
0100
0010
1000
0100
0010
0001
0100
0010
1000
0001
1000
0010
0100
,
0001
0010
0100
1000
0100
0010
0001
1000
0001
0100
0001
0010
0100
1000
0010
1000
,
0001
0100
0010
1000
0010
0100
0010
1000
0001
0100
0010
0100
0001
1000
0001
0010
,
0100
1000
0001
1000
0100
0010
0001
1000
0001
1000
0100
0010
0001
1000
0001
0100
,
0001
0010
0100
1000
0001
0100
0001
1000
0001
0010
0100
1000
0001
1000
0010
0100
,
0001
1000
0100
1000
0001
0100
0001
0010
0100
1000
0010
0100
0010
1000
0001
0100
,
0010
0100
0001
1000
0100
0010
0001
1000
0001
0010
0100
1000
0100
0010
0001
0100
,
0010
1000
0010
0100
0001
1000
0100
0010
0001
1000
0001
0010
0100
1000
0001
0100
,
0010
1000
0001
0100
0010
1000
0100
0010
0001
0100
0010
1000
0001
1000
0010
0100
,
0001
0010
0100
1000
0100
0010
0001
1000
0001
0100
0001
0010
0100
1000
0010
1000
,
0001
0100
0010
1000
0010
0100
0010
1000
0001
0100
0010
0100
0001
1000
0001
0010
,
0100
1000
0001
1000
0100
0010
0001
1000
0001
1000
0100
0010
0001
1000
0100
1000
,
0001
0010
0100
1000
0001
0100
0001
1000
0001
0010
0100
1000
0001
1000
0010
0100
,
0001
1000
0100
1000
0001
0100
0001
0010
0100
1000
0010
0100
0010
1000
0001
0100
,
0010
0100
0001
1000
0100
0010
0001
1000
0001
0010
0100
1000
0100
0010
0001
0100
,
0010
1000
0010
0100
0001
1000
0100
0010
0001
1000
0001
0010
0100
1000
0001
0100
,
0010
1000
0001
0100
0010
1000
0100
0010
0001
0100
0010
1000
0001
1000
0010
0100
,
0001
0010
0100
1000
0100
0010
0001
1000
0001
0100
0001
0010
0100
1000
0010
1000
,
0001
0100
0010
1000
0010
0100
0010
1000
0001
0100
0010
0100
0001
1000
0001
0010
,
0100
1000
0001
1000
0100
0010
0001
1000
0001
1000
0100
0010
0001
1000
0001
0100
,
0010
1000
0001
0100
0010
1000
0100
0010
0001
0100
0010
1000
0001
1000
0010
0100
,
0001
0010
0100
1000
0100
0010
0001
1000
0001
0100
0001
0010
0100
1000
0010
1000
,
0001
0100
0010
1000
0010
0100
0010
1000
0001
0100
0010
0100
0001
1000
0001
0010
,
0100
1000
0001
1000
0100
0010
0001
1000
0001
1000
0100
0010
0001
1000
0001
0100
,
20M2
0MM0
0MM0
0MM0
0MM0
0MM0
0MM0
0MM0
0MM0
0MM0
0MM0
0MM0
0MM0
0MM0
0MM0
0MM0
,
0MM0
0MM0
0MM0
0MM0
0MM0
0MM0
0MM0
0MM0
0MM0
0MM0
0MM0
0MM0
0MM0
0MM0
0MM0
0MM0
,
0MM0
0MM0
0MM0
0MM0
0MM0
0MM0
0MM0
0MM0
0MM0
0MM0
0MM0
0MM0
0MM0
0MM0
0MM0
0MM0
,
0MM0
0MM0
0MM0
0MM0
0MM0
0MM0
0MM0
0MM0
0MM0
0MM0
0MM0
0MM0
0MM0
0MM0
0MM0
0MM0
,
3MM3
0000
0000
0000
0M00
0M00
0M00
0M00
MMM0
M0M0
M0M0
0000
0M00
0000
0000
0000
,
M0MM
M0M0
M0M0
M0M0
M0MM
MMMM
MMMM
MMMM
M0MM
M0MM
M0MM
M0MM
M0MM
0000
0000
0000
;

//---------------dance-single - ----------------
#NOTES:
     dance-single:
     :
     Hard:
     13:
     1.000,1.000,1.000,0.011,0.288,1995.000,836.000,3.000,266.000,1.000:

1100
0001
0110
1000
1001
0010
1100
0010
,
0101
1000
0110
0100
1001
0010
1100
0001
,
M11M
1000
0011
0100
1001
0100
1010
0001
,
0110
1000
0101
0010
1001
0100
0110
0001
,
11MM
0001
0110
1000
0011
1000
0101
0010
,
0110
1000
1001
0010
1100
0010
0011
0100
,
1M1M
0001
0110
0010
1MM1
0100
0011
1000
,
M11M
0001
1MM1
0100
1M1M
0100
1MM1
0010
,
M11M
1000
0011
0100
1010
0001
1100
0010
,
0101
0010
0110
1000
1001
0100
0011
0100
,
1M1M
0100
1001
0010
0110
1000
1001
0010
,
1100
0010
0101
0001
1010
1000
0101
0010
,
1MM1
0001
0110
1000
0011
0001
1100
0001
,
0110
0010
1001
0010
0101
0100
1010
0001
,
M11M
1000
0011
0001
1100
0001
0110
0100
,
1001
1000
0011
1000
0110
0001
1010
0001
,
1100
0001
0110
0001
1001
0010
0101
1000
,
0011
1000
0110
0001
1001
0100
0011
1000
,
M11M
0001
1100
0001
0110
0100
1001
0100
,
0011
1000
0110
0001
1010
0100
0011
0100
,
1MM1
0001
0110
0001
1010
0100
1001
0010
,
1100
0001
0110
1000
0011
0100
1001
0010
,
M11M
0001
1010
0100
1001
0010
0110
1000
,
0011
0100
1001
0010
0110
0001
1100
0001
,
1MM1
0100
1010
0001
1100
0010
0101
0010
,
1100
0001
0110
0010
1001
0100
1010
0001
,
0110
1000
0011
1000
0101
0100
1010
0100
,
1001
0001
0110
1000
0011
0100
1001
0001
,
0110
1000
0011
0001
1100
0001
0110
0100
,
1001
0010
1100
0001
0110
1000
0101
1000
,
0110
0001
1010
0100
1001
0010
0110
1000
,
0011
0001
1100
0001
0110
1000
1001
0010
,
MM11
1000
0101
0001
1010
0100
1001
0001
,
0110
1000
0011
0100
1001
0010
0110
0001
,
1M1M
0001
1100
0100
0011
0100
1001
0001
,
0110
1000
0101
0100
1010
0001
0110
0001
,
1MM1
0010
1100
0001
0110
1000
0011
0100
,
1MM1
0001
0110
0001
11MM
0100
0011
1000
,
1MM1
0010
0110
1000
M1M1
0001
1M1M
0001
,
11MM
0010
1MM1
0010
M1M1
1000
M11M
0001
,
1000
0010
1000
0000
0001
0100
0001
0000
1000
0100
0010
0000
0001
0100
0010
0000
,
1000
0001
0100
0000
0010
1000
0001
0000
1000
0100
0010
0000
0001
0010
0100
0000
,
1001
0010
0101
0100
1001
0010
1100
0010
,
0101
1000
0110
0100
1001
0010
1100
0001
,
0110
1000
0011
0100
1001
0100
1010
0001
,
0110
1000
0101
0010
1001
0100
0110
0001
,
1100
0001
0110
1000
0011
1000
0101
0010
,
0110
1000
1001
0010
1100
0010
0011
0100
,
1010
0001
0110
0010
1001
0100
0011
1000
,
0110
0001
1001
0100
1010
0100
1001
0010
,
M11M
1000
0011
0100
1010
0001
1100
0010
,
0101
0010
0110
1000
1001
0100
0011
0100
,
1010
0100
1001
0010
0110
1000
1001
0010
,
1100
0010
0101
0001
1010
1000
0101
0010
,
1001
0001
0110
1000
0011
0001
1100
0001
,
0110
0010
1001
0010
0101
0100
1010
0001
,
0110
1001
0011
0101
1100
0011
0110
0101
,
1001
1010
0011
1100
0110
0101
1010
0101
,
1100
0001
0110
0001
1001
0010
0101
1000
,
0011
1000
0110
0001
1001
0100
0011
1000
,
0110
0001
1100
0001
0110
0100
1001
0100
,
0011
1000
0110
0001
1010
0100
0011
0100
,
1001
0001
0110
0001
1010
0100
1001
0010
,
1100
0001
0110
1000
0011
0100
1001
0010
,
0110
0001
1010
0100
1001
0010
0110
1000
,
0011
0100
1001
0010
0110
0001
1010
0001
,
1100
0100
0011
1000
0101
0001
1010
0010
,
0101
1000
0011
0001
1100
0001
0110
0100
,
1001
0100
0011
0010
1100
0010
0101
0001
,
1010
0010
0101
1000
0011
0001
1100
0001
,
0110
0010
1001
0100
0011
1000
0110
0001
,
1010
0100
1001
0001
0110
1000
0011
1000
,
0110
0010
1001
0010
1100
0001
1010
0001
,
0110
1000
0101
0010
1100
0001
0110
0001
,
1MM1
1000
0001
0010
0100
1000
0100
0010
,
0100
0001
0010
0100
1000
0010
0001
1000
,
0010
1000
0001
0010
0100
1000
0010
0001
,
0100
0001
1000
0001
0100
0010
1000
0100
,
1000
0001
0010
0001
1000
0010
0100
0001
,
1000
0010
0001
1000
0010
0100
0001
1000
,
0001
0010
0100
0001
1000
0010
0100
0001
,
0010
0100
1000
0010
1000
0001
0010
0100
,
1001
0010
1000
0100
0010
0001
0100
0001
,
1000
0100
1000
0010
0100
0001
1000
0010
,
0101
1000
0001
1000
0010
0100
0001
1000
,
0001
0010
0100
1000
0001
0100
0010
1000
,
0101
0010
1000
0001
1000
0010
0100
0001
,
1100
0010
0100
1000
0110
0001
0100
0010
,
1001
0100
0011
1000
0101
0001
1010
0100
,
0001
1000
0010
0000
1001
0000
0010
0000
0110
0000
1000
0000
0011
0000
1000
0000
,
1000
0100
0010
0000
1001
0000
0010
0000
0101
0000
0010
0000
1010
0000
0100
0000
,
0010
0100
0001
0000
1100
0000
0001
0000
0110
0000
1000
0000
0011
0000
0100
0000
,
1000
0001
0010
0000
0101
0000
1000
0000
1010
0000
0100
0000
1001
0000
0010
0000
,
0001
1000
0100
0000
0110
0000
0001
0000
1001
0000
0010
0000
1100
0000
0001
0000
,
0010
0100
0001
0000
1100
0000
0010
0000
0101
0000
1000
0000
1010
0000
0001
0000
,
1000
0010
0100
0000
1001
0000
0100
0000
0011
0000
0100
0000
1100
0000
0010
0000
,
0001
0010
0100
0000
1010
0000
0001
0000
0101
0000
1000
0000
0110
0000
0100
0000
,
1002
0000
0000
1000
,
1103
0001
0110
1000
1001
0010
1100
0010
,
0101
1000
0110
0100
1001
0010
1100
0001
,
0110
1000
0011
0100
1001
0100
1010
0001
,
0110
1000
0101
0010
1001
0100
0110
0001
,
1100
0001
0110
1000
0011
1000
0101
0010
,
0110
1000
1001
0010
1100
0010
0011
0100
,
1010
0001
0110
0010
1001
0100
0011
1000
,
0110
0001
1001
0100
1010
0100
1001
0010
,
0110
1000
0011
0100
1010
0001
1100
0010
,
0101
0010
0110
1000
1001
0100
0011
0100
,
1010
0100
1001
0010
0110
1000
1001
0010
,
1100
0010
0101
0001
1010
1000
0101
0010
,
1001
0001
0110
1000
0011
0001
1100
0001
,
0110
0010
1001
0010
0101
0100
1010
0001
,
0110
1000
0011
0001
1100
0001
0110
0100
,
1001
1000
0011
1000
0110
0001
1010
0001
,
1100
0001
0110
0001
1001
0010
0101
1000
,
0011
1000
0110
0001
1001
0100
0011
1000
,
0110
0001
1100
0001
0110
0100
1001
0100
,
0011
1000
0110
0001
1010
0100
0011
0100
,
1001
0001
0110
0001
1010
0100
1001
0010
,
1100
0001
0110
1000
0011
0100
1001
0010
,
0110
0001
1010
0100
1001
0010
0110
1000
,
0011
0100
1001
0010
0110
0001
1100
0001
,
1001
0100
1010
0001
1100
0010
0101
0010
,
1100
0001
0110
0010
1001
0100
1010
0001
,
0110
1000
0011
1000
0101
0100
1010
0100
,
1001
0001
0110
1000
0011
0100
1001
0001
,
0110
1000
0011
0001
1100
0001
0110
0100
,
1001
0010
1100
0001
0110
1000
0101
1000
,
0110
0001
1010
0100
1001
0010
0110
1000
,
0011
0001
1100
0001
0110
1000
1001
0010
,
0100
1000
0100
0010
0001
0100
0010
1000
0001
0100
0001
0010
0100
1000
0001
1000
,
0010
0100
0001
0010
0100
1000
0010
1000
0001
0100
0001
1000
0100
0010
0001
1000
,
0100
1000
0010
0100
0001
0010
0001
1000
0010
0100
0010
1000
0001
0100
0010
0100
,
0001
0010
0100
1000
0001
0100
0010
0100
0001
1000
0100
0010
0001
1000
0010
0100
,
1001
0010
1100
0001
0110
1000
0011
0100
,
1001
0001
0110
0001
1100
0100
0011
1000
,
1001
0010
0110
1000
0110
0001
1010
0001
,
1100
0010
1001
0010
0101
1000
0110
0001
,
1010
0001
0110
1000
1001
0010
1100
0010
,
0101
1000
0110
0100
1001
0010
1100
0001
,
0110
1000
0011
0100
1001
0100
1010
0001
,
0110
1000
0101
0010
1001
0100
0110
0001
,
1100
0001
0110
1000
0011
1000
0101
0010
,
0110
1000
1001
0010
1100
0010
0011
0100
,
1010
0001
0110
0010
1001
0100
0011
1000
,
0110
0001
1001
0100
1010
0100
1001
0010
,
0110
1000
0011
0100
1010
0001
1100
0010
,
0101
0010
0110
1000
1001
0100
0011
0100
,
1010
0100
1001
0010
0110
1000
1001
0010
,
1100
0010
0101
0001
1010
1000
0101
0010
,
1001
0001
0110
1000
0011
0001
1100
0001
,
0110
0010
1001
0010
0101
0100
1010
0001
,
0110
1000
0011
0001
1100
0001
0110
0100
,
1001
1000
0011
1000
0110
0001
1010
0001
,
1100
0001
0110
0001
1001
0010
0101
1000
,
0011
1000
0110
0001
1001
0100
0011
1000
,
0110
0001
1100
0001
0110
0100
1001
0100
,
0011
1000
0110
0001
1010
0100
0011
0100
,
1001
0001
0110
0001
1010
0100
1001
0010
,
1100
0001
0110
1000
0011
0100
1001
0010
,
0110
0001
1010
0100
1001
0010
0110
1000
,
0011
0100
1001
0010
0110
0001
1100
0001
,
1001
0100
1010
0001
1100
0010
0101
0010
,
1100
0001
0110
0010
1001
0100
1010
0001
,
0110
1000
0011
1000
0101
0100
1010
0100
,
1001
0001
0110
1000
0011
0100
1001
0001
,
0110
1000
0011
0001
1100
0001
0110
0100
,
1001
0010
1100
0001
0110
1000
0101
1000
,
0110
0001
1010
0100
1001
0010
0110
1000
,
0011
0001
1100
0001
0110
1000
1001
0010
,
0110
1000
1001
0010
1100
0010
0101
1000
,
0110
0100
1001
0010
1100
0001
0110
1000
,
0011
0100
1001
0100
1010
0001
0110
1000
,
0101
0010
1001
0100
0110
0001
1100
0001
,
0110
1000
0011
1000
0101
0010
0110
1000
,
1001
0010
1100
0010
0011
0100
1010
0001
,
0110
0010
1001
0100
0011
1000
0110
0001
,
1001
0100
1010
0100
1001
0010
0110
1000
,
0011
0100
1010
0001
1100
0010
0101
0010
,
0110
1000
1001
0100
0011
0100
1010
0100
,
1000
0100
0010
0001
0100
0001
0010
0100
1000
0010
1000
0100
0010
0001
0100
0010
,
1000
0001
0010
0100
1000
0001
1000
0010
0100
0001
0010
0100
1000
0001
0010
0001
,
0100
0010
1000
0100
1000
0010
1000
0001
0100
0010
1000
0100
0010
0001
0010
0100
,
1000
0001
1000
0010
0100
0010
1000
0001
0100
0010
0100
0001
1000
0010
0100
0010
,
1001
0001
1100
0001
0110
0100
1001
1000
,
0011
1000
0110
0001
1010
0001
1100
0001
,
0110
0001
1001
0010
0101
1000
0011
1000
,
0110
0001
1001
0100
0011
1000
0110
0001
,
1100
0001
0110
0100
1001
0100
0011
1000
,
0110
0001
1010
0100
0011
0100
1001
0001
,
0110
0001
1010
0100
1001
0010
1100
0001
,
0110
1000
0011
0100
1001
0010
0110
0001
,
1M1M
0100
1001
0010
0110
1000
0011
0100
,
1001
0010
0110
0001
1100
0001
1001
0100
,
1M1M
0001
1100
0010
0101
0010
1100
0001
,
0110
0010
1001
0100
1010
0001
0110
1000
,
MM11
1000
0101
0100
1010
0100
1001
0001
,
M11M
1000
0011
0100
1MM1
0001
0110
1000
,
MM11
0001
1100
0001
M11M
0100
1MM1
0010
,
11MM
0001
M11M
1000
M1M1
1000
M11M
0001
,
1M1M
0100
1001
0010
0110
1000
0011
0001
,
1100
0001
0110
1000
0101
1000
0110
1000
,
1001
0010
1100
0010
0101
1000
0110
0100
,
1001
0010
1100
0001
0110
1000
0011
0100
,
1001
0100
1010
0001
0110
1000
0101
0010
,
1001
0100
0110
0001
1100
0001
0110
1000
,
0011
1000
0101
0010
0110
1000
1001
0010
,
1100
0010
0011
0100
1010
0001
0110
0010
,
1001
0100
0011
1000
0110
0001
1001
0100
,
1010
0100
1001
0010
0110
1000
0011
0100
,
1010
0001
1100
0010
0101
0010
0110
1000
,
1001
0100
0011
0100
1010
0100
1001
0010
,
0110
1000
1001
0010
1100
0010
0101
0001
,
1010
1000
0101
0010
1001
0001
0110
1000
,
0011
0001
1100
0001
0110
0010
1001
0010
,
0101
0100
1010
0001
0110
1000
0011
0001
,
1100
0001
0110
0100
1001
1000
0011
1000
,
0110
0001
1010
0001
1100
0001
0110
0001
,
1001
0010
0101
1000
0011
1000
0110
0001
,
1001
0100
0011
1000
0110
0001
1100
0001
,
0110
0100
1001
0100
0011
1000
0110
0001
,
1010
0100
0011
0100
1001
0001
0110
0001
,
1010
0100
1001
0010
1100
0001
0110
1000
,
0011
0100
1001
0010
0110
0001
1010
0100
,
1001
0010
0110
1000
0011
0100
1001
0010
,
0110
0001
1100
0001
1001
0100
1010
0001
,
1100
0010
0101
0010
1100
0001
0110
0010
,
1001
0100
1010
0001
0110
1000
0011
1000
,
0101
0100
1010
0100
1001
0001
0110
1000
,
0011
0100
1001
0001
0110
1000
0011
0001
,
1100
0001
0110
0100
1001
0010
1100
0001
,
0110
1000
0101
1000
0110
0001
1010
0100
,
0001
1000
0001
0100
0010
1000
0100
0010
0001
0100
0010
1000
0001
1000
0010
0100
,
0001
0010
0100
1000
0100
0010
0001
1000
0001
0100
0001
0010
0100
1000
0010
1000
,
0001
0100
0010
1000
0010
0100
0010
1000
0001
0100
0010
0100
0001
1000
0001
0010
,
0100
1000
0001
1000
0100
0010
0001
1000
0001
1000
0100
0010
0001
1000
0001
0100
,
20M2
0MM0
0MM0
0MM0
0MM0
0MM0
0MM0
0MM0
0MM0
0MM0
0MM0
0MM0
0MM0
0MM0
0MM0
0MM0
,
0MM0
0MM0
0MM0
0MM0
0MM0
0MM0
0MM0
0MM0
0MM0
0MM0
0MM0
0MM0
0MM0
0MM0
0MM0
0MM0
,
0MM0
0MM0
0MM0
0MM0
0MM0
0MM0
0MM0
0MM0
0MM0
0MM0
0MM0
0MM0
0MM0
0MM0
0MM0
0MM0
,
0MM0
0MM0
0MM0
0MM0
0MM0
0MM0
0MM0
0MM0
0MM0
0MM0
0MM0
0MM0
0MM0
0MM0
0MM0
0MM0
,
3MM3
0000
0000
0000
0M00
0M00
0M00
0M00
MMM0
M0M0
M0M0
0000
0M00
0000
0000
0000
,
M0MM
M0M0
M0M0
M0M0
M0MM
MMMM
MMMM
MMMM
M0MM
M0MM
M0MM
M0MM
M0MM
0000
0000
0000
;
