#TITLE:Live Forever;
#SUBTITLE:if you pass dis u gay srry;
#ARTIST:Magnus Carlsson;
#TITLETRANSLIT:;
#SUBTITLETRANSLIT:;
#ARTISTTRANSLIT:;
#CREDIT:;
#BANNER:live forever - bn.png;
#BACKGROUND:live forever - bg.png;
#LYRICSPATH:;
#CDTITLE:../aCD.png;
#MUSIC:Live Forever.ogg;
#OFFSET:0.009;
#SAMPLESTART:150.260;
#SAMPLELENGTH:12.000;
#SELECTABLE:YES;
#BPMS:0.000=160.000;
#STOPS:;
#BGCHANGES:;
// cache tags:
#FIRSTBEAT:4.000;
#LASTBEAT:480.000;
#SONGFILENAME:Songs/Aoreo's Index Jawn 2/Live Forever - [Aoreo]/Live Forever.sm;
#HASMUSIC:1;
#HASBANNER:1;
#MUSICLENGTH:179.624;
// end cache tags

//---------------dance-single - J. Nero----------------
#NOTES:
     dance-single:
     J. Nero:
     Challenge:
     34:
     1.000,1.000,0.139,0.089,1.000,3097.000,25.000,16.000,0.000,0.000:
0000
0000
0000
0000
,
0001
0100
0001
1000
0010
0100
0010
1000
0001
1000
0100
0010
0001
1000
0001
0100
0010
1000
0001
1000
0100
0010
0001
1000
0001
0100
0010
1000
0010
0100
0001
1000
,
0100
1000
0001
0100
0010
1000
0001
0100
0001
1000
0100
0010
0001
1000
0001
0100
0010
0000
0000
0000
0000
0000
0000
0000
0000
0000
0000
0000
0000
0000
0000
0000
,
1000
0100
1000
0001
0100
0010
1000
0010
0100
0001
1000
0100
0010
0001
1000
0001
1000
0010
0100
0001
0100
0010
1000
0001
0010
0001
1000
0010
0100
0010
1000
0001
,
1000
0100
0010
0001
1000
0010
0100
0010
1000
0001
1000
0100
0010
0001
1000
0001
0100
0000
0000
0000
0000
0000
0000
0000
0000
0000
0000
0000
0000
0000
0000
0000
,
0001
1000
0001
0100
0010
1000
0010
0100
0001
1000
0001
0100
0010
0100
0001
1000
0100
1000
0001
0100
0010
0100
0001
1000
0100
0010
0001
1000
0001
1000
0010
0100
,
0001
1000
0100
1000
0001
0100
0010
1000
0010
0100
0001
0100
0001
1000
0100
0010
0100
1000
0001
1000
0010
0100
0001
1000
0100
0010
0001
1000
0001
0100
0010
1000
,
0010
0100
0001
1000
0001
0010
0100
1000
0001
0100
0001
1000
0010
0100
0010
1000
0001
0010
0001
1000
0100
1000
0001
0100
0010
1000
0010
0100
0001
1000
0001
1000
,
0100
0010
0001
1000
0010
0100
0010
1000
0001
1000
0100
0010
0001
1000
0010
0100
0010
1000
0001
0100
0001
0100
0010
1000
0001
0010
0001
0100
0010
1000
0010
0100
,
0001
1000
0100
0010
0100
1000
0001
1000
0010
0100
0001
1000
0100
1000
0001
0010
0100
1000
0001
0100
0010
1000
0010
0100
0001
0100
0001
1000
0100
0010
0001
1000
,
0001
1000
1100
0100
0010
0001
1001
1000
,
0010
0000
0100
0000
0101
0000
0001
0000
0010
0000
0100
0000
1100
0000
1000
0001
,
0100
0001
0011
0010
0100
1000
1001
0001
,
1000
0000
0010
0000
0110
0000
0100
0000
0001
0000
1000
0000
1100
0000
0100
0010
,
0001
1000
1010
0010
0100
0001
0011
0010
,
0100
1000
1001
0001
0100
0010
1010
1000
,
0100
0000
0000
0010
0000
0000
0011
0000
0000
0001
1000
0001
0010
0100
1000
0001
0100
0010
0100
0001
1000
0100
0010
0001
,
1000
0001
1000
0010
0100
0001
0010
0100
1000
0001
0100
0001
1000
0100
1000
0010
0100
0001
1000
0100
0010
0001
1000
0100
1000
0001
0100
0010
1000
0010
0100
0001
,
1000
0001
0011
0010
0100
1000
1010
0010
,
0100
0000
0000
0000
0001
0000
0000
0000
1001
0000
0000
0000
1000
0000
0000
0000
0100
0000
0000
0000
0010
0000
0000
0000
0011
0000
0000
0000
0001
1000
0001
0010
,
0100
1000
1010
0010
0100
0001
1001
1000
,
0100
0000
0000
0000
0010
0000
0000
0000
0011
0000
0000
0000
0001
0000
0000
0000
1000
0000
0000
0000
0010
0000
0000
0000
0110
0000
0000
0000
0100
0001
1000
0001
,
0010
0100
1100
1000
0010
0100
0101
0001
,
0010
0000
0000
0000
0100
0000
0000
0000
1100
0000
0000
0000
1000
0000
0000
0000
0001
0000
0000
0000
0100
0000
0000
0000
0110
0000
0000
0000
0010
1000
0001
1000
,
0100
0010
0001
1000
0010
0100
0010
1000
0001
0100
0001
1000
0100
1000
0010
0100
0001
0100
0010
1000
0010
0100
0001
1000
0100
0010
0001
0100
0010
1000
0100
0010
,
0001
2000
3200
0320
,
0031
0100
0001
1000
0010
0100
0001
1000
0100
0010
0001
1000
0001
0100
0010
1000
0001
0100
0001
1000
0010
0100
0010
1000
0001
0010
0001
0100
0010
1000
0010
0100
,
0001
1000
0100
0010
0001
0100
0001
1000
0100
0010
0100
1000
0001
0100
0010
1000
0010
0100
0001
0100
0001
1000
0100
1000
0001
0010
0001
0100
0010
1000
0010
0100
,
0001
1000
0001
0100
0010
0100
0001
1000
0100
0010
0100
1000
0001
0100
0010
1000
0010
0100
0001
1000
0100
0010
0100
1000
0001
0100
0010
0100
0001
1000
0001
0010
,
0100
1000
0001
0010
0001
0100
0010
1000
0010
0100
0001
1000
0100
0010
0100
1000
0001
0100
0010
1000
0010
0100
0001
1000
0100
0010
0001
0100
0001
1000
0010
0100
,
0010
1000
0001
0010
0001
0100
0010
1000
0010
0100
0001
1000
0100
0010
0001
0100
0001
1000
0100
0010
0100
1000
0001
0100
0010
1000
0010
0100
0001
1000
0100
0010
,
0001
0100
0001
1000
0100
0010
0100
1000
0010
0100
0001
0010
0001
1000
0100
0010
0001
1000
0010
0100
0010
1000
0001
0100
0001
1000
0010
0100
0010
1000
0001
1000
,
0100
0010
0001
1000
0001
0100
0010
0100
0001
1000
0001
0100
0010
0100
0001
1000
0100
1000
0100
0010
0001
1000
0001
0100
0010
1000
0010
0100
0001
0100
0010
1000
,
0100
1000
0001
0100
0010
1000
0001
0010
0001
0100
0010
1000
0001
1000
0100
0010
0001
0100
0001
1000
0010
0100
0010
1000
0001
0100
0001
0100
0010
1000
0001
0010
,
0001
0100
0010
1000
0010
0100
0001
1000
0100
0010
0001
0100
0001
1000
0100
0010
0100
1000
0001
1000
0010
0100
0010
1000
0001
0100
0001
1000
0010
0100
0010
1000
,
0001
0010
0100
1000
0001
0100
0010
0100
0001
1000
0100
1000
0001
0100
0010
0100
0001
1000
0100
0010
0001
1000
0001
0100
0010
1000
0010
0100
0001
1000
0100
1000
,
0001
0100
0010
1000
0001
1000
0100
0010
0001
1000
0010
0100
0010
1000
0001
0010
0001
0100
0010
1000
0001
1000
0100
0010
0001
0100
0001
1000
0100
0010
0100
1000
,
0001
1000
0010
0100
0001
0100
0010
1000
0001
1000
0100
0010
0001
1000
0001
0100
0010
0100
0001
1000
0001
0100
0010
1000
0001
1000
0100
0010
0100
1000
0001
1000
,
0001
0100
0010
1000
0010
0100
0001
0100
0001
1000
0100
0010
0100
1000
0001
1000
0010
0100
0001
0100
0010
1000
0001
1000
0100
0010
0001
1000
0010
0100
0001
0100
,
0010
1000
0001
1000
0100
0010
0001
1000
0001
0100
0010
1000
0001
0010
0001
0100
0010
1000
0010
0100
0001
1000
0100
1000
0001
0100
0010
1000
0010
0100
0001
1000
,
0100
0010
0100
1000
0001
0100
0010
1000
0001
0100
0010
1000
0001
1000
0100
0010
0001
1000
0001
0100
0010
1000
0010
0100
0001
0100
0001
1000
0100
0010
0100
1000
,
0001
1000
0010
0100
0001
0100
0010
1000
0010
0100
0001
1000
0100
1000
0010
0100
0001
1000
0001
0100
0010
1000
0001
0010
0001
0100
0010
1000
0001
1000
0100
0010
,
0001
0000
2000
3020
0230
0000
0302
0023
,
0000
0000
0000
0000
0230
0000
0000
0000
0000
0000
0000
0000
1300
0000
0000
0000
0001
0000
0000
0000
1000
0000
0000
0000
0010
0000
0000
0000
1000
0001
1000
0100
,
0010
0000
0001
0100
0001
1000
0100
0010
0100
1000
0001
0100
0010
1000
0010
0100
,
0001
1000
0100
1000
0010
0100
0001
0010
0100
1000
0001
0100
0010
0100
0001
1000
,
0100
1000
0100
0010
0001
1000
0001
0100
0001
0010
0001
1000
0010
0100
0001
0100
,
1000
0100
1000
0100
0001
1000
0010
0100
0001
1000
0100
0010
0001
1000
0100
1000
,
0010
0000
0000
0100
0000
0000
0010
0000
0000
1000
0000
0000
0100
0000
0000
0010
0000
0000
0001
0000
1000
0000
0001
0000
0010
0000
0100
0000
1000
0000
0001
0000
0100
0000
0010
0000
0100
0000
0001
0000
1000
0000
0100
0000
0010
0000
0001
0000
,
1000
0001
1000
0100
0010
0001
0100
0010
1000
0010
0100
0001
0010
0001
0100
0010
1000
0100
0010
0001
0100
0001
1000
0100
0010
0100
1000
0010
0100
0001
0100
0010
,
1000
0001
0100
0010
0100
0001
0010
0001
1000
0100
0010
0001
0100
0001
1000
0100
,
0010
0100
1000
0001
0100
0010
0100
0001
1000
0100
0010
0001
0100
0010
1000
0001
,
1000
0100
0010
0001
1000
0100
1000
0010
0100
0010
1000
0001
1000
0001
0010
0100
,
1000
0010
1000
0001
0010
0001
0100
0001
0100
0010
1000
0100
1000
0100
0010
0001
,
1000
0001
0100
0010
0100
0001
1000
0100
0010
0100
1000
0001
1000
0010
0100
0010
,
1000
0001
0010
0100
1000
0001
0100
0010
0100
0001
1000
0100
0010
0001
1000
0010
,
0100
0000
0001
0000
0010
0000
0100
0000
1000
0000
0001
0000
1000
0100
1000
0001
0100
0010
1000
0001
1000
0100
0010
0001
1000
0001
0100
0010
1000
0001
0010
0100
,
1000
0002
0023
0230
,
1300
0001
1000
0010
0100
0001
0100
0001
1000
0100
1000
0001
0100
0010
1000
0010
0100
0001
1000
0001
0010
0100
1000
0001
1000
0010
0100
0001
1000
0010
1000
0001
,
0100
0010
1000
0001
0010
0001
0100
0010
1000
0001
0010
0100
1000
0001
1000
0010
0100
0001
1000
0100
1000
0010
0100
0001
1000
0010
0100
0001
0100
0010
1000
0001
,
0010
0001
0100
0010
1000
0010
0100
0001
1000
0100
0010
0001
1000
0001
0100
0010
1000
0001
0010
0100
0010
0001
1000
0010
0100
0010
1000
0001
0100
0010
1000
0100
,
1000
0001
0100
0010
1000
0010
0100
0001
0010
0100
1000
0001
0100
0010
1000
0001
1000
0010
0100
0010
1000
0001
0010
0100
1000
0001
0100
0010
1000
0001
0100
0010
,
0100
0001
1000
0100
1000
0001
0010
0100
1000
0001
0100
0010
1000
0001
0100
0010
0100
0001
1000
0100
0010
0001
1000
0001
0100
0010
1000
0100
1000
0001
0100
0010
,
1000
0001
0010
0001
0100
0010
1000
0010
0100
0001
1000
0001
0100
0010
1000
0010
0100
0001
1000
0100
1000
0001
0010
0100
1000
0001
0100
0010
1000
0010
0100
0001
,
0100
0010
1000
0001
0010
0001
0100
0010
1000
0010
0100
0001
1000
0100
0010
0001
1000
0001
0100
0010
0100
0001
1000
0100
0010
0001
1000
0010
0100
0001
0100
0010
,
1000
0100
1000
0001
0100
0010
1000
0010
0100
0001
0010
0001
1000
0010
0100
0001
1000
0010
0100
0001
0100
0001
1000
0100
0010
0001
1000
0010
0100
0010
1000
0001
,
0100
0010
1000
0001
1000
0100
0010
0001
1000
0001
0100
0010
1000
0010
0100
0001
1000
0100
0010
0100
1000
0001
1000
0100
0010
0001
0100
0001
1000
0010
0100
0010
,
1000
0001
0100
0001
0100
0010
1000
0001
0010
0001
0100
0010
1000
0010
0100
0001
1000
0100
0010
0001
1000
0001
0100
0010
1000
0010
0100
0001
0010
0001
1000
0010
,
1000
0100
0010
0001
1000
0001
0100
0010
1000
0001
0010
0001
1000
0010
0100
0010
1000
0001
1000
0100
0010
0001
1000
0001
0100
0010
0100
0001
1000
0100
1000
0001
,
0010
0100
1000
0001
0100
0010
1000
0010
0100
0001
1000
0100
1000
0010
0100
0001
0100
0010
1000
0001
1000
0100
0010
0001
1000
0001
0100
0010
0100
0001
1000
0100
,
0010
0100
1000
0001
1000
0010
0100
0001
0100
0010
1000
0001
1000
0100
0010
0001
1000
0001
0100
0010
0100
0001
1000
0100
1000
0001
0100
0010
0100
0001
1000
0001
,
0010
0100
1000
0001
0100
0001
1000
0100
1000
0001
0100
0001
0100
0010
1000
0001
1000
0100
0010
0100
1000
0001
1000
0010
0100
0001
1000
0001
0010
0100
1000
0001
,
0100
0010
1000
0010
0100
0001
1000
0100
1000
0010
0100
0001
1000
0001
0010
0100
1000
0001
0100
0010
1000
0001
0010
0001
0100
0010
1000
0001
1000
0100
0010
0001
,
1000
0001
0100
0010
0100
0001
1000
0100
1000
0001
0100
0010
1000
0010
0100
0001
1000
0001
0010
0100
1000
0001
0100
0010
1000
0001
0100
0001
1000
0100
0010
0001
,
1000
0010
1000
0100
0010
0001
0100
0001
0010
0100
1000
0010
0100
0001
1000
0100
,
0010
0001
1000
0001
0100
0010
0100
0001
1000
0100
0010
0001
0100
0001
1000
0100
1000
0010
0100
0001
1000
0010
0100
0010
1000
0001
0010
0100
1000
0001
0100
0010
,
0100
0001
1000
0100
1000
0010
0100
0001
1000
0001
1000
0100
0010
0001
0100
0001
1000
0010
1000
0001
0100
0010
1000
0001
1000
0100
0010
0001
1000
0001
0100
0010
,
1000
0010
0100
0001
1000
0100
0010
0100
1000
0001
0100
0010
1000
0010
0100
0001
1000
0100
0010
0001
1000
0001
0100
0010
1000
0001
1000
0010
0100
0001
1000
0100
,
0010
0001
1000
0100
1000
0010
0100
0001
1000
0001
0010
0100
1000
0001
0100
0010
0100
0001
1000
0100
0010
0001
0100
0001
1000
0100
0010
0100
1000
0001
0100
0010
,
1000
0010
0100
0001
1000
0100
0010
0001
0100
0001
1000
0010
0100
0010
1000
0001
0010
0001
0100
0010
1000
0010
0100
0001
1000
0100
0010
0001
1000
0001
0100
0010
,
0100
0001
0010
0001
1000
0100
0010
0100
1000
0001
0100
0010
1000
0010
0100
0001
1000
0100
0010
0001
1000
0001
0100
0010
1000
0001
0010
0100
1000
0001
0100
0010
,
0100
0001
1000
0100
1000
0010
0100
0001
1000
0100
0010
0001
0100
0001
1000
0010
0100
0001
0100
0010
1000
0001
0010
0100
0010
0001
1000
0010
0100
0001
0100
0010
,
1000
0001
1000
0100
0010
0001
1000
0010
0100
0010
1000
0001
0010
0100
0010
0001
0100
0010
1000
0001
0100
0010
0100
0001
1000
0001
0010
0100
1000
0001
0100
0010
,
1000
0001
1000
0100
0010
0001
1000
0001
0100
0010
0100
0001
1000
0100
0010
0100
1000
0001
0100
0010
1000
0010
0100
0001
1000
0100
0010
0001
0100
0001
1000
0100
,
0010
0002
0023
0230
,
1300
0001
0010
0001
0100
0010
1000
0001
1000
0100
0010
0001
0100
0001
1000
0100
0010
0100
1000
0010
0100
0001
0010
0001
0100
0010
1000
0100
0010
0001
0100
0001
,
1000
0100
0010
0001
1000
0010
0100
0010
1000
0001
0010
0100
1000
0001
0100
0010
0100
0001
1000
0100
0010
0001
1000
0100
1000
0001
0100
0010
1000
0010
0100
0001
,
1000
0100
0010
0001
1000
0100
1000
0001
0100
0010
0100
0001
1000
0001
0010
0100
1000
0001
0100
0010
0100
0001
1000
0100
0010
0001
0100
0001
1000
0100
0010
0100
,
1000
0001
0100
0010
1000
0010
0100
0001
1000
0100
0010
0001
0100
0001
1000
0100
0010
0100
1000
0001
0100
0010
0100
0001
0010
0001
1000
0100
0010
0001
0100
0001
,
1000
0100
1000
0010
0100
0001
1000
0100
0010
0001
0100
0001
1000
0100
0010
0100
1000
0001
0100
0010
1000
0010
0100
0001
1000
0100
0010
0001
0100
0001
1000
0100
,
0010
0100
1000
0010
0100
0001
1000
0001
0100
0010
1000
0001
0010
0100
1000
0010
0100
0001
1000
0100
0010
0100
1000
0010
0100
0001
1000
0100
1000
0010
0100
0001
,
0010
0100
1000
0010
0100
0001
0010
0001
1000
0100
1000
0001
0100
0010
1000
0010
0100
0001
0100
0001
1000
0100
0010
0001
1000
0001
0100
0010
0100
0001
0010
0100
,
1000
0001
0100
0010
0100
0001
1000
0100
1000
0010
0100
0001
1000
0001
0010
0100
1000
0001
0100
0001
1000
0010
0100
0001
0010
0100
1000
0001
1000
0010
0100
0001
,
1000
0001
0010
0100
1000
0001
0100
0010
0100
0001
1000
0100
1000
0010
0100
0001
1000
0100
0010
0001
0100
0001
1000
0010
0100
0001
0100
0010
1000
0001
1000
0100
,
0010
0100
1000
0001
0100
0010
1000
0010
0100
0001
1000
0100
0010
0001
0100
0001
1000
0100
0010
0100
1000
0001
0100
0010
0100
0001
1000
0100
0010
0001
0100
0001
,
1000
0100
0010
0100
1000
0001
0100
0010
1000
0010
0100
0001
1000
0100
0010
0001
0100
0001
1000
0100
1000
0001
0100
0010
1000
0010
0100
0001
1000
0100
0010
0001
,
1000
0100
1000
0001
0010
0100
0010
0001
0100
0010
1000
0010
0100
0001
1000
0100
0010
0100
1000
0001
0100
0001
0010
0100
1000
0001
0100
0010
0100
0001
1000
0100
,
1000
0001
0100
0010
1000
0010
0100
0001
1000
0100
1000
0010
0100
0010
1000
0001
0010
0100
0010
0001
0100
0010
1000
0010
0100
0001
1000
0100
0010
0001
0100
0001
,
1000
0100
0010
0100
1000
0001
0100
0010
1000
0010
0100
0001
1000
0100
0010
0001
0100
0001
1000
0010
0100
0001
0100
0010
1000
0001
0010
0001
0100
0010
1000
0001
,
1000
0100
0010
0001
1000
0010
1000
0001
0010
0100
0010
0001
0100
0010
1000
0010
0100
0001
1000
0100
0010
0001
1000
0001
0100
0010
0100
0001
1000
0100
0010
0100
,
1000
0001
0100
0010
1000
0001
1000
0100
0010
0001
0100
0001
1000
0100
0010
0100
1000
0001
0100
0010
1000
0010
0100
0001
1000
0100
0010
0001
0100
0001
1000
0010
,
0100
0001
0010
0001
0100
0010
1000
0100
0010
0001
0100
0001
1000
0100
1000
0010
0100
0001
0010
0100
1000
0010
0100
0001
0010
0001
1000
0100
1000
0010
0100
0001
,
1000
0100
0010
0100
1000
0001
0100
0010
1000
0010
0100
0001
1000
0100
0010
0001
0100
0001
1000
0100
1000
0010
0100
0001
1000
0001
0010
0100
1000
0010
0100
0001
,
0100
0010
1000
0100
1000
0001
0010
0100
0010
0001
0100
0010
1000
0100
1000
0001
0100
0010
0100
0001
1000
0001
0010
0100
1000
0010
0100
0001
0100
0010
1000
0100
,
0010
0001
0100
0001
1000
0100
0010
0100
1000
0001
0100
0010
1000
0010
0100
0001
1000
0100
0010
0001
0100
0001
1000
0010
0100
0010
1000
0001
0010
0100
1000
0001
,
0100
0010
0100
0001
1000
0100
0010
0100
1000
0001
0100
0010
1000
0010
0100
0001
1000
0100
0010
0001
0100
0001
1000
0010
0100
0001
0010
0001
0100
0010
1000
0100
,
0010
0001
0100
0010
1000
0100
0010
0001
0100
0001
1000
0010
0100
0010
1000
0001
0010
0001
0100
0010
1000
0010
0100
0001
1000
0100
0010
0001
1000
0001
0100
0010
,
0100
0001
1000
0100
0010
0100
1000
0001
0100
0010
1000
0010
0100
0001
1000
0100
0010
0001
0100
0001
1000
0010
1000
0100
0010
0001
0100
0001
1000
0100
0010
0100
,
1000
0001
0100
0010
1000
0010
0100
0001
1000
0100
0010
0001
0100
0001
1000
0010
0100
0010
1000
0001
0010
0100
0010
0001
0100
0010
1000
0010
0100
0001
1000
0100
,
0010
0001
0100
0001
1000
0100
0010
0100
1000
0001
0100
0010
1000
0001
1000
0100
0010
0001
0100
0001
1000
0100
1000
0001
0100
0010
0100
0001
0010
0100
1000
0010
,
0100
0010
1000
0100
1000
0001
0010
0001
0100
0010
1000
0001
0010
0100
1000
0010
0100
0001
1000
0100
0010
0100
1000
0001
0100
0010
0100
0001
0010
0001
1000
0100
,
0010
0001
0100
0010
0100
0001
1000
0100
0010
0001
0100
0010
1000
0010
0100
0001
0010
0001
1000
0100
1000
0010
0100
0001
0010
0001
1000
0100
0010
0001
0100
0010
,
1000
0001
0010
0100
0010
0001
0100
0010
1000
0010
0100
0001
1000
0100
0010
0001
0100
0001
1000
0010
0100
0010
1000
0001
0100
0001
0100
0010
1000
0001
0010
0100
,
1000
0010
0100
0010
1000
0001
0100
0010
1000
0001
1000
0100
0010
0001
0100
0001
1000
0010
0100
0010
1000
0001
0010
0100
1000
0001
0100
0010
1000
0001
1000
0100
,
0010
0001
0100
0001
1000
0100
1000
0010
0100
0001
1000
0001
0010
0100
1000
0010
0100
0001
0100
0010
1000
0001
0010
0100
0010
0001
0100
0010
1000
0001
1000
0100
,
0010
0001
0100
0001
1000
0100
0010
0100
1000
0001
0100
0010
0100
0001
1000
0010
0100
0010
1000
0100
0010
0001
0100
0001
1000
0100
1000
0010
0100
0001
0010
0100
,
1000
0001
0100
0010
1000
0010
0100
0001
1000
0100
1000
0001
0100
0010
0100
0001
1000
0100
0010
0100
1000
0001
0100
0010
1000
0010
0100
0001
1000
0100
0010
0001
,
0100
0001
1000
0100
1000
0010
0100
0001
1000
0010
1000
0100
0010
0001
0100
0001
1000
0100
0010
0100
1000
0001
0100
0010
1000
0010
0100
0001
0010
0100
1000
0010
,
2000
0000
0000
0000
,
3000
0000
0000
0000
;

//---------------dance-single - J. Nero----------------
#NOTES:
     dance-single:
     J. Nero:
     Hard:
     32:
     1.000,1.000,0.139,0.089,1.000,2825.000,25.000,16.000,0.000,0.000:
0000
0000
0000
0000
,
0001
0100
0001
1000
0010
0100
0010
1000
0001
1000
0100
0010
0001
1000
0001
0100
0010
1000
0001
1000
0100
0010
0001
1000
0001
0100
0010
1000
0010
0100
0001
1000
,
0100
1000
0001
0100
0010
1000
0001
0100
0001
1000
0100
0010
0001
1000
0001
0100
0010
0000
0000
0000
0000
0000
0000
0000
0000
0000
0000
0000
0000
0000
0000
0000
,
1000
0100
1000
0001
0100
0010
1000
0010
0100
0001
1000
0100
0010
0001
1000
0001
1000
0010
0100
0001
0100
0010
1000
0001
0010
0001
1000
0010
0100
0010
1000
0001
,
1000
0100
0010
0001
1000
0010
0100
0010
1000
0001
1000
0100
0010
0001
1000
0001
0100
0000
0000
0000
0000
0000
0000
0000
0000
0000
0000
0000
0000
0000
0000
0000
,
0001
1000
0001
0100
0010
1000
0010
0100
0001
1000
0001
0100
0010
0100
0001
1000
0100
1000
0001
0100
0010
0100
0001
1000
0100
0010
0001
1000
0001
1000
0010
0100
,
0001
1000
0100
1000
0001
0100
0010
1000
0010
0100
0001
0100
0001
1000
0100
0010
0100
1000
0001
1000
0010
0100
0001
1000
0100
0010
0001
1000
0001
0100
0010
1000
,
0010
0100
0001
1000
0001
0010
0100
1000
0001
0100
0001
1000
0010
0100
0010
1000
0001
0010
0001
1000
0100
1000
0001
0100
0010
1000
0010
0100
0001
1000
0001
1000
,
0100
0010
0001
1000
0010
0100
0010
1000
0001
1000
0100
0010
0001
1000
0010
0100
0010
1000
0001
0100
0001
0100
0010
1000
0001
0010
0001
0100
0010
1000
0010
0100
,
0001
1000
0100
0010
0100
1000
0001
1000
0010
0100
0001
1000
0100
1000
0001
0010
0100
1000
0001
0100
0010
1000
0010
0100
0001
0100
0001
1000
0100
0010
0001
1000
,
0001
1000
1100
0100
0010
0001
1001
1000
,
0010
0000
0100
0000
0101
0000
0001
0000
0010
0000
0100
0000
1100
0000
1000
0001
,
0100
0001
0011
0010
0100
1000
1001
0001
,
1000
0000
0010
0000
0110
0000
0100
0000
0001
0000
1000
0000
1100
0000
0100
0010
,
0001
1000
1010
0010
0100
0001
0011
0010
,
0100
1000
1001
0001
0100
0010
1010
1000
,
0100
0000
0000
0010
0000
0000
0011
0000
0000
0001
1000
0001
0010
0100
1000
0001
0100
0010
0100
0001
1000
0100
0010
0001
,
1000
0001
1000
0010
0100
0001
0010
0100
1000
0001
0100
0001
1000
0100
1000
0010
0100
0001
1000
0100
0010
0001
1000
0100
1000
0001
0100
0010
1000
0010
0100
0001
,
1000
0001
0011
0010
0100
1000
1010
0010
,
0100
0000
0000
0000
0001
0000
0000
0000
1001
0000
0000
0000
1000
0000
0000
0000
0100
0000
0000
0000
0010
0000
0000
0000
0011
0000
0000
0000
0001
1000
0001
0010
,
0100
1000
1010
0010
0100
0001
1001
1000
,
0100
0000
0000
0000
0010
0000
0000
0000
0011
0000
0000
0000
0001
0000
0000
0000
1000
0000
0000
0000
0010
0000
0000
0000
0110
0000
0000
0000
0100
0001
1000
0001
,
0010
0100
1100
1000
0010
0100
0101
0001
,
0010
0000
0000
0000
0100
0000
0000
0000
1100
0000
0000
0000
1000
0000
0000
0000
0001
0000
0000
0000
0100
0000
0000
0000
0110
0000
0000
0000
0010
1000
0001
1000
,
0100
0010
0001
1000
0010
0100
0010
1000
0001
0100
0001
1000
0100
1000
0010
0100
0001
0100
0010
1000
0010
0100
0001
1000
0100
0010
0001
0100
0010
1000
0100
0010
,
0001
2000
3200
0320
,
0031
0100
0001
1000
0010
0100
0001
1000
0100
0010
0001
1000
0001
0100
0010
1000
0001
0100
0001
1000
0010
0100
0010
1000
0001
0010
0001
0100
0010
1000
0010
0100
,
0001
1000
0100
0010
0001
0100
0001
1000
0100
0010
0100
1000
0001
0100
0010
1000
0010
0100
0001
0100
0001
1000
0100
1000
0001
0010
0001
0100
0010
1000
0010
0100
,
0001
1000
0001
0100
0010
0100
0001
1000
0100
0010
0100
1000
0001
0100
0010
1000
0010
0100
0001
1000
0100
0010
0100
1000
0001
0100
0010
0100
0001
1000
0001
0010
,
0100
1000
0001
0010
0001
0100
0010
1000
0010
0100
0001
1000
0100
0010
0100
1000
0001
0100
0010
1000
0010
0100
0001
1000
0100
0010
0001
0100
0001
1000
0010
0100
,
0010
1000
0001
0010
0001
0100
0010
1000
0010
0100
0001
1000
0100
0010
0001
0100
0001
1000
0100
0010
0100
1000
0001
0100
0010
1000
0010
0100
0001
1000
0100
0010
,
0001
0100
0001
1000
0100
0010
0100
1000
0010
0100
0001
0010
0001
1000
0100
0010
0001
1000
0010
0100
0010
1000
0001
0100
0001
1000
0010
0100
0010
1000
0001
1000
,
0100
0010
0001
1000
0001
0100
0010
0100
0001
1000
0001
0100
0010
0100
0001
1000
0100
1000
0100
0010
0001
1000
0001
0100
0010
1000
0010
0100
0001
0100
0010
1000
,
0100
1000
0001
0100
0010
1000
0001
0010
0001
0100
0010
1000
0001
1000
0100
0010
0001
0100
0001
1000
0010
0100
0010
1000
0001
0100
0001
0100
0010
1000
0001
0010
,
0001
0100
0010
1000
0010
0100
0001
1000
0100
0010
0001
0100
0001
1000
0100
0010
0100
1000
0001
1000
0010
0100
0010
1000
0001
0100
0001
1000
0010
0100
0010
1000
,
0001
0010
0100
1000
0001
0100
0010
0100
0001
1000
0100
1000
0001
0100
0010
0100
0001
1000
0100
0010
0001
1000
0001
0100
0010
1000
0010
0100
0001
1000
0100
1000
,
0001
0100
0010
1000
0001
1000
0100
0010
0001
1000
0010
0100
0010
1000
0001
0010
0001
0100
0010
1000
0001
1000
0100
0010
0001
0100
0001
1000
0100
0010
0100
1000
,
0001
1000
0010
0100
0001
0100
0010
1000
0001
1000
0100
0010
0001
1000
0001
0100
0010
0100
0001
1000
0001
0100
0010
1000
0001
1000
0100
0010
0100
1000
0001
1000
,
0001
0100
0010
1000
0010
0100
0001
0100
0001
1000
0100
0010
0100
1000
0001
1000
0010
0100
0001
0100
0010
1000
0001
1000
0100
0010
0001
1000
0010
0100
0001
0100
,
0010
1000
0001
1000
0100
0010
0001
1000
0001
0100
0010
1000
0001
0010
0001
0100
0010
1000
0010
0100
0001
1000
0100
1000
0001
0100
0010
1000
0010
0100
0001
1000
,
0100
0010
0100
1000
0001
0100
0010
1000
0001
0100
0010
1000
0001
1000
0100
0010
0001
1000
0001
0100
0010
1000
0010
0100
0001
0100
0001
1000
0100
0010
0100
1000
,
0001
1000
0010
0100
0001
0100
0010
1000
0010
0100
0001
1000
0100
1000
0010
0100
0001
1000
0001
0100
0010
1000
0001
0010
0001
0100
0010
1000
0001
1000
0100
0010
,
0001
0000
2000
3020
0230
0000
0302
0023
,
0000
0000
0000
0000
0230
0000
0000
0000
0000
0000
0000
0000
1300
0000
0000
0000
0001
0000
0000
0000
1000
0000
0000
0000
0010
0000
0000
0000
1000
0001
1000
0100
,
0010
0000
0001
0100
0001
1000
0100
0010
0100
1000
0001
0100
0010
1000
0010
0100
,
0001
1000
0100
1000
0010
0100
0001
0010
0100
1000
0001
0100
0010
0100
0001
1000
,
0100
1000
0100
0010
0001
1000
0001
0100
0001
0010
0001
1000
0010
0100
0001
0100
,
1000
0100
1000
0100
0001
1000
0010
0100
0001
1000
0100
0010
0001
1000
0100
1000
,
0010
0000
0000
0100
0000
0000
0010
0000
0000
1000
0000
0000
0100
0000
0000
0010
0000
0000
0001
0000
1000
0000
0001
0000
0010
0000
0100
0000
1000
0000
0001
0000
0100
0000
0010
0000
0100
0000
0001
0000
1000
0000
0100
0000
0010
0000
0001
0000
,
1000
0001
1000
0100
0010
0001
0100
0010
1000
0010
0100
0001
0010
0001
0100
0010
1000
0100
0010
0001
0100
0001
1000
0100
0010
0100
1000
0010
0100
0001
0100
0010
,
1000
0001
0100
0010
0100
0001
0010
0001
1000
0100
0010
0001
0100
0001
1000
0100
,
0010
0100
1000
0001
0100
0010
0100
0001
1000
0100
0010
0001
0100
0010
1000
0001
,
1000
0100
0010
0001
1000
0100
1000
0010
0100
0010
1000
0001
1000
0001
0010
0100
,
1000
0010
1000
0001
0010
0001
0100
0001
0100
0010
1000
0100
1000
0100
0010
0001
,
1000
0001
0100
0010
0100
0001
1000
0100
0010
0100
1000
0001
1000
0010
0100
0010
,
1000
0001
0010
0100
1000
0001
0100
0010
0100
0001
1000
0100
0010
0001
1000
0010
,
0100
0000
0001
0000
0010
0000
0100
0000
1000
0000
0001
0000
1000
0100
1000
0001
0100
0010
1000
0001
1000
0100
0010
0001
1000
0001
0100
0010
1000
0001
0010
0100
,
1000
0002
0023
0230
,
1300
0001
1000
0010
0100
0001
0100
0001
1000
0100
1000
0001
0100
0010
1000
0010
0100
0001
1000
0001
0010
0100
1000
0001
1000
0010
0100
0001
1000
0010
1000
0001
,
0100
0010
1000
0001
0010
0001
0100
0010
1000
0001
0010
0100
1000
0001
1000
0010
0100
0001
1000
0100
1000
0010
0100
0001
1000
0010
0100
0001
0100
0010
1000
0001
,
0010
0001
0100
0010
1000
0010
0100
0001
1000
0100
0010
0001
1000
0001
0100
0010
1000
0001
0010
0100
0010
0001
1000
0010
0100
0010
1000
0001
0100
0010
1000
0100
,
1000
0001
0100
0010
1000
0010
0100
0001
0010
0100
1000
0001
0100
0010
1000
0001
1000
0010
0100
0010
1000
0001
0010
0100
1000
0001
0100
0010
1000
0001
0100
0010
,
0100
0001
1000
0100
1000
0001
0010
0100
1000
0001
0100
0010
1000
0001
0100
0010
0100
0001
1000
0100
0010
0001
1000
0001
0100
0010
1000
0100
1000
0001
0100
0010
,
1000
0001
0010
0001
0100
0010
1000
0010
0100
0001
1000
0001
0100
0010
1000
0010
0100
0001
1000
0100
1000
0001
0010
0100
1000
0001
0100
0010
1000
0010
0100
0001
,
0100
0010
1000
0001
0010
0001
0100
0010
1000
0010
0100
0001
1000
0100
0010
0001
1000
0001
0100
0010
0100
0001
1000
0100
0010
0001
1000
0010
0100
0001
0100
0010
,
1000
0100
1000
0001
0100
0010
1000
0010
0100
0001
0010
0001
1000
0010
0100
0001
1000
0010
0100
0001
0100
0001
1000
0100
0010
0001
1000
0010
0100
0010
1000
0001
,
0100
0010
1000
0001
1000
0100
0010
0001
1000
0001
0100
0010
1000
0010
0100
0001
1000
0100
0010
0100
1000
0001
1000
0100
0010
0001
0100
0001
1000
0010
0100
0010
,
1000
0001
0100
0001
0100
0010
1000
0001
0010
0001
0100
0010
1000
0010
0100
0001
1000
0100
0010
0001
1000
0001
0100
0010
1000
0010
0100
0001
0010
0001
1000
0010
,
1000
0100
0010
0001
1000
0001
0100
0010
1000
0001
0010
0001
1000
0010
0100
0010
1000
0001
1000
0100
0010
0001
1000
0001
0100
0010
0100
0001
1000
0100
1000
0001
,
0010
0100
1000
0001
0100
0010
1000
0010
0100
0001
1000
0100
1000
0010
0100
0001
0100
0010
1000
0001
1000
0100
0010
0001
1000
0001
0100
0010
0100
0001
1000
0100
,
0010
0100
1000
0001
1000
0010
0100
0001
0100
0010
1000
0001
1000
0100
0010
0001
1000
0001
0100
0010
0100
0001
1000
0100
1000
0001
0100
0010
0100
0001
1000
0001
,
0010
0100
1000
0001
0100
0001
1000
0100
1000
0001
0100
0001
0100
0010
1000
0001
1000
0100
0010
0100
1000
0001
1000
0010
0100
0001
1000
0001
0010
0100
1000
0001
,
0100
0010
1000
0010
0100
0001
1000
0100
1000
0010
0100
0001
1000
0001
0010
0100
1000
0001
0100
0010
1000
0001
0010
0001
0100
0010
1000
0001
1000
0100
0010
0001
,
1000
0001
0100
0010
0100
0001
1000
0100
1000
0001
0100
0010
1000
0010
0100
0001
1000
0001
0010
0100
1000
0001
0100
0010
1000
0001
0100
0001
1000
0100
0010
0001
,
1000
0010
1000
0100
0010
0001
0100
0001
0010
0100
1000
0010
0100
0001
1000
0100
,
0010
0001
0010
0001
0010
0100
0010
0100
1000
0001
1000
0001
1000
0001
1000
0001
,
1000
0001
1000
0001
1000
0001
1000
0001
1000
0001
1000
0001
1000
0001
1000
0001
,
1000
0001
1000
0001
1000
0001
1000
0001
1000
0001
1000
0001
1000
0001
1000
0001
,
1000
0001
1000
0001
1000
0001
1000
0001
1000
0001
1000
0001
0010
0100
0010
0100
,
1000
0001
1000
0001
1000
0100
0010
0001
0100
0001
0100
0001
0100
0001
0100
0001
,
0100
0001
0100
0001
0100
0001
0100
0001
0100
0001
0100
0001
0100
0001
0100
0001
,
0100
0001
0100
0001
0100
0001
0100
0001
0100
0001
0100
0001
0100
0001
0100
0001
,
0100
0001
0100
0001
0100
0001
0100
0001
0100
0001
0100
0001
0100
0001
0100
0001
,
0100
0010
1000
0100
0010
0001
0100
0001
0010
0100
1000
0010
0100
0001
1000
0100
,
0010
0002
0023
0230
,
1300
0001
0010
0001
0100
0010
1000
0001
1000
0100
0010
0001
0100
0001
1000
0100
0010
0100
1000
0010
0100
0001
0010
0001
0100
0010
1000
0100
0010
0001
0100
0001
,
1000
0100
0010
0001
1000
0010
0100
0010
1000
0001
0010
0100
1000
0001
0100
0010
0100
0001
1000
0100
0010
0001
1000
0100
1000
0001
0100
0010
1000
0010
0100
0001
,
1000
0100
0010
0001
1000
0100
1000
0001
0100
0010
0100
0001
1000
0001
0010
0100
1000
0001
0100
0010
0100
0001
1000
0100
0010
0001
0100
0001
1000
0100
0010
0100
,
1000
0001
0100
0010
1000
0010
0100
0001
1000
0100
0010
0001
0100
0001
1000
0100
0010
0100
1000
0001
0100
0010
0100
0001
0010
0001
1000
0100
0010
0001
0100
0001
,
1000
0100
1000
0010
0100
0001
1000
0100
0010
0001
0100
0001
1000
0100
0010
0100
1000
0001
0100
0010
1000
0010
0100
0001
1000
0100
0010
0001
0100
0001
1000
0100
,
0010
0100
1000
0010
0100
0001
1000
0001
0100
0010
1000
0001
0010
0100
1000
0010
0100
0001
1000
0100
0010
0100
1000
0010
0100
0001
1000
0100
1000
0010
0100
0001
,
0010
0100
1000
0010
0100
0001
0010
0001
1000
0100
1000
0001
0100
0010
1000
0010
0100
0001
0100
0001
1000
0100
0010
0001
1000
0001
0100
0010
0100
0001
0010
0100
,
1000
0001
0100
0010
0100
0001
1000
0100
1000
0010
0100
0001
1000
0001
0010
0100
1000
0001
0100
0001
1000
0010
0100
0001
0010
0100
1000
0001
1000
0010
0100
0001
,
1000
0001
0010
0100
1000
0001
0100
0010
0100
0001
1000
0100
1000
0010
0100
0001
1000
0100
0010
0001
0100
0001
1000
0010
0100
0001
0100
0010
1000
0001
1000
0100
,
0010
0100
1000
0001
0100
0010
1000
0010
0100
0001
1000
0100
0010
0001
0100
0001
1000
0100
0010
0100
1000
0001
0100
0010
0100
0001
1000
0100
0010
0001
0100
0001
,
1000
0100
0010
0100
1000
0001
0100
0010
1000
0010
0100
0001
1000
0100
0010
0001
0100
0001
1000
0100
1000
0001
0100
0010
1000
0010
0100
0001
1000
0100
0010
0001
,
1000
0100
1000
0001
0010
0100
0010
0001
0100
0010
1000
0010
0100
0001
1000
0100
0010
0100
1000
0001
0100
0001
0010
0100
1000
0001
0100
0010
0100
0001
1000
0100
,
1000
0001
0100
0010
1000
0010
0100
0001
1000
0100
1000
0010
0100
0010
1000
0001
0010
0100
0010
0001
0100
0010
1000
0010
0100
0001
1000
0100
0010
0001
0100
0001
,
1000
0100
0010
0100
1000
0001
0100
0010
1000
0010
0100
0001
1000
0100
0010
0001
0100
0001
1000
0010
0100
0001
0100
0010
1000
0001
0010
0001
0100
0010
1000
0001
,
1000
0100
0010
0001
1000
0010
1000
0001
0010
0100
0010
0001
0100
0010
1000
0010
0100
0001
1000
0100
0010
0001
1000
0001
0100
0010
0100
0001
1000
0100
0010
0100
,
1000
0001
0100
0010
1000
0001
1000
0100
0010
0001
0100
0001
1000
0100
0010
0100
1000
0001
0100
0010
1000
0010
0100
0001
1000
0100
0010
0001
0100
0001
1000
0010
,
0100
0001
0100
0001
0100
0001
0100
0010
1000
0100
1000
0100
1000
0100
0010
0001
,
1000
0001
1000
0001
1000
0001
1000
0001
1000
0001
1000
0001
1000
0001
0010
0100
,
1000
0100
1000
0100
1000
0100
1000
0100
0010
0100
0010
0100
0010
0100
0010
0100
,
1000
0001
1000
0001
1000
0001
1000
0001
1000
0001
1000
0001
1000
0001
1000
0001
,
0010
0100
0010
0100
0010
0100
0010
0100
1000
0010
1000
0010
1000
0010
1000
0010
,
0100
0001
0100
0001
0100
0001
0100
0001
0100
0001
0100
0001
0010
0100
0010
0100
,
1000
0001
1000
0001
1000
0001
1000
0001
0100
0001
0100
0001
0100
0001
0100
0010
,
0100
0010
0100
0010
1000
0100
1000
0100
0010
0100
0010
0001
0010
0001
1000
0001
,
1000
0001
0100
0001
1000
0100
0010
0100
1000
0001
0100
0010
1000
0001
1000
0100
0010
0001
0100
0001
1000
0100
1000
0001
0100
0010
0100
0001
0010
0100
1000
0010
,
0100
0010
1000
0100
1000
0001
0010
0001
0100
0010
1000
0001
0010
0100
1000
0010
0100
0001
1000
0100
0010
0100
1000
0001
0100
0010
0100
0001
0010
0001
1000
0100
,
0010
0001
0100
0010
0100
0001
1000
0100
0010
0001
0100
0010
1000
0010
0100
0001
0010
0001
1000
0100
1000
0010
0100
0001
0010
0001
1000
0100
0010
0001
0100
0010
,
1000
0001
0010
0100
0010
0001
0100
0010
1000
0010
0100
0001
1000
0100
0010
0001
0100
0001
1000
0010
0100
0010
1000
0001
0100
0001
0100
0010
1000
0001
0010
0100
,
1000
0010
0100
0010
1000
0001
0100
0010
1000
0001
1000
0100
0010
0001
0100
0001
1000
0010
0100
0010
1000
0001
0010
0100
1000
0001
0100
0010
1000
0001
1000
0100
,
0010
0001
0100
0001
1000
0100
1000
0010
0100
0001
1000
0001
0010
0100
1000
0010
0100
0001
0100
0010
1000
0001
0010
0100
0010
0001
0100
0010
1000
0001
1000
0100
,
0010
0001
0100
0001
1000
0100
0010
0100
1000
0001
0100
0010
0100
0001
1000
0010
0100
0010
1000
0100
0010
0001
0100
0001
1000
0100
1000
0010
0100
0001
0010
0100
,
1000
0001
0100
0010
1000
0010
0100
0001
1000
0100
1000
0001
0100
0010
0100
0001
1000
0100
0010
0100
1000
0001
0100
0010
1000
0010
0100
0001
1000
0100
0010
0001
,
0100
0001
1000
0100
1000
0010
0100
0001
1000
0010
1000
0100
0010
0001
0100
0001
1000
0100
0010
0100
1000
0001
0100
0010
1000
0010
0100
0001
0010
0100
1000
0010
,
2000
0000
0000
0000
,
3000
0000
0000
0000
;

//---------------dance-single - J. Nero----------------
#NOTES:
     dance-single:
     J. Nero:
     Medium:
     30:
     1.000,1.000,0.139,0.089,1.000,2641.000,25.000,16.000,0.000,0.000:
0000
0000
0000
0000
,
0001
0100
0001
1000
0010
0100
0010
1000
0001
1000
0100
0010
0001
1000
0001
0100
0010
1000
0001
1000
0100
0010
0001
1000
0001
0100
0010
1000
0010
0100
0001
1000
,
0100
1000
0001
0100
0010
1000
0001
0100
0001
1000
0100
0010
0001
1000
0001
0100
0010
0000
0000
0000
0000
0000
0000
0000
0000
0000
0000
0000
0000
0000
0000
0000
,
1000
0100
1000
0001
0100
0010
1000
0010
0100
0001
1000
0100
0010
0001
1000
0001
1000
0010
0100
0001
0100
0010
1000
0001
0010
0001
1000
0010
0100
0010
1000
0001
,
1000
0100
0010
0001
1000
0010
0100
0010
1000
0001
1000
0100
0010
0001
1000
0001
0100
0000
0000
0000
0000
0000
0000
0000
0000
0000
0000
0000
0000
0000
0000
0000
,
0001
1000
0001
0100
0010
1000
0010
0100
0001
1000
0001
0100
0010
0100
0001
1000
0100
1000
0001
0100
0010
0100
0001
1000
0100
0010
0001
1000
0001
1000
0010
0100
,
0001
1000
0100
1000
0001
0100
0010
1000
0010
0100
0001
0100
0001
1000
0100
0010
0100
1000
0001
1000
0010
0100
0001
1000
0100
0010
0001
1000
0001
0100
0010
1000
,
0010
0100
0001
1000
0001
0010
0100
1000
0001
0100
0001
1000
0010
0100
0010
1000
0001
0010
0001
1000
0100
1000
0001
0100
0010
1000
0010
0100
0001
1000
0001
1000
,
0100
0010
0001
1000
0010
0100
0010
1000
0001
1000
0100
0010
0001
1000
0010
0100
0010
1000
0001
0100
0001
0100
0010
1000
0001
0010
0001
0100
0010
1000
0010
0100
,
0001
1000
0100
0010
0100
1000
0001
1000
0010
0100
0001
1000
0100
1000
0001
0010
0100
1000
0001
0100
0010
1000
0010
0100
0001
0100
0001
1000
0100
0010
0001
1000
,
0001
1000
1100
0100
0010
0001
1001
1000
,
0010
0000
0100
0000
0101
0000
0001
0000
0010
0000
0100
0000
1100
0000
1000
0001
,
0100
0001
0011
0010
0100
1000
1001
0001
,
1000
0000
0010
0000
0110
0000
0100
0000
0001
0000
1000
0000
1100
0000
0100
0010
,
0001
1000
1010
0010
0100
0001
0011
0010
,
0100
1000
1001
0001
0100
0010
1010
1000
,
0100
0000
0000
0010
0000
0000
0011
0000
0000
0001
1000
0001
0010
0100
1000
0001
0100
0010
0100
0001
1000
0100
0010
0001
,
1000
0001
1000
0010
0100
0001
0010
0100
1000
0001
0100
0001
1000
0100
1000
0010
0100
0001
1000
0100
0010
0001
1000
0100
1000
0001
0100
0010
1000
0010
0100
0001
,
1000
0001
0011
0010
0100
1000
1010
0010
,
0100
0000
0000
0000
0001
0000
0000
0000
1001
0000
0000
0000
1000
0000
0000
0000
0100
0000
0000
0000
0010
0000
0000
0000
0011
0000
0000
0000
0001
1000
0001
0010
,
0100
1000
1010
0010
0100
0001
1001
1000
,
0100
0000
0000
0000
0010
0000
0000
0000
0011
0000
0000
0000
0001
0000
0000
0000
1000
0000
0000
0000
0010
0000
0000
0000
0110
0000
0000
0000
0100
0001
1000
0001
,
0010
0100
1100
1000
0010
0100
0101
0001
,
0010
0000
0000
0000
0100
0000
0000
0000
1100
0000
0000
0000
1000
0000
0000
0000
0001
0000
0000
0000
0100
0000
0000
0000
0110
0000
0000
0000
0010
1000
0001
1000
,
0100
0010
0001
1000
0010
0100
0010
1000
0001
0100
0001
1000
0100
1000
0010
0100
0001
0100
0010
1000
0010
0100
0001
1000
0100
0010
0001
0100
0010
1000
0100
0010
,
0001
2000
3200
0320
,
0031
0100
0001
1000
0100
0010
0001
0100
0001
1000
0100
0010
0100
1000
0010
0100
0001
1000
0100
1000
0010
0100
0001
0010
,
0100
1000
0001
1000
0010
0100
0010
1000
0001
1000
0100
0010
0001
0100
0001
1000
0010
0100
0010
1000
0001
1000
0100
0010
,
0001
0100
0001
1000
0100
0010
0100
1000
0001
1000
0010
0100
0010
1000
0001
1000
0100
0010
0001
1000
0001
0100
0010
0100
,
0001
1000
0100
0010
0100
1000
0001
0100
0010
1000
0010
0100
0001
1000
0100
0010
0001
1000
0001
0100
0010
0100
0001
1000
,
0001
0010
0100
1000
0001
0100
0010
0100
0001
1000
0100
1000
0100
0010
0001
1000
0001
0100
0010
0100
0001
1000
0001
0010
,
0100
1000
0001
0100
0010
1000
0010
0100
0001
1000
0100
1000
0010
0100
0010
1000
0001
0010
0100
1000
0010
0100
0001
1000
,
0100
0010
0001
1000
0001
0100
0010
0100
0001
1000
0100
0010
0100
1000
0001
1000
0010
0100
0001
1000
0100
1000
0001
0100
,
0010
1000
0010
0100
0001
1000
0100
0010
0100
1000
0001
0100
0010
0100
0001
1000
0100
0010
0100
1000
0001
0100
0010
1000
,
0010
0100
0001
1000
0100
1000
0010
0100
0001
0010
0100
1000
0001
0100
0001
0010
0100
1000
0010
0100
0001
1000
0100
1000
,
0001
0010
0001
0100
0010
1000
0010
0100
0001
1000
0100
0010
0001
1000
0100
1000
0010
0100
0001
1000
0001
0010
0100
1000
,
0001
0100
0010
1000
0010
0100
0001
1000
0100
1000
0001
0010
0100
1000
0001
1000
0010
0100
0001
1000
0100
1000
0010
0100
,
0001
1000
0001
0010
0100
1000
0001
0100
0010
0100
0001
1000
0100
1000
0010
0100
0001
0010
0100
1000
0010
0100
0001
1000
,
0100
1000
0001
0100
0010
1000
0010
0100
0001
1000
0001
0010
0100
1000
0001
1000
0010
0100
0001
1000
0100
1000
0010
0100
,
0001
1000
0001
0100
0010
1000
0001
0010
0001
0100
0010
1000
0100
0010
0001
1000
0001
0010
0100
1000
0001
0100
0010
1000
,
0100
1000
0001
0010
0100
0010
0001
0100
0010
1000
0010
0100
0001
1000
0100
1000
0010
0100
0001
1000
0100
0010
0100
1000
,
0001
0010
0001
0100
0010
1000
0010
0100
0001
1000
0100
0010
0001
0100
0010
0100
0001
0010
0100
1000
0001
0100
0010
1000
,
0001
0000
2000
3020
0230
0000
0302
0023
,
0000
0000
0000
0000
0230
0000
0000
0000
0000
0000
0000
0000
1300
0000
0000
0000
0001
0000
0000
0000
1000
0000
0000
0000
0010
0000
0000
0000
1000
0001
1000
0100
,
0010
0000
0001
0100
0001
1000
0100
0010
0100
1000
0001
0100
0010
1000
0010
0100
,
0001
1000
0100
1000
0010
0100
0001
0010
0100
1000
0001
0100
0010
0100
0001
1000
,
0100
1000
0100
0010
0001
1000
0001
0100
0001
0010
0001
1000
0010
0100
0001
0100
,
1000
0100
1000
0100
0001
1000
0010
0100
0001
1000
0100
0010
0001
1000
0100
1000
,
0010
0000
0000
0100
0000
0000
0010
0000
0000
1000
0000
0000
0100
0000
0000
0010
0000
0000
0001
0000
1000
0000
0001
0000
0010
0000
0100
0000
1000
0000
0001
0000
0100
0000
0010
0000
0100
0000
0001
0000
1000
0000
0100
0000
0010
0000
0001
0000
,
1000
0001
1000
0100
0010
0001
0100
0010
1000
0010
0100
0001
0010
0001
0100
0010
1000
0100
0010
0001
0100
0001
1000
0100
0010
0100
1000
0010
0100
0001
0100
0010
,
1000
0001
0100
0010
0100
0001
0010
0001
1000
0100
0010
0001
0100
0001
1000
0100
,
0010
0100
1000
0001
0100
0010
0100
0001
1000
0100
0010
0001
0100
0010
1000
0001
,
1000
0100
0010
0001
1000
0100
1000
0010
0100
0010
1000
0001
1000
0001
0010
0100
,
1000
0010
1000
0001
0010
0001
0100
0001
0100
0010
1000
0100
1000
0100
0010
0001
,
1000
0001
0100
0010
0100
0001
1000
0100
0010
0100
1000
0001
1000
0010
0100
0010
,
1000
0001
0010
0100
1000
0001
0100
0010
0100
0001
1000
0100
0010
0001
1000
0010
,
0100
0000
0001
0000
0010
0000
0100
0000
1000
0000
0001
0000
1000
0100
1000
0001
0100
0010
1000
0001
1000
0100
0010
0001
1000
0001
0100
0010
1000
0001
0010
0100
,
1000
0002
0023
0230
,
1300
0010
1000
0001
0010
0100
1000
0010
1000
0001
0010
0100
0010
0001
0100
0010
1000
0001
0010
0001
0100
0010
1000
0100
,
0010
0001
1000
0001
0100
0010
0100
0001
1000
0001
0010
0100
1000
0010
1000
0001
0100
0010
0100
0001
1000
0001
0010
0100
,
1000
0010
1000
0001
0010
0100
0010
0001
1000
0001
0100
0010
0100
0001
1000
0001
0010
0100
1000
0001
1000
0010
0100
0010
,
1000
0001
0010
0100
0010
0001
1000
0010
0100
0001
0100
0010
1000
0001
0010
0100
1000
0001
1000
0010
0100
0010
1000
0001
,
1000
0100
0010
0001
1000
0010
0100
0010
1000
0001
0010
0001
0010
0100
1000
0001
1000
0010
0100
0010
1000
0001
1000
0100
,
0010
0001
1000
0010
0100
0001
0100
0010
1000
0001
0010
0001
0100
0010
0100
0001
1000
0100
0010
0001
0100
0010
1000
0001
,
0010
0100
1000
0001
1000
0010
0100
0010
1000
0001
0010
0100
0010
0001
1000
0001
0100
0010
1000
0001
0010
0001
1000
0010
,
0100
0001
0100
0010
1000
0001
0010
0100
0010
0001
1000
0010
0100
0010
1000
0001
0010
0100
0010
0001
1000
0010
0100
0001
,
0100
0010
1000
0001
0010
0001
0100
0010
1000
0100
0010
0001
1000
0010
1000
0100
0010
0001
0100
0010
1000
0001
0010
0001
,
1000
0100
1000
0010
0100
0001
0100
0010
1000
0001
0010
0100
1000
0001
0010
0001
0100
0010
1000
0001
1000
0100
0010
0001
,
1000
0010
0100
0001
0100
0010
1000
0001
0010
0001
1000
0100
0010
0001
1000
0001
0100
0010
1000
0001
0010
0001
0100
0010
,
1000
0001
1000
0100
0010
0001
1000
0010
0100
0010
1000
0001
0010
0001
0100
0010
1000
0100
0010
0001
0100
0010
1000
0001
,
0010
0001
1000
0010
0100
0001
0100
0010
1000
0001
1000
0100
0010
0001
1000
0001
0100
0010
1000
0001
0010
0001
0100
0010
,
1000
0001
1000
0010
0100
0001
1000
0100
1000
0010
0100
0001
0010
0100
1000
0001
1000
0100
0010
0001
1000
0010
0100
0001
,
0010
0001
1000
0100
0010
0100
1000
0010
0100
0001
0100
0010
1000
0001
0010
0001
0100
0010
1000
0001
0010
0100
0010
0001
,
1000
0100
1000
0010
0100
0001
0100
0010
1000
0001
0010
0100
1000
0010
0100
0010
1000
0100
0010
0001
1000
0010
0100
0001
,
1000
0010
1000
0100
0010
0001
0100
0001
0010
0100
1000
0010
0100
0001
1000
0100
,
0010
0001
0100
0010
1000
0010
0100
0001
1000
0100
0010
0001
0100
0001
1000
0100
0010
0100
1000
0010
0100
0010
1000
0001
,
1000
0100
0010
0001
0100
0001
1000
0100
1000
0010
0100
0001
1000
0001
0010
0100
1000
0010
0100
0010
1000
0001
1000
0100
,
0010
0001
0100
0001
1000
0100
0010
0100
1000
0001
0010
0001
0100
0010
1000
0010
0100
0001
1000
0100
0010
0001
0100
0001
,
1000
0100
0010
0100
1000
0001
0100
0010
1000
0010
0100
0001
1000
0100
0010
0001
0100
0001
1000
0100
1000
0010
0100
0010
,
1000
0001
1000
0100
0010
0001
0100
0001
1000
0100
0010
0100
1000
0001
0100
0010
1000
0010
0100
0001
1000
0100
0010
0001
,
1000
0001
0100
0010
0100
0001
1000
0100
1000
0010
0100
0010
1000
0001
1000
0100
0010
0001
0100
0001
1000
0100
0010
0001
,
0100
0010
1000
0010
0100
0001
0010
0100
0010
0001
0100
0010
1000
0010
0100
0001
1000
0100
0010
0001
0100
0001
1000
0100
,
1000
0010
0100
0010
1000
0001
0010
0100
1000
0001
0100
0010
0100
0001
1000
0100
0010
0001
0100
0001
1000
0100
1000
0010
,
0100
0010
1000
0001
0010
0100
1000
0001
0100
0010
1000
0010
0100
0001
1000
0100
0010
0001
0100
0001
1000
0010
0100
0001
,
1000
0002
0023
0230
,
1300
0001
0010
0001
0100
0010
1000
0001
1000
0100
0010
0001
0100
0001
1000
0100
0010
0100
1000
0010
0100
0001
0010
0001
0100
0010
1000
0100
0010
0001
0100
0001
,
1000
0100
0010
0001
1000
0010
0100
0010
1000
0001
0010
0100
1000
0001
0100
0010
0100
0001
1000
0100
0010
0001
1000
0100
1000
0001
0100
0010
1000
0010
0100
0001
,
1000
0100
0010
0001
1000
0100
1000
0001
0100
0010
0100
0001
1000
0001
0010
0100
1000
0001
0100
0010
0100
0001
1000
0100
0010
0001
0100
0001
1000
0100
0010
0100
,
1000
0001
0100
0010
1000
0010
0100
0001
1000
0100
0010
0001
0100
0001
1000
0100
0010
0100
1000
0001
0100
0010
0100
0001
0010
0001
1000
0100
0010
0001
0100
0001
,
1000
0100
1000
0010
0100
0001
1000
0100
0010
0001
0100
0001
1000
0100
0010
0100
1000
0001
0100
0010
1000
0010
0100
0001
1000
0100
0010
0001
0100
0001
1000
0100
,
0010
0100
1000
0010
0100
0001
1000
0001
0100
0010
1000
0001
0010
0100
1000
0010
0100
0001
1000
0100
0010
0100
1000
0010
0100
0001
1000
0100
1000
0010
0100
0001
,
0010
0100
1000
0010
0100
0001
0010
0001
1000
0100
1000
0001
0100
0010
1000
0010
0100
0001
0100
0001
1000
0100
0010
0001
1000
0001
0100
0010
0100
0001
0010
0100
,
1000
0001
0100
0010
0100
0001
1000
0100
1000
0010
0100
0001
1000
0001
0010
0100
1000
0001
0100
0001
1000
0010
0100
0001
0010
0100
1000
0001
1000
0010
0100
0001
,
1000
0001
0010
0100
1000
0001
0100
0010
0100
0001
1000
0100
1000
0010
0100
0001
1000
0100
0010
0001
0100
0001
1000
0010
0100
0001
0100
0010
1000
0001
1000
0100
,
0010
0100
1000
0001
0100
0010
1000
0010
0100
0001
1000
0100
0010
0001
0100
0001
1000
0100
0010
0100
1000
0001
0100
0010
0100
0001
1000
0100
0010
0001
0100
0001
,
1000
0100
0010
0100
1000
0001
0100
0010
1000
0010
0100
0001
1000
0100
0010
0001
0100
0001
1000
0100
1000
0001
0100
0010
1000
0010
0100
0001
1000
0100
0010
0001
,
1000
0100
1000
0001
0010
0100
0010
0001
0100
0010
1000
0010
0100
0001
1000
0100
0010
0100
1000
0001
0100
0001
0010
0100
1000
0001
0100
0010
0100
0001
1000
0100
,
1000
0001
0100
0010
1000
0010
0100
0001
1000
0100
1000
0010
0100
0010
1000
0001
0010
0100
0010
0001
0100
0010
1000
0010
0100
0001
1000
0100
0010
0001
0100
0001
,
1000
0100
0010
0100
1000
0001
0100
0010
1000
0010
0100
0001
1000
0100
0010
0001
0100
0001
1000
0010
0100
0001
0100
0010
1000
0001
0010
0001
0100
0010
1000
0001
,
1000
0100
0010
0001
1000
0010
1000
0001
0010
0100
0010
0001
0100
0010
1000
0010
0100
0001
1000
0100
0010
0001
1000
0001
0100
0010
0100
0001
1000
0100
0010
0100
,
1000
0001
0100
0010
1000
0001
1000
0100
0010
0001
0100
0001
1000
0100
0010
0100
1000
0001
0100
0010
1000
0010
0100
0001
1000
0100
0010
0001
0100
0001
1000
0010
,
0100
0001
0100
0001
0100
0001
0100
0010
1000
0100
1000
0100
1000
0100
0010
0001
,
1000
0001
1000
0001
1000
0001
1000
0001
1000
0001
1000
0001
1000
0001
0010
0100
,
1000
0100
1000
0100
1000
0100
1000
0100
0010
0100
0010
0100
0010
0100
0010
0100
,
1000
0001
1000
0001
1000
0001
1000
0001
1000
0001
1000
0001
1000
0001
1000
0001
,
0010
0100
0010
0100
0010
0100
0010
0100
1000
0010
1000
0010
1000
0010
1000
0010
,
0100
0001
0100
0001
0100
0001
0100
0001
0100
0001
0100
0001
0010
0100
0010
0100
,
1000
0001
1000
0001
1000
0001
1000
0001
0100
0001
0100
0001
0100
0001
0100
0010
,
0100
0010
0100
0010
1000
0100
1000
0100
0010
0100
0010
0001
0010
0001
1000
0001
,
1000
0001
0100
0001
1000
0100
0010
0100
1000
0001
0100
0010
1000
0001
1000
0100
0010
0001
0100
0001
1000
0100
1000
0001
0100
0010
0100
0001
0010
0100
1000
0010
,
0100
0010
1000
0100
1000
0001
0010
0001
0100
0010
1000
0001
0010
0100
1000
0010
0100
0001
1000
0100
0010
0100
1000
0001
0100
0010
0100
0001
0010
0001
1000
0100
,
0010
0001
0100
0010
0100
0001
1000
0100
0010
0001
0100
0010
1000
0010
0100
0001
0010
0001
1000
0100
1000
0010
0100
0001
0010
0001
1000
0100
0010
0001
0100
0010
,
1000
0001
0010
0100
0010
0001
0100
0010
1000
0010
0100
0001
1000
0100
0010
0001
0100
0001
1000
0010
0100
0010
1000
0001
0100
0001
0100
0010
1000
0001
0010
0100
,
1000
0010
0100
0010
1000
0001
0100
0010
1000
0001
1000
0100
0010
0001
0100
0001
1000
0010
0100
0010
1000
0001
0010
0100
1000
0001
0100
0010
1000
0001
1000
0100
,
0010
0001
0100
0001
1000
0100
1000
0010
0100
0001
1000
0001
0010
0100
1000
0010
0100
0001
0100
0010
1000
0001
0010
0100
0010
0001
0100
0010
1000
0001
1000
0100
,
0010
0001
0100
0001
1000
0100
0010
0100
1000
0001
0100
0010
0100
0001
1000
0010
0100
0010
1000
0100
0010
0001
0100
0001
1000
0100
1000
0010
0100
0001
0010
0100
,
1000
0001
0100
0010
1000
0010
0100
0001
1000
0100
1000
0001
0100
0010
0100
0001
1000
0100
0010
0100
1000
0001
0100
0010
1000
0010
0100
0001
1000
0100
0010
0001
,
0100
0001
1000
0100
1000
0010
0100
0001
1000
0010
1000
0100
0010
0001
0100
0001
1000
0100
0010
0100
1000
0001
0100
0010
1000
0010
0100
0001
0010
0100
1000
0010
,
2000
0000
0000
0000
,
3000
0000
0000
0000
;

//---------------dance-single - J. Nero----------------
#NOTES:
     dance-single:
     J. Nero:
     Easy:
     21:
     1.000,1.000,0.139,0.089,1.000,2465.000,25.000,16.000,0.000,0.000:
0000
0000
0000
0000
,
0001
0100
0001
1000
0010
0100
0010
1000
0001
1000
0100
0010
0001
1000
0001
0100
0010
1000
0001
1000
0100
0010
0001
1000
0001
0100
0010
1000
0010
0100
0001
1000
,
0100
1000
0001
0100
0010
1000
0001
0100
0001
1000
0100
0010
0001
1000
0001
0100
0010
0000
0000
0000
0000
0000
0000
0000
0000
0000
0000
0000
0000
0000
0000
0000
,
1000
0100
1000
0001
0100
0010
1000
0010
0100
0001
1000
0100
0010
0001
1000
0001
1000
0010
0100
0001
0100
0010
1000
0001
0010
0001
1000
0010
0100
0010
1000
0001
,
1000
0100
0010
0001
1000
0010
0100
0010
1000
0001
1000
0100
0010
0001
1000
0001
0100
0000
0000
0000
0000
0000
0000
0000
0000
0000
0000
0000
0000
0000
0000
0000
,
0001
0100
0001
0010
0100
1000
0010
0100
0010
1000
0001
1000
0100
0010
0001
0100
0001
1000
0100
0010
0100
1000
0010
0100
,
0001
1000
0010
0100
0010
1000
0001
1000
0100
0010
0001
0100
0001
1000
0100
0010
0100
1000
0001
0100
0010
1000
0010
0100
,
0001
1000
0100
0010
0001
0100
0001
1000
0100
0010
0100
1000
0001
0100
0010
1000
0010
0100
0001
1000
0100
0010
0001
0100
,
0001
1000
0100
1000
0010
0100
0001
0010
0100
1000
0001
0100
0010
1000
0010
0100
0001
1000
0100
0010
0001
0100
0001
1000
,
0100
1000
0010
0100
0001
0010
0100
1000
0010
0100
0001
1000
0100
0010
0001
0100
0001
1000
0100
1000
0010
0100
0001
0010
,
0001
1000
1100
0100
0010
0001
1001
1000
,
0010
0000
0100
0000
0101
0000
0001
0000
0010
0000
0100
0000
1100
0000
1000
0001
,
0100
0001
0011
0010
0100
1000
1001
0001
,
1000
0000
0010
0000
0110
0000
0100
0000
0001
0000
1000
0000
1100
0000
0100
0010
,
0001
1000
1010
0010
0100
0001
0011
0010
,
0100
1000
1001
0001
0100
0010
1010
1000
,
0100
0000
0000
0010
0000
0000
0011
0000
0000
0001
1000
0001
0010
0100
1000
0001
0100
0010
0100
0001
1000
0100
0010
0001
,
1000
0001
1000
0010
0100
0001
0010
0100
1000
0001
0100
0001
1000
0100
1000
0010
0100
0001
1000
0100
0010
0001
1000
0100
1000
0001
0100
0010
1000
0010
0100
0001
,
1000
0001
0011
0010
0100
1000
1010
0010
,
0100
0000
0000
0000
0001
0000
0000
0000
1001
0000
0000
0000
1000
0000
0000
0000
0100
0000
0000
0000
0010
0000
0000
0000
0011
0000
0000
0000
0001
1000
0001
0010
,
0100
1000
1010
0010
0100
0001
1001
1000
,
0100
0000
0000
0000
0010
0000
0000
0000
0011
0000
0000
0000
0001
0000
0000
0000
1000
0000
0000
0000
0010
0000
0000
0000
0110
0000
0000
0000
0100
0001
1000
0001
,
0010
0100
1100
1000
0010
0100
0101
0001
,
0010
0000
0000
0000
0100
0000
0000
0000
1100
0000
0000
0000
1000
0000
0000
0000
0001
0000
0000
0000
0100
0000
0000
0000
0110
0000
0000
0000
0010
1000
0001
1000
,
0100
0010
0001
1000
0010
0100
0010
1000
0001
0100
0001
1000
0100
1000
0010
0100
0001
0100
0010
1000
0010
0100
0001
1000
0100
0010
0001
0100
0010
1000
0100
0010
,
0001
2000
3200
0320
,
0031
0100
0001
1000
0100
0010
0001
0100
0001
1000
0100
0010
0100
1000
0010
0100
0001
1000
0100
1000
0010
0100
0001
0010
,
0100
1000
0001
1000
0010
0100
0010
1000
0001
1000
0100
0010
0001
0100
0001
1000
0010
0100
0010
1000
0001
1000
0100
0010
,
0001
0100
0001
1000
0100
0010
0100
1000
0001
1000
0010
0100
0010
1000
0001
1000
0100
0010
0001
1000
0001
0100
0010
0100
,
0001
1000
0100
0010
0100
1000
0001
0100
0010
1000
0010
0100
0001
1000
0100
0010
0001
1000
0001
0100
0010
0100
0001
1000
,
0001
0010
0100
1000
0001
0100
0010
0100
0001
1000
0100
1000
0100
0010
0001
1000
0001
0100
0010
0100
0001
1000
0001
0010
,
0100
1000
0001
0100
0010
1000
0010
0100
0001
1000
0100
1000
0010
0100
0010
1000
0001
0010
0100
1000
0010
0100
0001
1000
,
0100
0010
0001
1000
0001
0100
0010
0100
0001
1000
0100
0010
0100
1000
0001
1000
0010
0100
0001
1000
0100
1000
0001
0100
,
0010
1000
0010
0100
0001
1000
0100
0010
0100
1000
0001
0100
0010
0100
0001
1000
0100
0010
0100
1000
0001
0100
0010
1000
,
0010
0100
0001
1000
0100
1000
0010
0100
0001
0010
0100
1000
0001
0100
0001
0010
0100
1000
0010
0100
0001
1000
0100
1000
,
0001
0010
0001
0100
0010
1000
0010
0100
0001
1000
0100
0010
0001
1000
0100
1000
0010
0100
0001
1000
0001
0010
0100
1000
,
0001
0100
0010
1000
0010
0100
0001
1000
0100
1000
0001
0010
0100
1000
0001
1000
0010
0100
0001
1000
0100
1000
0010
0100
,
0001
1000
0001
0010
0100
1000
0001
0100
0010
0100
0001
1000
0100
1000
0010
0100
0001
0010
0100
1000
0010
0100
0001
1000
,
0100
1000
0001
0100
0010
1000
0010
0100
0001
1000
0001
0010
0100
1000
0001
1000
0010
0100
0001
1000
0100
1000
0010
0100
,
0001
1000
0001
0100
0010
1000
0001
0010
0001
0100
0010
1000
0100
0010
0001
1000
0001
0010
0100
1000
0001
0100
0010
1000
,
0100
1000
0001
0010
0100
0010
0001
0100
0010
1000
0010
0100
0001
1000
0100
1000
0010
0100
0001
1000
0100
0010
0100
1000
,
0001
0010
0001
0100
0010
1000
0010
0100
0001
1000
0100
0010
0001
0100
0010
0100
0001
0010
0100
1000
0001
0100
0010
1000
,
0001
0000
2000
3020
0230
0000
0302
0023
,
0000
0000
0000
0000
0230
0000
0000
0000
0000
0000
0000
0000
1300
0000
0000
0000
0001
0000
0000
0000
1000
0000
0000
0000
0010
0000
0000
0000
1000
0001
1000
0100
,
0010
0000
0001
0100
0001
1000
0100
0010
0100
1000
0001
0100
0010
1000
0010
0100
,
0001
1000
0100
1000
0010
0100
0001
0010
0100
1000
0001
0100
0010
0100
0001
1000
,
0100
1000
0100
0010
0001
1000
0001
0100
0001
0010
0001
1000
0010
0100
0001
0100
,
1000
0100
1000
0100
0001
1000
0010
0100
0001
1000
0100
0010
0001
1000
0100
1000
,
0010
0000
0000
0100
0000
0000
0010
0000
0000
1000
0000
0000
0100
0000
0000
0010
0000
0000
0001
0000
1000
0000
0001
0000
0010
0000
0100
0000
1000
0000
0001
0000
0100
0000
0010
0000
0100
0000
0001
0000
1000
0000
0100
0000
0010
0000
0001
0000
,
1000
0001
1000
0100
0010
0001
0100
0010
1000
0010
0100
0001
0010
0001
0100
0010
1000
0100
0010
0001
0100
0001
1000
0100
0010
0100
1000
0010
0100
0001
0100
0010
,
1000
0001
0100
0010
0100
0001
0010
0001
1000
0100
0010
0001
0100
0001
1000
0100
,
0010
0100
1000
0001
0100
0010
0100
0001
1000
0100
0010
0001
0100
0010
1000
0001
,
1000
0100
0010
0001
1000
0100
1000
0010
0100
0010
1000
0001
1000
0001
0010
0100
,
1000
0010
1000
0001
0010
0001
0100
0001
0100
0010
1000
0100
1000
0100
0010
0001
,
1000
0001
0100
0010
0100
0001
1000
0100
0010
0100
1000
0001
1000
0010
0100
0010
,
1000
0001
0010
0100
1000
0001
0100
0010
0100
0001
1000
0100
0010
0001
1000
0010
,
0100
0000
0001
0000
0010
0000
0100
0000
1000
0000
0001
0000
1000
0100
1000
0001
0100
0010
1000
0001
1000
0100
0010
0001
1000
0001
0100
0010
1000
0001
0010
0100
,
1000
0002
0023
0230
,
1300
0010
1000
0001
0010
0100
1000
0010
1000
0001
0010
0100
0010
0001
0100
0010
1000
0001
0010
0001
0100
0010
1000
0100
,
0010
0001
1000
0001
0100
0010
0100
0001
1000
0001
0010
0100
1000
0010
1000
0001
0100
0010
0100
0001
1000
0001
0010
0100
,
1000
0010
1000
0001
0010
0100
0010
0001
1000
0001
0100
0010
0100
0001
1000
0001
0010
0100
1000
0001
1000
0010
0100
0010
,
1000
0001
0010
0100
0010
0001
1000
0010
0100
0001
0100
0010
1000
0001
0010
0100
1000
0001
1000
0010
0100
0010
1000
0001
,
1000
0100
0010
0001
1000
0010
0100
0010
1000
0001
0010
0001
0010
0100
1000
0001
1000
0010
0100
0010
1000
0001
1000
0100
,
0010
0001
1000
0010
0100
0001
0100
0010
1000
0001
0010
0001
0100
0010
0100
0001
1000
0100
0010
0001
0100
0010
1000
0001
,
0010
0100
1000
0001
1000
0010
0100
0010
1000
0001
0010
0100
0010
0001
1000
0001
0100
0010
1000
0001
0010
0001
1000
0010
,
0100
0001
0100
0010
1000
0001
0010
0100
0010
0001
1000
0010
0100
0010
1000
0001
0010
0100
0010
0001
1000
0010
0100
0001
,
0100
0010
1000
0001
0010
0001
0100
0010
1000
0100
0010
0001
1000
0010
1000
0100
0010
0001
0100
0010
1000
0001
0010
0001
,
1000
0100
1000
0010
0100
0001
0100
0010
1000
0001
0010
0100
1000
0001
0010
0001
0100
0010
1000
0001
1000
0100
0010
0001
,
1000
0010
0100
0001
0100
0010
1000
0001
0010
0001
1000
0100
0010
0001
1000
0001
0100
0010
1000
0001
0010
0001
0100
0010
,
1000
0001
1000
0100
0010
0001
1000
0010
0100
0010
1000
0001
0010
0001
0100
0010
1000
0100
0010
0001
0100
0010
1000
0001
,
0010
0001
1000
0010
0100
0001
0100
0010
1000
0001
1000
0100
0010
0001
1000
0001
0100
0010
1000
0001
0010
0001
0100
0010
,
1000
0001
1000
0010
0100
0001
1000
0100
1000
0010
0100
0001
0010
0100
1000
0001
1000
0100
0010
0001
1000
0010
0100
0001
,
0010
0001
1000
0100
0010
0100
1000
0010
0100
0001
0100
0010
1000
0001
0010
0001
0100
0010
1000
0001
0010
0100
0010
0001
,
1000
0100
1000
0010
0100
0001
0100
0010
1000
0001
0010
0100
1000
0010
0100
0010
1000
0100
0010
0001
1000
0010
0100
0001
,
1000
0010
1000
0100
0010
0001
0100
0001
0010
0100
1000
0010
0100
0001
1000
0100
,
0010
0001
0100
0010
1000
0010
0100
0001
1000
0100
0010
0001
0100
0001
1000
0100
0010
0100
1000
0010
0100
0010
1000
0001
,
1000
0100
0010
0001
0100
0001
1000
0100
1000
0010
0100
0001
1000
0001
0010
0100
1000
0010
0100
0010
1000
0001
1000
0100
,
0010
0001
0100
0001
1000
0100
0010
0100
1000
0001
0010
0001
0100
0010
1000
0010
0100
0001
1000
0100
0010
0001
0100
0001
,
1000
0100
0010
0100
1000
0001
0100
0010
1000
0010
0100
0001
1000
0100
0010
0001
0100
0001
1000
0100
1000
0010
0100
0010
,
1000
0001
1000
0100
0010
0001
0100
0001
1000
0100
0010
0100
1000
0001
0100
0010
1000
0010
0100
0001
1000
0100
0010
0001
,
1000
0001
0100
0010
0100
0001
1000
0100
1000
0010
0100
0010
1000
0001
1000
0100
0010
0001
0100
0001
1000
0100
0010
0001
,
0100
0010
1000
0010
0100
0001
0010
0100
0010
0001
0100
0010
1000
0010
0100
0001
1000
0100
0010
0001
0100
0001
1000
0100
,
1000
0010
0100
0010
1000
0001
0010
0100
1000
0001
0100
0010
0100
0001
1000
0100
0010
0001
0100
0001
1000
0100
1000
0010
,
0100
0010
1000
0001
0010
0100
1000
0001
0100
0010
1000
0010
0100
0001
1000
0100
0010
0001
0100
0001
1000
0010
0100
0001
,
1000
0002
0023
0230
,
1300
0010
1000
0001
0010
0100
1000
0010
1000
0001
0010
0100
0010
0001
0100
0010
1000
0001
0010
0001
0100
0010
1000
0100
,
0010
0001
1000
0001
0100
0010
0100
0001
1000
0001
0010
0100
1000
0010
1000
0001
0100
0010
0100
0001
1000
0001
0010
0100
,
1000
0010
1000
0001
0010
0100
0010
0001
1000
0001
0100
0010
0100
0001
1000
0001
0010
0100
1000
0001
1000
0010
0100
0010
,
1000
0001
0010
0100
0010
0001
1000
0010
0100
0001
0100
0010
1000
0001
0010
0100
1000
0001
1000
0010
0100
0010
1000
0001
,
1000
0100
0010
0001
1000
0010
0100
0010
1000
0001
0010
0001
0010
0100
1000
0001
1000
0010
0100
0010
1000
0001
1000
0100
,
0010
0001
1000
0010
0100
0001
0100
0010
1000
0001
0010
0001
0100
0010
0100
0001
1000
0100
0010
0001
0100
0010
1000
0001
,
0010
0100
1000
0001
1000
0010
0100
0010
1000
0001
0010
0100
0010
0001
1000
0001
0100
0010
1000
0001
0010
0001
1000
0010
,
0100
0001
0100
0010
1000
0001
0010
0100
0010
0001
1000
0010
0100
0010
1000
0001
0010
0100
0010
0001
1000
0010
0100
0001
,
0100
0010
1000
0001
0010
0001
0100
0010
1000
0100
0010
0001
1000
0010
1000
0100
0010
0001
0100
0010
1000
0001
0010
0001
,
1000
0100
1000
0010
0100
0001
0100
0010
1000
0001
0010
0100
1000
0001
0010
0001
0100
0010
1000
0001
1000
0100
0010
0001
,
1000
0010
0100
0001
0100
0010
1000
0001
0010
0001
1000
0100
0010
0001
1000
0001
0100
0010
1000
0001
0010
0001
0100
0010
,
1000
0001
1000
0100
0010
0001
1000
0010
0100
0010
1000
0001
0010
0001
0100
0010
1000
0100
0010
0001
0100
0010
1000
0001
,
0010
0001
1000
0010
0100
0001
0100
0010
1000
0001
1000
0100
0010
0001
1000
0001
0100
0010
1000
0001
0010
0001
0100
0010
,
1000
0001
1000
0010
0100
0001
1000
0100
1000
0010
0100
0001
0010
0100
1000
0001
1000
0100
0010
0001
1000
0010
0100
0001
,
0010
0001
1000
0100
0010
0100
1000
0010
0100
0001
0100
0010
1000
0001
0010
0001
0100
0010
1000
0001
0010
0100
0010
0001
,
1000
0100
1000
0010
0100
0001
0100
0010
1000
0001
0010
0100
1000
0010
0100
0010
1000
0100
0010
0001
1000
0010
0100
0001
,
1000
0100
1000
0010
0100
0001
0010
0100
0010
0001
0100
0010
1000
0100
1000
0001
0010
0100
1000
0001
0100
0010
0100
0001
,
0010
0001
1000
0100
1000
0010
0100
0001
0010
0100
1000
0010
0100
0001
0010
0001
1000
0100
0010
0001
0100
0001
1000
0100
,
0010
0100
1000
0010
0100
0001
1000
0100
0010
0001
0100
0001
1000
0100
1000
0010
0100
0001
0010
0001
1000
0100
0010
0001
,
0100
0010
1000
0001
0010
0100
1000
0001
0100
0010
1000
0100
1000
0001
0010
0100
1000
0001
0100
0010
1000
0100
1000
0001
,
0010
0100
1000
0001
0100
0010
1000
0100
0010
0001
0100
0001
1000
0100
0010
0100
1000
0001
0100
0010
1000
0010
0100
0001
,
1000
0100
0010
0001
1000
0001
0100
0010
0100
0001
1000
0100
1000
0010
0100
0001
0010
0001
1000
0100
0010
0001
0100
0001
,
1000
0100
0010
0100
1000
0001
0100
0001
1000
0010
0100
0010
1000
0001
1000
0100
0010
0001
0100
0001
1000
0100
1000
0010
,
0100
0010
1000
0001
0010
0100
1000
0001
0100
0010
0100
0001
1000
0100
0010
0001
0100
0010
0100
0001
0010
0100
1000
0001
,
0100
0001
1000
0100
0010
0001
0100
0001
1000
0100
0010
0100
1000
0010
0100
0001
1000
0100
1000
0010
0100
0001
0010
0100
,
1000
0001
1000
0010
0100
0010
1000
0001
1000
0100
0010
0001
0100
0001
1000
0010
0100
0010
1000
0001
1000
0100
0010
0001
,
0100
0001
1000
0100
0010
0100
1000
0001
1000
0010
0100
0010
1000
0001
1000
0100
0010
0001
1000
0001
0100
0010
0100
0001
,
1000
0100
0010
0100
1000
0001
0100
0010
1000
0010
0100
0001
1000
0100
0010
0001
1000
0001
0100
0010
0100
0001
1000
0001
,
0010
0100
1000
0001
0100
0010
0100
0001
1000
0100
1000
0100
0010
0001
1000
0001
0100
0010
0100
0001
1000
0001
0010
0100
,
1000
0001
0100
0010
1000
0010
0100
0001
1000
0100
1000
0010
0100
0010
1000
0001
0010
0100
1000
0010
0100
0001
1000
0100
,
0010
0001
1000
0001
0100
0010
0100
0001
1000
0100
0010
0100
1000
0001
1000
0010
0100
0001
1000
0100
1000
0001
0100
0010
,
1000
0010
0100
0001
1000
0100
0010
0100
1000
0001
0100
0010
0100
0001
1000
0100
0010
0100
1000
0001
0100
0010
1000
0010
,
0100
0001
1000
0100
1000
0010
0100
0001
0010
0100
1000
0001
0100
0001
0010
0100
1000
0010
0100
0001
1000
0100
1000
0001
,
0200
0000
0000
0000
,
0300
0000
0000
0000
;

//---------------dance-single - How fast cen u drill----------------
#NOTES:
     dance-single:
     How fast cen u drill:
     Beginner:
     23:
     1.000,1.000,0.139,0.089,1.000,2404.000,25.000,16.000,0.000,0.000:
0000
0000
0000
0000
,
0001
0100
0001
0100
0001
0100
0001
0100
0001
0100
0001
0100
0010
1000
0010
1000
0010
1000
0010
1000
0010
1000
0010
1000
,
0100
0010
0100
0010
0100
0010
0100
0010
0100
0010
0100
0010
0100
0000
0000
0000
0000
0000
0000
0000
0000
0000
0000
0000
,
0010
0001
0010
0001
0010
0001
0010
0001
0010
0001
0010
0001
1000
0001
1000
0001
1000
0001
1000
0001
1000
0001
1000
0001
,
1000
0100
1000
0100
1000
0100
1000
0100
1000
0100
1000
0100
1000
0000
0000
0000
0000
0000
0000
0000
0000
0000
0000
0000
,
0001
0100
0001
0100
0001
0100
0001
0100
0001
0100
0001
0100
0010
1000
0010
1000
0010
1000
0010
1000
0010
1000
0010
1000
,
0100
0010
0100
0010
0100
0010
0100
0010
0100
0010
0100
0010
0100
0010
0100
0010
0100
0010
0001
1000
0001
1000
0001
1000
,
0001
0100
0001
0100
0001
0100
0001
0100
0001
0100
0001
0100
0010
1000
0010
1000
0010
1000
0010
1000
0010
0100
0001
0100
,
0001
0100
0001
0100
0001
0100
0001
0100
0001
0100
0001
0100
0001
0100
0001
0100
0001
0100
0001
0100
0001
0100
0001
0100
,
0001
0100
0001
0100
0001
0100
0001
0100
0001
0100
0001
0100
0001
0100
0001
0100
0001
0100
0001
0100
0001
0100
0001
0100
,
0001
1000
1100
0100
0010
0001
1001
1000
,
0010
0000
0100
0000
0101
0000
0001
0000
0010
0000
0100
0000
1100
0000
1000
0001
,
0100
0001
0011
0010
0100
1000
1001
0001
,
1000
0000
0010
0000
0110
0000
0100
0000
0001
0000
1000
0000
1100
0000
0100
0010
,
0001
1000
1010
0010
0100
0001
0011
0010
,
0100
1000
1001
0001
0100
0010
1010
1000
,
0100
0000
0000
0010
0000
0000
0011
0000
0000
0001
1000
0001
1000
0001
1000
0001
1000
0001
1000
0001
1000
0001
1000
0001
,
0010
0100
0010
0100
0010
0100
0010
0100
0010
0100
0010
0100
0010
0100
0010
0100
0010
0100
1000
0001
0100
0010
1000
0001
,
0100
0001
0011
0010
0100
1000
1010
0010
,
0100
0000
0000
0000
0001
0000
0000
0000
1001
0000
0000
0000
1000
0000
0000
0000
0100
0000
0000
0000
0010
0000
0000
0000
0011
0000
0000
0000
0001
1000
0001
0010
,
0100
1000
1010
0010
0100
0001
1001
1000
,
0100
0000
0000
0000
0010
0000
0000
0000
0011
0000
0000
0000
0001
0000
0000
0000
1000
0000
0000
0000
0010
0000
0000
0000
0110
0000
0000
0000
0100
0001
1000
0001
,
0010
0100
1100
1000
0010
0100
0101
0001
,
0010
0000
0100
0000
1100
0000
1000
0000
0001
0000
0100
0000
0110
0000
0010
1000
,
0001
0000
0000
0100
0000
0000
0010
0000
0000
1000
0001
1000
0001
1000
0001
1000
0001
1000
0001
1000
0001
1000
0001
1000
,
0001
2000
3200
0320
,
0031
0100
0001
0100
0001
0100
0001
0100
0001
0100
0001
0100
0010
1000
0010
1000
0010
1000
0010
1000
0010
0100
0001
0100
,
0001
0100
0001
0010
0100
0010
0100
0010
0100
0010
0100
0010
0100
0010
0100
0010
0100
0010
0001
1000
0100
0010
0001
1000
,
0001
0100
0001
0100
0001
0100
0001
0100
0001
1000
0001
1000
0001
1000
0001
0100
0010
0100
0010
0100
0010
1000
0001
1000
,
0001
1000
0001
1000
0001
1000
0100
0010
0100
0010
0100
0010
0001
0100
0001
0100
0001
0100
0001
1000
0001
1000
0001
1000
,
0100
0010
0100
0010
0100
0010
0100
0010
0100
0010
0100
0010
0001
1000
0001
1000
0001
1000
0001
1000
0001
1000
0100
1000
,
0100
1000
0100
0010
0001
0010
0001
0010
0001
0010
0001
0010
0001
0010
0001
0010
0001
0010
0001
1000
0001
1000
0001
1000
,
0100
0010
0100
0010
0100
0010
0100
0010
0100
0010
0100
0010
0001
1000
0001
1000
0001
1000
0001
1000
0001
0100
0001
0100
,
0001
0100
0001
0100
0001
0100
0010
1000
0010
1000
0010
1000
0100
0010
0100
0010
0100
0010
0001
1000
0001
1000
0001
1000
,
0100
0010
0100
0010
0100
0010
0100
0010
0100
0010
0100
0010
0001
1000
0001
1000
0001
1000
0001
1000
0001
1000
0100
1000
,
0100
1000
0100
0010
0001
0010
0001
0010
0001
0010
0001
0010
0001
0010
0001
0010
0001
0010
0001
1000
0001
1000
0001
1000
,
0100
0010
0100
0010
0100
0010
0100
0010
0100
1000
0100
1000
0100
1000
0100
1000
0001
1000
0001
1000
0001
0100
0001
0100
,
0001
0100
0001
0100
0001
0100
0010
1000
0010
1000
0010
1000
0001
0100
0001
0100
0001
0100
0001
1000
0001
1000
0001
1000
,
0001
0010
0100
0010
0100
0010
0100
0010
0100
0010
0100
0010
0001
1000
0001
1000
0001
1000
0001
1000
0001
0100
0001
0100
,
0001
0100
0001
1000
0100
1000
0100
1000
0100
1000
0100
1000
0100
1000
0100
1000
0100
1000
0100
0010
0100
0010
0100
0010
,
0001
1000
0001
1000
0001
1000
0001
1000
0001
1000
0001
1000
0100
0010
0100
0010
0100
0010
0100
0010
0100
1000
0100
1000
,
0100
1000
0100
1000
0100
1000
0100
1000
0100
1000
0100
1000
0100
1000
0100
1000
0100
1000
0100
1000
0100
1000
0100
1000
,
0100
0000
2000
3020
0230
0000
0302
0023
,
0000
0000
0000
0000
0230
0000
0000
0000
0000
0000
0000
0000
1300
0000
0000
0000
0001
0000
0000
0000
1000
0000
0000
0000
0010
0000
0000
0000
1000
0001
1000
0100
,
0010
0000
0001
0100
0001
1000
0100
0010
0100
1000
0001
0100
0010
1000
0010
0100
,
0001
1000
0100
1000
0010
0100
0001
0010
0100
1000
0001
0100
0010
0100
0001
1000
,
0100
1000
0100
0010
0001
1000
0001
0100
0001
0010
0001
1000
0010
0100
0001
0100
,
1000
0100
1000
0100
0001
1000
0010
0100
0001
1000
0100
0010
0001
1000
0100
1000
,
0010
0000
0000
0100
0000
0000
0010
0000
0000
1000
0000
0000
0100
0000
0000
0010
0000
0000
0001
0000
1000
0000
0001
0000
1000
0000
0001
0000
1000
0000
0001
0000
1000
0000
0001
0000
1000
0000
0001
0000
1000
0000
0001
0000
1000
0000
0001
0000
,
0010
0100
0010
0100
0010
0100
0010
0100
0010
0100
0010
0100
0010
0100
0010
0100
0010
0100
0010
0100
0010
0100
0010
0100
,
0010
0001
0100
0010
0100
0001
0010
0001
1000
0100
0010
0001
0100
0001
1000
0100
,
0010
0100
1000
0001
0100
0010
0100
0001
1000
0100
0010
0001
0100
0010
1000
0001
,
1000
0100
0010
0001
1000
0100
1000
0010
0100
0010
1000
0001
1000
0001
0010
0100
,
1000
0010
1000
0001
0010
0001
0100
0001
0100
0010
1000
0100
1000
0100
0010
0001
,
1000
0001
0100
0010
0100
0001
1000
0100
0010
0100
1000
0001
1000
0010
0100
0010
,
1000
0001
0010
0100
1000
0001
0100
0010
0100
0001
1000
0100
0010
0001
1000
0010
,
0100
0000
0000
0001
0000
0000
0010
0000
0000
0100
0000
0000
1000
0000
0000
0001
0000
0000
1000
0000
0001
0000
1000
0000
0001
0000
1000
0000
0001
0000
1000
0000
0001
0000
1000
0000
0001
0000
1000
0000
0001
0000
1000
0000
0001
0000
1000
0000
,
0001
0002
0023
0230
,
1300
0010
1000
0010
1000
0010
1000
0010
1000
0010
1000
0010
0100
0001
0100
0001
0100
0001
0100
0001
0100
0010
1000
0010
,
1000
0010
1000
0100
0010
0100
0010
0100
0010
0100
0010
0100
0010
0100
0010
0100
0010
0100
1000
0001
0010
0100
1000
0001
,
1000
0010
1000
0010
1000
0010
1000
0010
1000
0001
1000
0001
1000
0001
1000
0010
0100
0010
0100
0010
0100
0001
1000
0001
,
1000
0001
1000
0001
1000
0001
0010
0100
0010
0100
0010
0100
1000
0010
1000
0010
1000
0010
1000
0001
1000
0001
1000
0001
,
0010
0100
0010
0100
0010
0100
0010
0100
0010
0100
0010
0100
1000
0001
1000
0001
1000
0001
1000
0001
1000
0001
0010
0001
,
0010
0001
0010
0100
1000
0100
1000
0100
1000
0100
1000
0100
1000
0100
1000
0100
1000
0100
1000
0001
1000
0001
1000
0001
,
0010
0100
0010
0100
0010
0100
0010
0100
0010
0100
0010
0100
1000
0001
1000
0001
1000
0001
1000
0001
1000
0010
1000
0010
,
1000
0010
1000
0010
1000
0010
0100
0001
0100
0001
0100
0001
0010
0100
0010
0100
0010
0100
1000
0001
1000
0001
1000
0001
,
0010
0100
0010
0100
0010
0100
0010
0100
0010
0100
0010
0100
1000
0001
1000
0001
1000
0001
1000
0001
1000
0001
0010
0001
,
0010
0001
0010
0100
1000
0100
1000
0100
1000
0100
1000
0100
1000
0100
1000
0100
1000
0100
1000
0001
1000
0001
1000
0001
,
0010
0100
0010
0100
0010
0100
0010
0100
0010
0001
0010
0001
0010
0001
0010
0001
1000
0001
1000
0001
1000
0010
1000
0010
,
1000
0010
1000
0010
1000
0010
0100
0001
0100
0001
0100
0001
1000
0010
1000
0010
1000
0010
1000
0001
1000
0001
1000
0001
,
1000
0100
0010
0100
0010
0100
0010
0100
0010
0100
0010
0100
1000
0001
1000
0001
1000
0001
1000
0001
1000
0010
1000
0010
,
1000
0010
1000
0001
0010
0001
0010
0001
0010
0001
0010
0001
0010
0001
0010
0001
0010
0001
0010
0100
0010
0100
0010
0100
,
1000
0001
1000
0001
1000
0001
1000
0001
1000
0001
1000
0001
0010
0100
0010
0100
0010
0100
0010
0100
0010
0001
0010
0001
,
0010
0001
0010
0001
0010
0001
0010
0001
0010
0001
0010
0001
0010
0001
0010
0001
0010
0001
0010
0001
0010
0001
0010
0001
,
0010
0100
1000
0001
0010
0001
0100
0001
0010
0100
1000
0010
0100
0001
1000
0100
,
0010
0001
0010
0001
0010
0001
0010
0001
0010
0100
0010
0100
1000
0001
1000
0001
1000
0001
1000
0001
1000
0001
1000
0001
,
1000
0001
1000
0001
1000
0001
1000
0001
1000
0001
1000
0001
1000
0001
1000
0001
1000
0001
1000
0001
1000
0001
1000
0001
,
1000
0001
1000
0001
1000
0001
1000
0001
1000
0001
1000
0001
1000
0001
1000
0001
1000
0001
1000
0001
1000
0001
1000
0001
,
1000
0001
1000
0001
1000
0001
1000
0001
1000
0001
1000
0001
1000
0001
1000
0001
1000
0001
0010
0100
0010
0100
0010
0100
,
1000
0100
1000
0100
1000
0100
1000
0100
1000
0100
0010
0100
0010
0001
1000
0001
1000
0001
1000
0001
1000
0001
1000
0001
,
1000
0001
1000
0001
1000
0001
1000
0001
1000
0001
1000
0001
1000
0001
1000
0001
1000
0001
1000
0001
1000
0001
1000
0001
,
1000
0001
1000
0001
1000
0001
1000
0001
1000
0001
1000
0001
1000
0001
1000
0001
1000
0001
1000
0001
1000
0001
1000
0001
,
1000
0001
1000
0001
1000
0001
1000
0001
1000
0001
1000
0001
1000
0001
1000
0001
1000
0001
1000
0001
1000
0001
1000
0001
,
1000
0100
0010
0001
1000
0001
0100
0010
1000
0001
0010
0100
1000
0001
0100
0010
1000
0010
0100
0001
0010
0100
1000
0010
,
0100
0002
0023
0230
,
1300
0010
1000
0010
1000
0010
1000
0010
1000
0010
1000
0010
0100
0001
0100
0001
0100
0001
0100
0001
0100
0010
1000
0010
,
1000
0010
1000
0100
0010
0100
0010
0100
0010
0100
0010
0100
0010
0100
0010
0100
0010
0100
1000
0001
0010
0100
1000
0001
,
1000
0010
1000
0010
1000
0010
1000
0010
1000
0001
1000
0001
1000
0001
1000
0010
0100
0010
0100
0010
0100
0001
1000
0001
,
1000
0001
1000
0001
1000
0001
0010
0100
0010
0100
0010
0100
1000
0010
1000
0010
1000
0010
1000
0001
1000
0001
1000
0001
,
0010
0100
0010
0100
0010
0100
0010
0100
0010
0100
0010
0100
1000
0001
1000
0001
1000
0001
1000
0001
1000
0001
0010
0001
,
0010
0001
0010
0100
1000
0100
1000
0100
1000
0100
1000
0100
1000
0100
1000
0100
1000
0100
1000
0001
1000
0001
1000
0001
,
0010
0100
0010
0100
0010
0100
0010
0100
0010
0100
0010
0100
1000
0001
1000
0001
1000
0001
1000
0001
1000
0010
1000
0010
,
1000
0010
1000
0010
1000
0010
0100
0001
0100
0001
0100
0001
0010
0100
0010
0100
0010
0100
1000
0001
1000
0001
1000
0001
,
0010
0100
0010
0100
0010
0100
0010
0100
0010
0100
0010
0100
1000
0001
1000
0001
1000
0001
1000
0001
1000
0001
0010
0001
,
0010
0001
0010
0100
1000
0100
1000
0100
1000
0100
1000
0100
1000
0100
1000
0100
1000
0100
1000
0001
1000
0001
1000
0001
,
0010
0100
0010
0100
0010
0100
0010
0100
0010
0001
0010
0001
0010
0001
0010
0001
1000
0001
1000
0001
1000
0010
1000
0010
,
1000
0010
1000
0010
1000
0010
0100
0001
0100
0001
0100
0001
1000
0010
1000
0010
1000
0010
1000
0001
1000
0001
1000
0001
,
1000
0100
0010
0100
0010
0100
0010
0100
0010
0100
0010
0100
1000
0001
1000
0001
1000
0001
1000
0001
1000
0010
1000
0010
,
1000
0010
1000
0001
0010
0001
0010
0001
0010
0001
0010
0001
0010
0001
0010
0001
0010
0001
0010
0100
0010
0100
0010
0100
,
1000
0001
1000
0001
1000
0001
1000
0001
1000
0001
1000
0001
0010
0100
0010
0100
0010
0100
0010
0100
0010
0001
0010
0001
,
0010
0001
0010
0001
0010
0001
1000
0001
1000
0001
1000
0001
0100
0010
0100
0010
0100
0010
1000
0001
1000
0001
1000
0001
,
1000
0100
1000
0100
1000
0100
1000
0100
1000
0100
1000
0100
0010
0001
0010
0001
0010
0001
0010
0001
0010
0100
1000
0100
,
1000
0100
1000
0010
0100
0010
0100
0010
0100
0010
0100
0010
0100
0010
0100
0010
0100
0010
1000
0001
0100
0010
1000
0001
,
1000
0100
1000
0100
1000
0100
1000
0100
1000
0001
1000
0001
1000
0001
1000
0100
0010
0100
0010
0100
0010
0001
1000
0001
,
1000
0001
1000
0001
1000
0001
0010
0100
0010
0100
0010
0100
1000
0010
1000
0010
1000
0010
1000
0001
1000
0001
1000
0001
,
0010
0100
0010
0100
0010
0100
0010
0100
0010
0100
0010
0100
1000
0001
1000
0001
1000
0001
1000
0001
1000
0001
0010
0001
,
0010
0001
0010
0100
1000
0100
1000
0100
1000
0100
1000
0100
1000
0100
1000
0100
1000
0100
1000
0001
1000
0001
1000
0001
,
0100
0010
0100
0010
0100
0010
0100
0010
0100
0010
0100
0010
1000
0001
1000
0001
1000
0001
1000
0001
1000
0100
1000
0100
,
1000
0100
1000
0100
1000
0100
0010
0001
0010
0001
0010
0001
0100
0010
0100
0010
0100
0010
1000
0001
1000
0001
1000
0001
,
0100
0010
0100
0010
0100
0010
0100
0010
0100
0010
0100
0010
1000
0001
1000
0001
1000
0001
1000
0001
1000
0001
0100
0001
,
0100
0001
0100
0010
1000
0010
1000
0010
1000
0010
1000
0010
1000
0010
1000
0010
1000
0010
1000
0001
1000
0001
1000
0001
,
0100
0010
0100
0010
0100
0010
0100
0010
0100
0001
0100
0001
0100
0001
0100
0001
1000
0001
1000
0001
1000
0100
1000
0100
,
1000
0100
1000
0100
1000
0100
0010
0001
0010
0001
0010
0001
1000
0100
1000
0100
1000
0100
1000
0001
1000
0001
1000
0001
,
1000
0010
0100
0010
0100
0010
0100
0010
0100
0010
0100
0010
1000
0001
1000
0001
1000
0001
1000
0001
1000
0100
1000
0100
,
1000
0100
1000
0001
0100
0001
0100
0001
0100
0001
0100
0001
0100
0001
0100
0001
0100
0001
0100
0010
0100
0010
0100
0010
,
1000
0001
1000
0001
1000
0001
1000
0001
1000
0001
1000
0001
0100
0010
0100
0010
0100
0010
0100
0010
0100
0001
1000
0001
,
1000
0001
1000
0001
1000
0001
1000
0001
1000
0001
1000
0001
1000
0001
1000
0001
1000
0001
1000
0001
1000
0001
1000
0001
,
1000
0001
1000
0001
1000
0001
1000
0001
1000
0001
1000
0001
1000
0001
1000
0001
1000
0001
1000
0001
1000
0001
1000
0001
,
2000
0000
0000
0000
,
0000
0000
0000
0000
,
3000
0000
0000
0000
;
