#TITLE:Life Is Trance;
#SUBTITLE:;
#ARTIST:W1p3out;
#TITLETRANSLIT:;
#SUBTITLETRANSLIT:;
#ARTISTTRANSLIT:;
#CREDIT:;
#BANNER:LifeIsTrance-bn.png;
#BACKGROUND:LifeIsTrance-bg.png;
#LYRICSPATH:;
#CDTITLE:;
#MUSIC:Life Is Trance (DDR Edit).mp3;
#OFFSET:-5.150;
#SAMPLESTART:32.587;
#SAMPLELENGTH:18.000;
#SELECTABLE:YES;
#BPMS:0.000=140.000;
#STOPS:;
#BGCHANGES:;
// cache tags:
#FIRSTBEAT:0.000;
#LASTBEAT:258.000;
#SONGFILENAME:Songs/other/Life Is Trance/Life Is Trance.sm;
#HASMUSIC:1;
#HASBANNER:1;
#MUSICLENGTH:121.789;
// end cache tags

//---------------dance-single - ----------------
#NOTES:
     dance-single:
     :
     Hard:
     9:
     0.685,0.636,0.197,0.016,0.739,558.000,24.000,2.000,0.000,0.000:
1001
0000
0000
1000
0100
0000
0100
0000
0010
0000
0000
0010
0001
0000
1000
0000
,
0100
0000
0000
0100
1000
0000
0010
0000
0010
0100
0000
0100
0010
0000
0100
0000
,
0001
0010
0000
0010
0100
0000
0100
0000
1000
0000
0000
0001
1000
0000
0100
0000
,
0010
0000
0000
0001
0010
0000
0010
0000
0001
0000
0000
1000
0100
0000
0100
0000
,
0010
0001
0000
0001
1000
0000
0001
0000
0100
0010
0000
0010
1000
0000
0010
0000
,
0100
0000
0000
0100
0010
0000
0010
0000
1000
0000
0000
0001
0100
0000
0001
0000
,
0001
0000
0000
1000
0100
0000
0010
0000
0100
0000
0000
0010
0001
0000
0001
0000
,
0010
0000
0000
0010
0100
0000
1000
0000
0001
0000
0000
0001
1000
0000
0001
0000
,
1001
0000
0000
0100
1000
0000
0100
0000
1000
0000
0000
1000
0001
0000
0100
0000
,
0001
1000
0000
1000
0100
0000
1000
0000
0001
0010
0000
0010
0001
0000
1000
0000
,
0100
0000
0000
1000
0100
0000
1000
0000
0010
0000
0000
1000
0010
0000
1000
0000
,
0100
0000
0000
0010
0001
0000
0100
0000
0001
0000
0000
0010
0001
0000
0100
0000
,
0100
0010
0000
0010
0100
0000
0001
0000
0001
0000
0000
1000
0001
0000
0100
0000
,
0010
0000
0000
0010
1000
0000
1000
0000
0010
0000
0000
1000
0100
0000
0010
0000
,
0100
0010
0000
0010
0100
0000
1000
0000
0001
0000
0000
0001
1000
0000
0010
0000
,
0010
0000
0000
1000
0010
0000
0100
0000
0001
0000
0000
0010
0100
0000
0010
0000
,
0110
0000
0000
0100
1000
0000
0100
0000
0010
0001
0000
0001
0100
0000
0010
0000
,
1000
0100
0000
0100
1000
0000
0001
0000
0010
0000
0000
0001
1000
0000
0100
0000
,
0010
0000
0000
0100
0010
0000
0100
0000
0010
0000
0000
0001
1000
0000
0001
0000
,
1000
0100
0000
0100
0010
0000
0001
0000
0010
0001
0000
1000
0001
0000
0001
0000
,
1000
0000
0000
0100
1000
0000
0001
0000
0001
0000
0000
0100
0001
0000
1000
0000
,
1000
0000
0000
1000
0001
0000
0010
0000
0100
0010
0000
0010
0100
0000
1000
0000
,
0100
0000
0000
0010
0001
0000
0010
0000
0010
0000
0000
0100
1000
0000
0100
0000
,
0100
0000
0000
1000
0001
0000
1000
0000
0001
0000
0000
1000
0001
0000
1000
0000
,
1001
0000
0000
0010
1000
0000
0100
0000
0100
0010
0000
0010
0001
0000
0100
0000
,
0100
0010
0000
0010
1000
0000
1000
0000
0001
0100
0000
0100
0001
0000
1000
0000
,
0010
1000
0000
1000
0001
0000
0100
0000
0001
0100
0001
0000
1000
0000
1000
0000
,
0001
0100
0001
0000
1000
0000
0001
0000
1000
0010
1000
0000
0001
0000
0001
0000
,
1000
0010
1000
0000
0001
0000
1000
0000
0001
0100
0000
0100
0001
0000
0001
0000
,
1000
0010
0000
0010
1000
0000
1000
0000
0001
0010
0000
0010
0001
0000
0001
0000
,
0100
0010
0000
1000
0001
0000
1000
0000
0001
0100
0000
0001
0010
0000
0100
0000
,
1000
0001
0000
0001
1000
0000
0001
0000
0010
0100
0000
0100
0010
0000
0001
0000
,
1001
0000
0000
1000
0100
0000
0000
0100
0010
0000
0000
0010
0001
0000
0000
0001
,
1000
0000
0000
1000
0001
0000
0000
0001
0100
0000
0000
0100
0010
0000
0000
0010
,
1000
0000
0000
0001
0100
0000
0000
0010
1000
0000
0000
0001
0100
0000
0000
0001
,
1000
0000
0000
1000
0001
0000
0000
0001
1000
0000
0000
0010
0100
0000
0010
0000
,
1001
0000
0000
0100
0010
0000
0000
0010
0100
0000
0000
0100
1000
0000
0000
1000
,
0001
0000
0000
0001
0100
0000
0000
0100
0010
0000
0000
0010
1000
0000
0000
1000
,
0001
0000
0000
0001
1000
0000
0000
1000
0010
0000
0000
0100
0001
0000
0000
0001
,
0010
0000
0000
0100
1000
0000
0000
0001
0100
0000
0000
0010
0100
0000
0010
0000
,
1001
0000
0000
1000
0100
0000
0001
0000
0101
0000
0000
0001
0100
0000
1000
0000
,
1100
0000
0000
0100
0010
0000
0100
0000
0110
0000
0000
0010
0100
0000
0010
0000
,
0110
0000
0000
0010
0001
0000
1000
0000
1001
0000
0000
0100
1000
0000
0001
0000
,
1001
0000
0000
1000
0010
0000
0100
0000
0101
0000
0000
0001
0100
0000
0010
0000
,
1010
0000
0000
0001
0010
0000
0100
0000
1100
0000
0000
1000
0010
0000
0100
0000
,
0101
0000
0000
1000
0100
0000
1000
0000
1010
0000
0000
0001
0100
0000
0001
0000
,
0011
0000
0000
1000
0001
0000
1000
0000
1001
0000
0000
0001
1000
0000
0001
0000
,
1001
0000
0000
1000
0100
0000
0000
0100
0010
0000
0000
0010
0001
0000
0000
0000
,
1001
0000
0000
0001
0100
0000
0001
0000
1000
0000
0000
0001
1000
0000
0010
0000
,
1000
0000
0000
0001
0100
0000
0001
0000
0010
0001
0000
0001
0100
0000
0010
0000
,
0010
1000
0000
1000
0010
0000
0100
0000
0001
0000
0000
0001
1000
0000
1000
0000
,
0100
0000
0000
1000
0001
0000
0001
0000
0010
0000
0000
0010
0100
0000
1000
0000
,
0001
1000
0000
1000
0001
0000
0100
0000
0010
1000
0000
1000
0010
0000
0100
0000
,
0001
0000
0000
0001
0100
0000
0100
0000
0010
0000
0000
0010
1000
0000
0100
0000
,
0100
0010
0000
0010
0001
0000
1000
0000
0001
1000
0000
1000
0100
0000
0010
0000
,
0001
0000
0000
1000
0100
0000
1000
0000
0001
0000
0000
0001
0100
0000
0001
0000
,
1001
0000
0000
1000
0100
0000
0100
0000
0010
0000
0000
0001
0010
0000
0010
0000
,
0100
1000
0000
1000
0001
0000
1000
0000
0001
0100
0000
0100
0001
0000
0010
0000
,
0100
0000
0000
0100
1000
0000
0001
0000
1000
0010
1000
0000
0001
0000
1000
0000
,
0001
0100
0001
0000
1000
0000
0001
0000
1000
0100
1000
0000
0001
0000
1000
0000
,
0001
0010
0001
0000
1000
0000
0000
0100
0010
0000
0001
0000
0001
0000
0000
0010
,
0100
0000
1000
0000
1000
0000
0000
0001
0100
0000
0010
0000
1000
0000
0000
1000
,
0001
0000
0100
0000
0010
1000
0000
1000
0001
0000
0100
0000
0001
1000
0000
1000
,
0100
0000
0010
0000
0001
0000
0001
0000
1000
0100
1000
0100
0010
0001
0010
0001
,
2002
0000
3003
0000
;

//---------------dance-single - ----------------
#NOTES:
     dance-single:
     :
     Easy:
     4:
     0.318,0.397,0.213,0.296,0.000,209.000,26.000,36.000,0.000,0.000:
1001
1000
1000
0000
,
0001
0001
0001
0000
,
1000
0001
1000
0000
,
0001
1000
0001
0000
,
0100
0001
0100
0000
,
0100
1000
0100
0000
,
0100
0010
0100
0000
,
0010
0001
0010
0000
,
0110
0010
0100
0000
,
0010
0100
0010
0000
,
0001
0010
0001
0000
,
0001
0100
0001
0000
,
0001
1000
0001
0000
,
1000
0010
1000
0000
,
1000
0100
0010
0000
,
0001
0010
0100
0000
,
1001
1000
1100
0000
,
0001
0100
0101
0000
,
1000
0010
1010
0000
,
0001
0010
0011
0000
,
1000
0001
0101
0000
,
0001
1000
1100
0000
,
0100
0010
0110
0000
,
0010
0100
0110
0000
,
1001
1001
1001
0000
,
0100
0001
0011
0000
,
0100
1000
1010
0000
,
1000
0100
0101
0000
,
0001
0100
1100
0000
,
1000
0010
0011
0000
,
0001
0010
1010
0000
,
0010
0100
1001
0000
,
2002
3003
0002
0003
,
2000
3000
0200
0300
,
0020
0030
0002
0003
,
2000
3000
0020
0030
,
0200
0300
0002
0003
,
2000
3000
0002
0003
,
0020
0030
0200
0300
,
2000
3000
0200
0300
,
0012
0013
2000
3100
,
0002
0103
2000
3100
,
0200
0310
0020
0031
,
0002
1003
2000
3100
,
0200
1300
2000
3001
,
0002
0013
0020
0031
,
0002
1003
2000
3001
,
0002
0203
0320
1030
,
1001
1000
1000
1000
,
0001
0001
0001
0001
,
1000
0001
1000
1000
,
0001
1000
0001
0001
,
0100
0001
0100
0001
,
0100
1000
0100
0010
,
0100
0010
0100
1000
,
0010
0001
0010
0100
,
0110
0010
0100
0001
,
0010
0100
0010
1000
,
0001
0010
0001
1000
,
0001
0100
0001
1000
,
0001
0010
0001
0100
,
1000
0010
0001
1000
,
1000
0100
0010
0001
,
0001
0010
0100
1000
,
2002
0000
3003
0000
;

//---------------dance-single - ----------------
#NOTES:
     dance-single:
     :
     Beginner:
     2:
     0.142,0.236,0.066,0.000,0.000,113.000,8.000,0.000,0.000,0.000:
1000
0000
0000
0000
,
0001
0000
0000
0000
,
1000
0000
0000
0000
,
0001
0000
0000
0000
,
0100
0000
0000
0000
,
0100
0000
0000
0000
,
0100
0000
0000
0000
,
0010
0000
0000
0000
,
0010
0000
0000
0000
,
0010
0000
0000
0000
,
0001
0000
0000
0000
,
0001
0000
0000
0000
,
1000
0000
0000
0000
,
1000
0000
0000
0000
,
1000
0000
0000
0000
,
0001
0000
0000
0000
,
1001
0000
1000
0000
,
0001
0000
0001
0000
,
1000
0000
1000
0000
,
0001
0000
0001
0000
,
1000
0000
0001
0000
,
0001
0000
1000
0000
,
0100
0000
0010
0000
,
0010
0000
0100
0000
,
1001
1001
1001
0000
,
0100
0000
0001
0000
,
0100
0000
1000
0000
,
1000
0000
0100
0000
,
0001
0000
1000
0000
,
1000
0000
0010
0000
,
0001
0000
1000
0000
,
0010
0000
1000
0000
,
1000
0000
0001
0000
,
1000
0000
0100
0000
,
0010
0000
0001
0000
,
1000
0000
0010
0000
,
0100
0000
0001
0000
,
1000
0000
0001
0000
,
0010
0000
0100
0000
,
1000
0000
0100
0000
,
0001
0000
1000
0000
,
0001
0000
1000
0000
,
0100
0000
0010
0000
,
0001
0000
1000
0000
,
0100
0000
1000
0000
,
0001
0000
0010
0000
,
0001
0000
1000
0000
,
0001
0000
0000
0000
,
1001
1000
0000
0000
,
0001
0001
0000
0000
,
1000
1000
0000
0000
,
0001
0001
0000
0000
,
0100
0100
0000
0000
,
0010
0010
0000
0000
,
0100
0100
0000
0000
,
0010
0010
0000
0000
,
1001
1001
0000
0000
,
0001
0000
1000
0000
,
0001
0000
1000
0000
,
0001
0000
1000
0000
,
0100
0000
0010
0000
,
0100
0000
0010
0000
,
0100
0000
0001
0000
,
1000
0000
0010
0000
,
1001
0000
0000
0000
;

//---------------dance-single - ----------------
#NOTES:
     dance-single:
     :
     Medium:
     6:
     0.459,0.450,0.493,0.255,0.000,300.000,60.000,31.000,0.000,0.000:
1000
1100
2200
3300
,
0001
0101
0202
0303
,
0010
1010
2020
3030
,
0100
0101
0202
0303
,
1000
1100
0202
0303
,
0001
0101
2200
3300
,
1000
1010
0022
0033
,
0001
0011
2020
3030
,
1001
0000
0100
0010
0100
0000
1000
0000
,
1100
0001
0101
1000
,
1010
0001
0011
1000
,
0101
0001
1100
0010
,
0101
0010
1100
1000
,
0011
0001
1010
0001
,
0101
1000
1100
0001
,
0110
1001
0110
1001
,
1000
0100
1000
0000
0100
0010
0100
0000
,
0010
0001
0010
0000
0001
1000
0001
0000
,
1000
0001
0100
0000
1000
0001
0100
0000
,
0001
1000
0100
0000
0001
1000
0100
0000
,
0010
0001
0100
0000
0010
0001
0100
0000
,
0010
1000
0100
0000
0010
1000
0100
0000
,
1000
0100
1000
0000
0001
0100
0001
0000
,
1000
0100
1000
0000
0001
0100
0001
0000
,
1001
1100
0202
0303
,
2000
3100
0002
0103
,
2000
3100
0002
0103
,
1000
0100
0010
0000
0001
0010
0100
0000
,
1000
0100
0010
0000
0001
0010
0100
0000
,
1000
0001
0010
0000
1000
0001
0010
0000
,
0001
1000
0010
0000
0001
1000
0010
0000
,
1000
0100
0001
0000
0001
0100
1000
0000
,
2002
0000
3003
0000
1000
0001
1000
0000
,
0001
0001
0100
0100
,
0010
0010
1000
0100
,
0001
0100
1000
0010
,
0011
0000
0010
0001
1000
0000
0100
0000
,
0010
0001
0100
0010
,
1000
0100
1000
0100
,
0010
0001
0010
0001
,
1100
0000
1000
0100
1000
0000
0100
0000
,
1000
0000
0001
0100
0001
0000
0100
0000
,
0001
0000
1000
0010
1000
0000
0010
0000
,
1000
0000
0001
0010
0001
0000
0010
0000
,
1001
0000
1000
0100
0001
0000
0100
0000
,
1000
0000
0001
0100
0001
0000
1000
0000
,
0100
0000
0010
0001
0010
0000
0100
0000
,
1000
0000
0001
1000
0002
0000
1003
0000
,
1001
0000
0100
0010
0100
0000
0001
0000
,
1100
0001
0101
1000
,
1100
0001
0101
1000
,
1010
0001
0011
1000
,
1010
0010
0110
0100
,
0101
0110
1010
0101
,
1100
0011
1100
0101
,
2200
3300
0202
0303
,
1000
0100
0010
0000
1000
0100
0010
0000
,
0001
0010
0100
0000
0001
0010
0100
0000
,
1000
0001
0100
0000
1000
0001
0010
0000
,
0001
1000
0100
0000
0001
1000
0010
0000
,
0010
1000
0010
0000
0010
0001
0010
0000
,
0010
0100
0010
0000
0010
1000
0001
0000
,
0001
1000
0100
0000
1000
0100
0001
0000
,
0001
0100
1000
0000
1000
1000
0001
0001
,
2002
0000
3003
0000
;
