#TITLE:Xepher (Long Version);
#SUBTITLE:;
#ARTIST:Tatsh;
#TITLETRANSLIT:;
#SUBTITLETRANSLIT:;
#ARTISTTRANSLIT:;
#CREDIT:;
#BANNER:xepher.png;
#BACKGROUND:xepher-bg.png;
#LYRICSPATH:;
#CDTITLE:kykaCD.png;
#MUSIC:Xepher (Long).mp3;
#OFFSET:-0.381;
#SAMPLESTART:70.840;
#SAMPLELENGTH:12.000;
#SELECTABLE:YES;
#BPMS:0.000=85.000,26.000=170.000,178.000=85.500,220.000=170.000,368.000=85.000,386.000=170.000,426.000=165.000,430.000=170.000;
#STOPS:;
#BGCHANGES:;
// cache tags:
#FIRSTBEAT:0.000;
#LASTBEAT:462.000;
#SONGFILENAME:Songs/juju step2/853xepher_long/xepher.sm;
#HASMUSIC:1;
#HASBANNER:1;
#MUSICLENGTH:205.016;
// end cache tags

//---------------dance-single - challenge----------------
#NOTES:
     dance-single:
     challenge:
     Challenge:
     11:
     0.816,0.958,0.961,0.702,0.593,830.000,197.000,144.000,0.000,0.000:
2002
0000
3003
0000
0200
0000
0320
0000
2030
0000
0000
3002
0203
0000
0000
0000
,
0320
0000
2030
3200
0320
0032
0203
0320
,
2030
0000
3002
0203
0302
0000
2003
3200
,
0320
0032
0203
0320
,
2030
0000
0000
0000
0000
3020
0230
0302
,
2003
3200
0320
0032
0203
0000
0000
0000
,
0320
0000
0000
1000
0000
0000
1030
0100
1000
0010
0100
0001
,
1000
0001
0100
0001
0010
0001
0100
0010
1000
0100
1000
0010
,
0100
0001
0010
0001
0100
1000
0100
0001
0010
0001
0100
0010
,
1000
0100
0010
0100
1000
0010
0100
0001
0010
0001
0100
0001
,
1000
0100
1000
0010
0100
0001
1000
0010
0100
0010
1000
0001
,
0100
0001
0010
0001
0100
0001
1000
0100
1000
0010
0100
0001
,
1000
0001
0100
0001
0010
0001
0220
0000
0000
0000
0000
0000
,
0000
0000
0000
0000
0000
0000
0000
0000
0000
0330
0000
0000
0100
0000
0001
0000
1000
0000
0001
0000
0100
0000
0010
0000
,
1000
0100
0010
0001
0100
0001
2002
0000
0000
0000
0000
0000
,
0000
0000
0000
3003
1000
0001
2002
0000
0000
0000
0000
0000
,
0000
3003
2200
3300
0220
0000
0000
0330
,
2002
0000
0000
3003
2200
0000
0000
3300
,
0220
0000
0000
0330
2002
0000
0000
3003
,
0202
0000
0000
0303
2002
0000
0000
0000
,
0000
0000
0000
3003
2020
0000
0000
0000
,
0000
0000
0000
3030
2200
0000
0000
0000
,
0000
0000
0000
3300
2002
0000
0000
3003
,
0220
0000
0000
0330
2002
0000
0000
0000
,
0000
0000
0000
0000
,
0000
0000
0000
0000
0000
0000
3003
0000
1100
0000
0000
0101
0000
0000
1100
0000
,
0000
0101
0000
0000
1100
0000
0000
0000
0011
0000
0000
1010
0000
0000
0011
0000
,
0000
1010
0000
0000
0011
0000
1010
0000
0011
0000
0000
0110
0000
0000
1100
0000
,
0000
0110
0000
0000
0001
1000
1001
0000
0001
0000
0100
0000
0010
0000
1000
0100
,
0000
1000
0010
0100
0001
1000
0100
0010
1001
0000
0000
1100
0000
0000
0110
0000
,
0000
1001
0000
0000
0011
0000
0000
0000
0101
0000
0000
1001
0000
0000
1100
0000
,
0000
0110
0000
0000
1001
0000
0011
0000
1001
0000
0000
1100
0000
0000
0110
0000
,
0000
1001
0000
0000
0010
0001
0011
0000
1000
0000
0100
0000
0010
0000
0100
0000
,
1000
0010
0001
0010
1000
0100
0010
0001
1000
0000
0000
0000
0101
0000
0000
0000
,
1100
0000
0010
0001
0000
0010
0001
0000
1001
0000
0000
0000
0101
0000
0000
0000
,
1000
0010
0100
0010
1001
0000
1100
0000
,
0110
0000
0010
1000
0000
0001
0100
0000
0001
0000
0010
0000
0100
0000
1000
0000
,
0100
1000
0000
1000
0000
1000
0010
0000
0110
0000
0000
0000
1001
0000
0000
0000
,
0101
0000
0001
1000
0000
0100
0010
0000
0011
0000
0000
0000
0101
0000
0000
0000
,
1010
0000
1000
0100
0000
0010
0100
0000
1001
0000
1100
0000
0110
0000
0010
1000
,
0000
0010
0100
0000
1001
0000
0101
0000
1001
0000
0100
0000
1000
0000
0010
0000
,
0200
0000
0310
0000
1100
0011
1010
0110
,
1001
0000
0101
0000
1001
0000
0101
0000
1000
0100
1000
0010
0100
0001
0010
0001
,
0100
0010
1000
0100
0010
0001
0100
0001
2002
0000
0000
0000
0000
0000
3003
0000
,
0220
0000
0330
0000
2200
0000
3300
0000
0020
0000
0000
0032
0203
0000
0000
0000
,
0320
0000
2030
3200
0320
0032
0203
0320
,
2030
0000
3002
0203
0302
0000
0203
0320
,
2030
3200
0320
0032
,
0203
0000
0000
0000
0000
0320
2030
3200
,
0320
0032
0203
0320
2030
0000
0000
0000
,
3002
0000
0203
0000
,
0320
2030
3200
0000
,
0320
0000
0032
0000
,
0203
0000
0320
0000
,
2030
0000
0000
0000
3002
0000
0100
0003
,
1001
0000
0000
1100
0000
0000
0110
0000
0000
1001
0000
0000
0011
0000
0000
0000
,
0101
0000
0000
1001
0000
0000
1100
0000
0000
0110
0000
0000
1001
0000
0011
0000
,
0101
0000
0000
1001
0000
0000
1100
0000
0000
0110
0000
0000
1000
0001
1100
0000
,
0001
0000
0100
0000
0001
0000
1000
0100
0000
0010
0100
0010
0001
1000
0001
0100
,
1010
0000
0000
1010
0000
0000
0110
0000
0000
0110
0000
0000
1001
0000
0000
0000
,
0101
0000
0000
0011
0000
0000
1100
0000
0000
0110
0000
0000
1001
0000
0011
0000
,
0101
0000
0000
0110
0000
0000
1010
0000
0000
1100
0000
0000
0101
0000
0000
0000
,
0001
0000
0100
0000
0010
0000
1000
0000
0010
0100
0010
1000
0001
0100
0001
0010
,
0001
0000
0000
0000
1010
0000
0000
0000
0011
0000
0100
1000
0000
0100
1000
0000
,
1001
0000
1010
0000
0001
0100
0010
0100
,
1001
0000
0000
0000
0011
0000
0000
0000
0110
0000
0100
0001
0000
1000
0010
0000
,
1000
0000
0100
0000
0010
0000
0001
0000
0010
0001
0000
0001
0000
0001
0100
0000
,
0110
0000
0000
0000
1001
0000
0000
0000
1010
0000
1000
0001
0000
0010
0100
0000
,
1100
0000
0000
0000
1010
0000
0000
0000
0101
0000
0001
0010
0000
0100
0010
0000
,
1001
0000
0011
0000
0110
0000
0100
0001
0000
0100
0010
0000
1001
0000
1010
0000
,
1001
0010
0001
0100
0020
0000
0130
0000
,
0011
1100
0101
0110
1001
1010
1001
1010
,
0001
0010
0001
0100
0010
1000
0100
1000
0010
0100
0001
0010
0100
1000
0010
1000
,
2002
0000
0000
3003
0220
0330
0022
0033
,
1000
0001
0100
0000
0010
0000
0001
0000
0010
0000
0001
0000
0100
0000
0010
0000
,
1000
0010
0100
0000
0010
0000
0001
0000
0100
0000
0001
0000
1000
0000
0001
0000
,
0100
0001
1000
0000
1100
0000
0100
0000
0010
0001
1000
0000
1010
0000
0001
0000
,
0100
1000
0001
0000
1000
0000
0100
0000
0010
0000
0100
0000
1000
0000
0010
0000
,
0100
0010
0001
0000
1000
0000
0001
0000
0100
0000
0001
0000
0010
0000
0001
0000
,
0100
0001
0010
0000
1000
0000
0001
0000
0010
0000
0100
0000
1000
0000
0010
0000
,
0100
0010
0001
0000
1000
0000
0001
0000
0100
0000
0001
0000
0010
0000
0001
0000
,
0100
1000
0001
0000
1000
0000
0100
0000
0010
0000
0001
0000
0100
0000
0001
0000
,
1000
1001
0101
1001
,
1100
0110
1001
0101
,
1100
0000
0000
1100
0000
0000
1001
0000
0000
1001
0000
0000
0110
0000
0000
0000
,
0011
0000
0000
1010
0000
0000
0101
0000
0000
1001
0000
0000
0110
0000
1010
0000
,
0011
0000
0000
1001
0000
0000
1100
0000
0000
0101
0000
0000
0001
0010
0101
0000
,
0010
0000
0001
0000
1000
0000
0100
0000
1000
0001
1000
0100
0010
0001
0010
1000
,
0011
0000
0000
0011
0000
0000
1001
0000
0000
1001
0000
0000
0110
0000
0000
0000
,
1100
0000
0000
0101
0000
0000
1010
0000
0000
1001
0000
0000
0110
0000
0101
0000
,
1100
0000
0000
1001
0000
0000
0011
0000
0000
1010
0000
0000
1000
0100
1010
0000
,
0100
0000
1000
0000
0001
0000
0010
0000
0001
1000
0001
0010
0100
1000
0100
0001
,
0200
0302
2003
3200
0320
0230
2300
3002
,
2003
3200
0320
0032
0203
0302
2003
3002
,
0103
0001
1000
0100
0010
0100
1000
0010
0100
0001
0010
0001
0100
0010
1000
0100
,
0010
0001
0100
0001
1000
0010
0100
0001
1000
0001
0100
0001
0010
0001
0100
0010
,
1001
0000
0110
0000
1100
0000
0101
0000
0001
0010
0100
1000
0001
0100
0010
1000
0001
0000
0010
0000
1000
0000
0000
0000
0010
0000
0000
0000
0100
0000
0000
0000
,
0001
0000
0010
0000
0001
0000
0100
0000
0001
0010
1000
0000
0100
0000
0010
0000
,
0001
0000
0100
0000
0001
0000
0100
0000
0010
0100
1000
0000
0001
0000
0100
0000
,
0010
0000
1000
0000
0100
0000
1000
0000
0001
0010
1000
0000
1100
0000
0010
0000
,
0001
1000
0100
0000
0110
0000
0010
0000
1000
0010
1000
0000
0001
0000
0100
0000
,
0001
0000
0001
0000
1000
0000
0100
0000
0010
0100
0010
0000
0001
0000
1000
0000
,
0010
0000
0010
0000
1000
0000
0100
0000
1000
0001
0100
0000
0001
0000
0010
0000
,
0001
0000
0100
0000
0010
0000
1000
0000
0100
1000
0010
0000
0100
0000
0001
0000
,
1000
0000
0001
0000
0100
0000
0010
0000
1000
0100
0010
0000
0011
0000
0000
0000
,
0001
1000
0001
0000
1100
0000
0000
0000
0010
0100
0001
0000
1100
0000
0000
0000
,
0001
0100
0001
0000
1001
0000
0010
0000
2002
0000
0000
0000
0000
0000
3003
0000
,
2200
0000
0000
0000
0000
0000
3300
0000
0001
0010
0100
1000
0010
0000
0100
0010
,
0000
0010
0100
0000
0001
0000
1000
0000
0001
0100
0001
1000
0100
0000
0010
0001
,
0000
0001
0010
0000
0100
0000
0010
0000
0001
1000
0100
0010
0001
0000
1000
0001
,
0000
0001
1000
0000
0010
0000
1000
0000
0100
0001
0100
1000
0100
0000
0010
0001
,
0000
0001
0010
0000
0100
0000
1000
0000
0010
1000
0010
0100
0010
0000
1000
0100
,
0000
0100
1000
0000
1001
0000
2002
0000
0000
0000
0000
0000
0000
0000
0000
0000
,
0000
0000
0000
0000
0000
0000
3003
0000
1000
0100
0010
0001
1000
0010
0100
0001
,
1000
0100
0001
0100
1000
0010
0001
0010
2002
0000
0000
0000
0000
0000
0000
0000
,
0000
0000
3003
0000
;
