#TITLE:Central White;
#SUBTITLE:Megaman X8;
#ARTIST:Yuko Komiyama, Akemi Kimura;
#TITLETRANSLIT:;
#SUBTITLETRANSLIT:;
#ARTISTTRANSLIT:;
#CREDIT:;
#BANNER:Central White.png;
#BACKGROUND:Central White-bg.png;
#LYRICSPATH:;
#CDTITLE:kn33growzw9.png;
#MUSIC:Central White.mp3;
#OFFSET:-0.024;
#SAMPLESTART:75.511;
#SAMPLELENGTH:12.000;
#SELECTABLE:YES;
#BPMS:0.000=175.000;
#STOPS:;
#BGCHANGES:;
// cache tags:
#FIRSTBEAT:1.000;
#LASTBEAT:421.750;
#SONGFILENAME:Songs/VGMP 2/Central White (Kn33grow)/Central White.sm;
#HASMUSIC:1;
#HASBANNER:1;
#MUSICLENGTH:146.888;
// end cache tags

//---------------dance-single - Blank----------------
#NOTES:
     dance-single:
     Blank:
     Challenge:
     13:
     1.000,1.000,1.000,0.980,1.000,1191.000,299.000,144.000,0.000,50.000:



0000
0000
0000
0000
1001
0100
1010
0001
1100
0000
1001
0100
1010
0001
1100
0000
,
0002
0000
0000
0000
0000
0000
0000
0003
2100
0000
0000
0000
0001
0000
3000
0000
1001
0000
0010
0000
0001
0000
0000
0000
1000
0000
0000
0000
1000
0000
0100
0000
,
0011
0100
1000
0000
0010
0000
0100
0000
1001
0000
0100
0000
1000
0000
0001
0000
,
1100
0000
0000
0100
0000
0000
0001
0000
0000
0000
0000
0000
0010
0000
0000
0000
0000
0000
0100
0000
0000
0000
0000
0000
1010
0000
0000
0010
0000
0000
0100
0000
0000
0000
0000
0000
1000
0000
0000
0000
0000
0000
1000
0000
0000
0200
0000
0300
,
0011
0100
1000
0000
0100
0000
1000
0100
0011
1000
0100
0000
0010
0000
0100
0000
,
1100
0001
1100
0000
1002
0000
0100
0003
1010
1000
0001
0000
0100
0000
0001
0000
,
0110
1000
0010
0000
0001
0000
0100
0000
1010
0000
0100
0000
1000
0000
0100
0010
,
1001
0100
0010
0000
0001
0000
0100
0000
0011
0010
0100
0000
1000
0000
0010
0000
,
0101
0100
1000
0000
0012
0000
0100
0003
0011
0100
1000
0000
1001
0100
0011
1000
,
0110
0001
0010
0100
2001
0000
0010
3000
1100
0100
0010
0000
0100
0000
0001
0010
,
1100
0010
0001
0000
0100
0000
0010
0000
1001
0000
0010
0000
0100
0000
1000
0010
,
0101
1000
0100
0000
0010
0000
0100
0000
1010
0000
0001
0000
0010
0000
0001
0001
,
1100
0010
0001
0000
0001
0000
0010
0000
1100
0100
0010
0000
0001
0000
0100
0010
,
1100
0010
1100
0000
2001
0000
0010
3000
1100
0100
0001
0000
1000
0000
0001
0000
,
1010
0001
0100
0000
1000
0000
0010
0000
1001
0000
0010
0000
0001
0000
0010
0100
,
1001
0100
0010
0000
1000
0000
0100
0000
1010
0000
0100
0000
1000
0000
0010
0000
,
0101
0000
0100
0000
1000
0000
0000
0000
0001
0000
0000
0000
0100
0000
0000
0000
1001
0000
0010
0000
2000
0000
0100
3000
0011
0000
0100
0000
1001
0000
0100
0000
,
0011
0000
0200
0300
1000
0000
0100
0000
0012
0000
0000
0000
0100
0000
0003
0000
1010
0000
0010
0000
0001
0000
0000
0000
0100
0000
0000
0000
0001
0000
0100
0000
,
1001
0100
0001
0000
1000
0000
0010
0000
0101
0000
0010
0000
0001
0000
0001
0010
,
1100
0001
0100
0000
0001
0000
1000
0000
0101
0000
1000
0000
0001
0000
0100
0100
,
1001
0010
0001
0000
0010
0000
0001
0000
0110
0100
1000
0000
1000
0000
0100
0000
,
0011
0100
1001
0000
2001
0000
0010
3000
0101
1000
0001
0000
0100
0000
0010
0000
,
0011
0100
1000
0000
0100
0000
1000
0000
0110
0000
0001
0000
1000
0000
0100
0010
,
1001
0001
0100
0000
0001
0000
0100
0000
1010
0000
0001
0000
1000
0000
0010
0000
,
0101
0000
0100
0000
1000
0000
0000
0000
0010
0000
0100
0000
0010
0000
0100
0000
1000
0000
0102
0003
1000
0000
0100
0000
0010
0000
0100
0000
0010
0000
2100
3000
,
0011
1000
0011
1000
0012
0000
0100
0003
1010
0000
0100
0000
1000
1000
0001
0000
,
1010
0000
0100
0100
1000
0000
0100
0000
1010
0000
0100
0000
1000
1000
0001
0000
,
1020
0000
0000
0030
0200
0000
0000
0300
2000
0000
0000
3000
0020
0000
0000
0030
0201
0000
0000
0300
2000
0000
0000
0000
0001
0000
0000
0000
0010
0000
0000
0000
,
0101
0000
0010
0000
0100
0000
0000
3000
1002
0000
0000
0000
0100
0000
0000
0000
1100
0000
0000
0003
0020
0000
0000
0000
0100
0000
0000
0000
1000
0000
0000
0030
,
2100
0000
0010
0000
0001
0000
0000
3000
0201
0000
0000
0000
0010
0000
0000
0000
1001
0000
0000
0000
0010
0000
0000
0000
0001
0000
0001
0000
0010
0000
0000
0000
,
1001
0000
0000
0000
0010
0000
0000
0300
2001
0000
0000
0000
0010
0000
0000
0000
0101
0000
0000
0000
0010
0000
0000
0000
0001
0000
0001
0000
0010
0000
0000
3000
,
0021
0000
0000
0030
0200
0000
0000
0300
2000
0000
0000
3000
0200
0000
0000
0300
1002
0000
0000
0003
0020
0000
0000
0000
1000
0000
0000
0000
0100
0000
0000
0000
,
1001
0000
0100
0000
1000
0000
0000
0030
2001
0000
0000
0000
0010
0000
0000
0000
0101
0000
0000
3000
0002
0000
0000
0000
1010
0000
1010
0000
0000
0000
1010
0000
,
1010
0000
0100
0000
1010
0000
0100
0003
0020
0000
0000
0000
0001
0030
0200
0000
1001
0000
0000
0300
2000
0000
0000
0000
0010
0000
0010
0000
0001
0000
0000
0000
,
0101
0000
0000
3000
0020
0000
0000
0000
1000
0000
0000
0000
0100
0000
0000
0000
1001
0000
0000
0000
0100
0000
0000
0000
1000
0000
1000
0000
0100
0000
0000
0000
,
1001
0000
0000
0000
0000
0000
0000
0000
0000
0000
0000
0000
0000
0000
0000
0000
0000
0000
0000
0000
0000
0000
0000
0000
0100
0000
0000
0000
0000
0000
0000
0000
0000
0000
0000
0000
0000
0000
0000
0000
0000
0000
0030
0000
0000
0000
0000
0000
2000
0000
0000
0000
0000
0000
0000
0000
0000
0000
0000
0000
0000
0000
0000
0000
0000
0000
0000
0000
0000
0000
0000
0000
0010
0000
0000
0000
0000
0000
0000
0000
3000
0000
0000
0000
0200
0000
0000
0000
0000
0000
0000
0000
0000
0000
0000
0000
1010
0000
0000
0000
0000
0000
0000
0000
0000
0000
0000
0000
0000
0000
0000
0000
0000
0000
0300
0000
0000
0000
0000
0000
0002
0000
0000
0000
0000
0000
0000
0000
0000
0000
0000
0000
0000
0000
0000
0000
0000
0000
0000
0000
0000
0000
0000
0000
1000
0000
0000
0000
0000
0000
0000
0000
0000
0000
0000
0000
0000
0000
0000
0000
0000
0000
0000
0000
0000
0000
0000
0000
0010
0000
0000
0000
0000
0000
0000
0000
0000
0000
0000
0000
0000
0000
0000
0000
0000
0000
0000
0000
0000
0000
0000
0000
,
1100
0000
0000
0000
0000
0000
0000
0000
0000
0000
0000
0000
0100
0000
0000
0000
0000
0000
0003
0000
0000
0000
0000
0000
0020
0000
0000
0000
0000
0000
0000
0000
0000
0000
0000
0000
0000
0000
0000
0000
0000
0000
0000
0000
0000
0000
0000
0000
0001
0000
0000
0000
0000
0000
0000
0000
0000
0000
0000
0000
0000
0000
0000
0000
0000
0000
0000
0000
0000
0000
0000
0000
1000
0000
0000
0000
0000
0000
0000
0000
0000
0000
0000
0000
0000
0000
0000
0000
0000
0000
0000
0000
0000
0000
0000
0000
0101
0000
0000
0000
0000
0000
0000
0000
0000
0000
0000
0000
0000
0000
0000
0000
0000
0000
0000
0000
0000
0000
0000
0000
1000
0000
0000
0000
0000
0000
0000
0000
0000
0000
0000
0000
0000
0000
0000
0000
0000
0000
0000
0000
0000
0000
0000
0000
0001
0000
0000
0000
0000
0000
0000
0000
0000
0000
0000
0000
0000
0000
0000
0000
0000
0000
0000
0000
0000
0000
0000
0000
2000
0000
0000
0000
0000
0000
0000
0000
3000
0000
0000
0000
0200
0000
0000
0000
0000
0000
0000
0000
0300
0000
0000
0000
,
1001
0000
0000
0030
0002
0003
0020
0030
0200
0000
0000
0000
1000
0000
0000
0000
0011
0000
0000
0300
2000
0000
0000
0000
0010
0000
0010
3000
0002
0000
0000
0003
,
1002
0000
0000
0000
0010
0000
0000
0000
1000
0000
0000
0000
0100
0000
0000
0000
1010
0000
0000
0000
0100
0000
0000
0000
0010
0000
0010
0003
0200
0000
0000
0300
,
1020
0000
0000
0030
0002
0000
0000
0003
0020
0000
0000
0030
2000
0000
0000
0000
0110
0000
0000
0000
0001
0000
0000
0000
0100
0000
0000
0000
0010
0000
0000
3000
,
0101
0001
1000
0000
0011
1000
0101
1000
0011
0100
1000
0100
0010
0010
0001
0001
,
0100
0000
0000
0000
0000
0000
0000
0000
0000
0000
0000
0000
0100
0000
0000
0000
0000
0000
0000
0000
0000
0000
0000
0000
1000
0000
0000
0000
0000
0000
0000
0000
0000
0000
0000
0000
1000
0000
0000
0000
0000
0000
0000
0000
0000
0000
0000
0000
0011
0000
0000
0000
0000
0000
0000
0000
0000
0000
0000
0000
1000
0000
0000
0000
0000
0000
0000
0000
0000
0000
0000
0000
0011
0000
0000
0000
0000
0000
0000
0000
0000
0000
0000
0000
0000
0000
0000
0000
0000
0000
0000
0000
0000
0000
0000
0000
0000
0000
0000
0000
0000
0000
0000
0000
0000
0000
0000
0000
0000
0000
0000
0000
0000
0000
0000
0000
0000
0000
0000
0000
1100
0000
0000
0000
0000
0000
0000
0000
0000
0000
0000
0000
0001
0000
0000
0000
0000
0000
0000
0000
0000
0000
0000
0000
2100
0000
0000
0000
0000
0000
0000
0000
0000
0000
0000
0000
0000
0000
0000
0000
0000
0000
0000
0000
0000
0000
0000
0000
0002
0000
0000
0000
0003
0000
0000
0000
0000
0000
0000
0000
0000
0000
0000
0000
0000
0000
3000
0000
0000
0000
0000
0000
,
1010
0000
0000
0100
0000
0000
1010
0000
0000
0000
0000
0000
0020
0030
0000
0000
0000
0000
1100
0000
0000
0001
0000
0000
1100
0000
0000
0000
0000
0000
0200
0300
0000
0000
0000
0000
0101
0000
0000
1000
0000
0000
0101
0000
0000
0000
0000
0000
,
0001
0000
0000
0000
0000
0000
0000
0000
0000
0000
0000
0000
0001
0000
0000
0000
0000
0000
0000
0000
0000
0000
0000
0000
0001
0000
0000
0000
0000
0000
0000
0000
0000
0000
0000
0000
0020
0000
0000
0000
0000
0000
0000
0000
0030
0000
0000
0000
1100
0000
0000
0000
0000
0000
0000
0000
0000
0000
0000
0000
0001
0000
0000
0000
0000
0000
0000
0000
0000
0000
0000
0000
1100
0000
0000
0000
0000
0000
0000
0000
0000
0000
0000
0000
0000
0000
0000
0000
0000
0000
0000
0000
0000
0000
0000
0000
0000
0000
0000
0000
0000
0000
0000
0000
0000
0000
0000
0000
0000
0000
0000
0000
0000
0000
0000
0000
0000
0000
0000
0000
1001
0000
0000
0000
0000
0000
0000
0000
0000
0000
0000
0000
0010
0000
0000
0000
0000
0000
0000
0000
0000
0000
0000
0000
1002
0000
0000
0000
0000
0000
0000
0000
0000
0000
0000
0000
0000
0000
0000
0000
0000
0000
0000
0000
0000
0000
0000
0000
0200
0000
0000
0000
0300
0000
0000
0000
0000
0000
0000
0000
0000
0000
0000
0000
0000
0000
0003
0000
0000
0000
0000
0000
,
0110
0000
0000
1000
0000
0000
0110
0000
0000
0000
0000
0000
0000
0000
0000
0000
0000
0000
1001
0000
0000
0010
0000
0000
1001
0000
0000
0000
0000
0000
0002
0003
0000
0000
0000
0000
1100
0000
0000
0001
0000
0000
1100
0000
0000
0000
0000
0000
,
1000
0000
0000
1000
0000
0000
0200
0000
0300
0020
0000
0030
1001
0000
0000
0100
0000
0000
1001
0000
0000
0100
0000
0000
1001
0000
0000
0000
0000
0000
0101
0000
0000
1000
0000
0000
0101
0000
0000
1000
0000
0000
0101
0000
0000
0000
0000
0000
,
2000
0000
3000
0002
0000
0003
0020
0000
0030
0200
0000
0300
1001
0000
0000
0100
0000
0000
1001
0000
0000
0100
0000
0000
1001
0000
0000
0000
0000
0000
0110
0000
0000
1000
0000
0000
0110
0000
0000
1000
0000
0000
0110
0000
0000
0000
0000
0000
,
2000
0000
0000
0000
0000
0000
0000
3000
0012
0000
0000
0000
1000
0000
0003
0000
0011
0000
0001
0000
1000
0000
0000
0000
0100
0000
0000
0000
0010
0000
0100
0000
,
1010
0100
0010
0000
0001
0000
0100
0000
0101
0010
0001
0000
1000
0100
1000
0000
,
0101
0010
0100
0000
1000
0000
0100
0000
0011
0010
0100
0000
0010
0000
0001
0010
,
1100
0010
0100
0000
1000
0000
0100
0000
1001
1000
0100
0000
0010
0010
0001
0000
,
1100
0100
0010
0000
1002
0000
0100
0003
0011
0100
1000
0000
0100
0000
0010
0000
,
1001
0010
0001
0000
1000
0100
1000
0010
1001
0010
0100
0000
0001
0010
0001
0100
,
1001
0100
0010
0000
0010
0000
0100
0000
1001
0000
0001
0001
0010
0000
0100
0000
,
1001
1000
0100
0000
0001
0000
0010
0000
0101
0000
1000
0000
2101
0000
0010
0000
,
0101
0000
0010
0000
0100
0000
0000
3000
0001
0000
0010
0000
0100
0000
0001
0000
1010
0000
0100
0000
1000
0000
0010
0000
0100
0000
1000
0000
0101
0000
0010
0000
,
0001
1000
0001
0010
0101
1000
0100
0010
1100
0001
0100
0010
0001
0010
0100
1000
,
0101
1000
0100
0010
0001
0010
1100
0001
1000
0100
0001
0010
1001
0100
1000
0010
,
0100
1001
0100
0010
0001
0010
1000
0001
1010
0100
1000
0100
0010
0001
1100
0010
,
0001
0010
0100
0001
1010
0100
0010
0001
1010
0100
1000
0100
0010
0100
1000
0100
,
1010
0000
0000
0001
0000
0000
0010
0000
0000
0100
0000
0000
1000
0000
0000
0100
0000
0000
0011
0000
0000
1000
0000
0000
0001
0000
0010
0000
0100
0000
1000
0000
0001
0000
0010
0000
1000
0000
0100
0000
0010
0000
0001
0000
0010
0000
0100
0000
,
1000
0000
0000
0000
0000
0000
0001
0010
0100
1000
0001
0010
1000
0100
0010
0001
1000
0100
0001
0010
0100
1000
0001
0010
,
1000
0100
0010
0001
1000
0100
0001
0010
0100
1000
0001
0010
1000
0100
0010
0001
1000
0100
0001
0010
0100
1000
0001
0010
,
1000
0100
0010
0001
1000
0100
0001
0010
0100
1000
0100
0010
0001
0010
0100
1000
0001
0010
0100
1000
0001
0010
0100
1000
,
0001
0010
0100
1000
0001
0010
1000
0100
0010
0001
1000
0100
0001
0010
0100
1000
0001
0010
1000
0100
0010
0001
1000
0100
,
0001
0010
0100
1000
0001
0010
1000
0100
0010
0001
1000
0100
0010
0001
0010
0100
1000
0100
0012
0000
0000
0000
0000
0000
,
1010
0000
0000
0000
0000
0000
0000
0000
0000
0000
0000
0000
1010
0000
0000
0003
2010
0000
0000
3000
0200
0000
0000
0300
0020
0000
0000
0030
0002
0000
0000
0003
,
0200
0000
0000
0300
2001
0000
0001
3000
0210
0000
0000
0000
0001
0000
0300
0000
1010
0000
1000
0000
0100
0000
0000
0000
0001
0000
0000
0000
0100
0000
1000
0000
,
0101
0010
0100
0000
1000
0000
0010
0000
0101
0000
0010
0000
1000
0000
0001
0100
,
1001
0010
0001
0000
1000
0000
0100
0000
0011
0000
1000
0000
0001
0000
1000
1000
,
0101
0010
0001
0000
1000
0000
0001
0000
0110
0100
1000
0000
0001
0000
0010
0100
,
1001
0100
0011
0000
1002
0000
0010
0003
0101
0100
1000
0000
0010
0000
0100
0000
,
1010
0100
0001
0000
1000
0000
0100
0000
0011
0000
0100
0000
0001
0000
0100
0010
,
1001
0010
0100
0000
0001
0000
0010
0000
0101
0000
0010
0000
0001
0000
0100
0000
,
1010
0000
0010
0000
0001
0000
0000
0000
1000
0000
0000
0000
0100
0000
0000
0000
0011
0000
0100
0000
2000
0000
0010
3000
0101
0000
0010
0000
1100
0000
0001
0000
,
0110
0000
2000
3000
0100
0000
0010
0000
2001
0000
0000
0000
0010
0000
3000
0000
0101
0000
0100
0000
1000
0000
0000
0000
0010
0000
0000
0000
1000
0000
0010
0000
,
1001
0010
1000
0000
0001
0000
0100
0000
1010
0000
0100
0000
0001
0000
1000
0100
,
0011
0100
0010
0000
1000
0000
0001
0000
1010
0000
0100
0000
0001
0000
0010
0010
,
1001
0100
1000
0000
0100
0000
1000
0000
0101
0001
0010
0000
0010
0000
0100
0000
,
1100
0000
0001
0000
0110
0000
0000
0000
1002
0000
0000
0000
0100
0000
0000
0003
1010
0000
0001
0000
0010
0000
0000
0000
1000
0000
0000
0000
0100
0000
0000
0000
,
1100
0010
0001
0000
0010
0000
0001
0000
1010
0000
0001
0000
1000
0000
0010
0100
,
1001
1000
0010
0000
1000
0000
0010
0000
0101
0000
1000
0000
0001
0000
0100
0000
,
1010
0000
0010
0000
0001
0000
0000
0000
0100
0000
0010
0000
0100
0000
0010
0000
0001
0000
2010
3000
0001
0000
0010
0000
0100
0000
0010
0000
0100
0000
0012
0003
,
1100
0001
1100
0001
2100
0000
0010
3000
0101
0000
0100
0000
1000
1000
0001
0000
,
1010
0000
0100
0100
1000
0000
0100
0000
1010
0000
0100
0000
1000
1000
0001
0000
,
0201
0000
0000
0300
2000
0000
0000
3000
0002
0000
0000
0003
0200
0000
0000
0300
2010
0000
0000
3000
0002
0000
0000
0000
0010
0000
0000
0000
0100
0000
0000
0000
,
1010
0000
0100
0000
1000
0000
0000
0003
0021
0000
0000
0000
1000
0000
0000
0000
1001
0000
0000
0030
0200
0000
0000
0000
1000
0000
0000
0000
0001
0000
0000
0300
,
1002
0000
0100
0000
0010
0000
0000
0003
2010
0000
0000
0000
0100
0000
0000
0000
0011
0000
0000
0000
0100
0000
0000
0000
0010
0000
0010
0000
0100
0000
0000
0000
,
0011
0000
0000
0000
0100
0000
0000
3000
0012
0000
0000
0000
0100
0000
0000
0000
1010
0000
0000
0000
0100
0000
0000
0000
0010
0000
0010
0000
0100
0000
0000
0003
,
0210
0000
0000
0300
2000
0000
0000
3000
0002
0000
0000
0003
2000
0000
0000
3000
0021
0000
0000
0030
0200
0000
0000
0000
0001
0000
0000
0000
1000
0000
0000
0000
,
0011
0000
1000
0000
0001
0000
0000
0300
0012
0000
0000
0000
0100
0000
0000
0000
1010
0000
0000
0003
2000
0000
0000
0000
0101
0000
0101
0000
0000
0000
0101
0000
,
0101
0000
0010
0000
0101
0000
0010
3000
0200
0000
0000
0000
1000
0300
0020
0000
0101
0000
0000
0030
0002
0000
0000
0000
0100
0000
0100
0000
0010
0000
0000
0000
,
1010
0000
0000
0003
0200
0000
0000
0000
0001
0000
0000
0000
1000
0000
0000
0000
0011
0000
0000
0000
1000
0000
0000
0000
0001
0000
0001
0000
1000
0000
0000
0000
,
0011
0000
0000
0000
0000
0000
0000
0000
0000
0000
0000
0000
0000
0000
0000
0000
0000
0000
0000
0000
0000
0000
0000
0000
1000
0000
0000
0000
0000
0000
0000
0000
0000
0000
0000
0000
0000
0000
0000
0000
0000
0000
0300
0000
0000
0000
0000
0000
0002
0000
0000
0000
0000
0000
0000
0000
0000
0000
0000
0000
0000
0000
0000
0000
0000
0000
0000
0000
0000
0000
0000
0000
0100
0000
0000
0000
0000
0000
0000
0000
0003
0000
0000
0000
2000
0000
0000
0000
0000
0000
0000
0000
0000
0000
0000
0000
0101
0000
0000
0000
0000
0000
0000
0000
0000
0000
0000
0000
0000
0000
0000
0000
0000
0000
3000
0000
0000
0000
0000
0000
0020
0000
0000
0000
0000
0000
0000
0000
0000
0000
0000
0000
0000
0000
0000
0000
0000
0000
0000
0000
0000
0000
0000
0000
1000
0000
0000
0000
0000
0000
0000
0000
0000
0000
0000
0000
0000
0000
0000
0000
0000
0000
0000
0000
0000
0000
0000
0000
0100
0000
0000
0000
0000
0000
0000
0000
0000
0000
0000
0000
0000
0000
0000
0000
0000
0000
0000
0000
0000
0000
0000
0000
,
1001
0000
0000
0000
0000
0000
0000
0000
0000
0000
0000
0000
1000
0000
0000
0000
0000
0000
0030
0000
0000
0000
0000
0000
0200
0000
0000
0000
0000
0000
0000
0000
0000
0000
0000
0000
0000
0000
0000
0000
0000
0000
0000
0000
0000
0000
0000
0000
0010
0000
0000
0000
0000
0000
0000
0000
0000
0000
0000
0000
0000
0000
0000
0000
0000
0000
0000
0000
0000
0000
0000
0000
0001
0000
0000
0000
0000
0000
0000
0000
0000
0000
0000
0000
0000
0000
0000
0000
0000
0000
0000
0000
0000
0000
0000
0000
1010
0000
0000
0000
0000
0000
0000
0000
0000
0000
0000
0000
0000
0000
0000
0000
0000
0000
0000
0000
0000
0000
0000
0000
0001
0000
0000
0000
0000
0000
0000
0000
0000
0000
0000
0000
0000
0000
0000
0000
0000
0000
0000
0000
0000
0000
0000
0000
0010
0000
0000
0000
0000
0000
0000
0000
0000
0000
0000
0000
0000
0000
0000
0000
0000
0000
0000
0000
0000
0000
0000
0000
0002
0000
0000
0000
0000
0000
0000
0000
0003
0000
0000
0000
2000
0000
0000
0000
0000
0000
0000
0000
3000
0000
0000
0000
,
0011
0000
0000
0300
0020
0030
0200
0300
2000
0000
0000
0000
0010
0000
0000
0000
0101
0000
0000
3000
0002
0000
0000
0000
1000
0000
1000
0003
0020
0000
0000
0030
,
0120
0000
0000
0000
1000
0000
0000
0000
0001
0000
0000
0000
1000
0000
0000
0000
0101
0000
0000
0000
1000
0000
0000
0000
0100
0000
0100
0030
2000
0000
0000
3000
,
0201
0000
0000
0300
0020
0000
0000
0030
0200
0000
0000
0300
0002
0000
0000
0000
1100
0000
0000
0000
0010
0000
0000
0000
1000
0000
0000
0000
0100
0000
0000
0003
,
1100
0100
0010
0000
0101
1000
0011
0100
1001
0010
0100
1000
0001
0001
0010
0010
,
0100
0000
0000
0000
0000
0000
0000
0000
0000
0000
0000
0000
0100
0000
0000
0000
0000
0000
0000
0000
0000
0000
0000
0000
1000
0000
0000
0000
0000
0000
0000
0000
0000
0000
0000
0000
1000
0000
0000
0000
0000
0000
0000
0000
0000
0000
0000
0000
0011
0000
0000
0000
0000
0000
0000
0000
0000
0000
0000
0000
0100
0000
0000
0000
0000
0000
0000
0000
0000
0000
0000
0000
0011
0000
0000
0000
0000
0000
0000
0000
0000
0000
0000
0000
0000
0000
0000
0000
0000
0000
0000
0000
0000
0000
0000
0000
0000
0000
0000
0000
0000
0000
0000
0000
0000
0000
0000
0000
0000
0000
0000
0000
0000
0000
0000
0000
0000
0000
0000
0000
1001
0000
0000
0000
0000
0000
0000
0000
0000
0000
0000
0000
0010
0000
0000
0000
0000
0000
0000
0000
0000
0000
0000
0000
2001
0000
0000
0000
0000
0000
0000
0000
0000
0000
0000
0000
0000
0000
0000
0000
0000
0000
0000
0000
0000
0000
0000
0000
0020
0000
0000
0000
0030
0000
0000
0000
0000
0000
0000
0000
0000
0000
0000
0000
0000
0000
3000
0000
0000
0000
0000
0000
,
0101
0000
0000
1000
0000
0000
0101
0000
0000
0000
0000
0000
0200
0300
0000
0000
0000
0000
1001
0000
0000
0010
0000
0000
1001
0000
0000
0000
0000
0000
2000
3000
0000
0000
0000
0000
1010
0000
0000
0001
0000
0000
1010
0000
0000
0000
0000
0000
,
0010
0000
0000
0000
0000
0000
0000
0000
0000
0000
0000
0000
0010
0000
0000
0000
0000
0000
0000
0000
0000
0000
0000
0000
0010
0000
0000
0000
0000
0000
0000
0000
0000
0000
0000
0000
0200
0000
0000
0000
0000
0000
0000
0000
0300
0000
0000
0000
1001
0000
0000
0000
0000
0000
0000
0000
0000
0000
0000
0000
0010
0000
0000
0000
0000
0000
0000
0000
0000
0000
0000
0000
1001
0000
0000
0000
0000
0000
0000
0000
0000
0000
0000
0000
0000
0000
0000
0000
0000
0000
0000
0000
0000
0000
0000
0000
0000
0000
0000
0000
0000
0000
0000
0000
0000
0000
0000
0000
0000
0000
0000
0000
0000
0000
0000
0000
0000
0000
0000
0000
1100
0000
0000
0000
0000
0000
0000
0000
0000
0000
0000
0000
0010
0000
0000
0000
0000
0000
0000
0000
0000
0000
0000
0000
1200
0000
0000
0000
0000
0000
0000
0000
0000
0000
0000
0000
0000
0000
0000
0000
0000
0000
0000
0000
0000
0000
0000
0000
0002
0000
0000
0000
0003
0000
0000
0000
0000
0000
0000
0000
0000
0000
0000
0000
0000
0000
0300
0000
0000
0000
0000
0000
,
1010
0000
0000
0001
0000
0000
1010
0000
0000
0000
0000
0000
0000
0000
0000
0000
0000
0000
0011
0000
0000
0100
0000
0000
0011
0000
0000
0000
0000
0000
0020
0030
0000
0000
0000
0000
1001
0000
0000
0010
0000
0000
1001
0000
0000
0000
0000
0000
,
0001
0000
0000
0001
0000
0000
2000
0000
3000
0200
0000
0300
0011
0000
0000
1000
0000
0000
0011
0000
0000
1000
0000
0000
0011
0000
0000
0000
0000
0000
1010
0000
0000
0001
0000
0000
1010
0000
0000
0001
0000
0000
1010
0000
0000
0000
0000
0000
,
0002
0000
0003
0020
0000
0030
0200
0000
0300
2000
0000
3000
0011
0000
0000
1000
0000
0000
0011
0000
0000
1000
0000
0000
0011
0000
0000
0000
0000
0000
1100
0000
0000
0001
0000
0000
1100
0000
0000
0001
0000
0000
1100
0000
0000
0000
0000
0000
,
0002
0000
0000
0000
0000
0000
0000
0003
2010
0000
0000
0000
3000
0000
0000
0000
0000
0000
0000
0000
0000
0000
0000
0000
0000
0000
0000
0000
0000
0000
0000
0000
;

//---------------dance-single - Blank----------------
#NOTES:
     dance-single:
     Blank:
     Hard:
     11:
     1.000,1.000,1.000,0.279,1.000,1180.000,280.000,41.000,0.000,0.000:




0000
0000
0000
0000
1001
0010
1100
0010
1001
0000
1001
0010
1100
0010
1001
0000
,
2000
0000
0000
0000
0000
0000
0000
3000
0021
0000
0000
0000
1000
0000
0030
0000
0101
0000
1000
0000
0100
0000
0000
0000
1000
0000
0000
0000
0010
0000
0001
0000
,
1100
0001
0010
0000
1000
0000
0001
0000
0110
0000
0001
0000
0010
0000
0100
0000
,
0011
0000
0000
0100
0000
0000
1000
0000
0000
0000
0000
0000
0010
0000
0000
0000
0000
0000
0001
0000
0000
0000
0000
0000
1010
0000
0000
0100
0000
0000
0001
0000
0000
0000
0000
0000
1000
0000
0000
0000
0000
0000
0010
0000
0000
0002
0000
0003
,
1100
0001
0010
0000
1000
0000
0010
0001
1100
0010
0001
0000
1000
0000
0001
0000
,
0011
1000
0011
0000
0210
0000
0001
0300
1010
0001
0100
0000
0001
0000
0100
0000
,
1001
0010
0100
0000
1000
0000
0001
0000
1010
0000
0001
0000
0010
0000
0001
1000
,
0110
0001
1000
0000
0100
0000
0001
0000
1010
0100
1000
0000
0010
0000
1000
0000
,
0011
1000
0010
0000
1200
0000
0001
0300
1100
0001
0010
0000
1001
0010
1100
0010
,
1001
0100
1000
0001
0120
0000
1000
0030
0011
0100
1000
0000
0001
0000
0010
0100
,
1010
0001
0100
0000
0001
0000
0100
0000
1010
0000
0100
0000
0001
0000
0010
1000
,
0101
0010
0001
0000
1000
0000
0001
0000
1010
0000
0100
0000
0010
0000
1000
0100
,
0011
1000
0100
0000
0010
0000
1000
0000
0011
0100
1000
0000
0100
0000
0001
1000
,
0011
1000
0011
0000
0120
0000
1000
0030
0101
0010
0100
0000
0010
0000
0100
0000
,
1010
0100
0001
0000
0010
0000
1000
0000
0110
0000
1000
0000
0100
0000
1000
0001
,
0110
0001
1000
0000
0010
0000
0001
0000
1010
0000
0001
0000
0010
0000
1000
0000
,
0101
0000
0010
0000
1000
0000
0000
0000
0100
0000
0000
0000
0001
0000
0000
0000
1001
0000
0100
0000
0020
0000
0001
0030
1100
0000
0010
0000
1001
0000
0100
0000
,
0011
0000
2000
3000
0100
0000
0010
0000
1002
0000
0000
0000
0010
0000
0003
0000
1100
0000
0010
0000
0001
0000
0000
0000
0010
0000
0000
0000
0001
0000
0010
0000
,
1100
0010
0001
0000
0010
0000
1000
0000
0101
0000
1000
0000
0010
0000
0001
0010
,
1100
0010
0001
0000
0100
0000
0010
0000
0101
0000
0010
0000
0100
0000
1000
0001
,
0110
1000
0100
0000
1000
0000
0100
0000
1001
0100
0010
0000
0001
0000
0010
0000
,
1100
0001
0110
0000
0021
0000
0100
0030
1001
0100
0010
0000
0001
0000
1000
0000
,
1100
0001
0010
0000
0001
0000
0010
0000
1001
0000
0100
0000
0010
0000
0001
1000
,
0101
0010
1000
0000
0100
0000
0001
0000
1010
0000
0100
0000
0010
0000
1000
0000
,
0101
0000
1000
0000
0010
0000
0000
0000
1000
0000
0100
0000
1000
0000
0100
0000
0001
0000
1020
0030
0001
0000
0010
0000
0100
0000
1000
0000
0100
0000
0012
0003
,
1100
0001
1100
0001
2100
0000
0010
3000
1001
0000
0100
0000
0001
0010
0100
0000
,
1010
0000
0100
0010
0001
0000
0001
0000
1010
0000
0001
0000
0001
0010
0100
0000
,
1010
0100
1000
0010
0101
1000
0001
0010
,
0101
0010
0100
0000
0001
0000
0010
0000
1100
0000
0001
0000
0010
0000
0100
0000
,
1001
0100
0001
0000
0010
0000
0100
0000
1010
0000
0001
0000
1000
0100
0010
0000
,
1100
0000
0001
0000
1000
0000
0010
0000
0101
0000
0010
0000
1000
0100
0010
0000
,
0011
0100
1000
0100
1001
0010
1000
0100
,
1001
0000
0100
0000
1000
0000
0000
0000
2010
0000
0000
0000
0100
0000
0000
3000
0011
0000
0000
0000
0100
0000
0000
0000
1001
0000
0110
0000
0000
0000
1001
0000
,
0110
0000
0110
0000
1000
0000
0010
0000
1100
0000
0010
0000
1000
0010
0001
0000
,
0101
0000
0010
0000
1000
0000
0100
0000
1001
0000
0010
0000
0100
0010
0001
0000
,
1001
0100
1000
0100
1010
0001
1000
0010
,
1100
0000
0010
0000
0100
0000
0000
0000
0001
0000
0000
0000
1000
0000
0000
0000
0110
0000
0000
0000
1000
0000
0000
0000
0001
0000
0000
0000
2000
3000
0200
0300
,
1001
0000
0001
0010
0100
0000
1000
0000
0011
0000
1000
0000
0001
0010
0001
0000
,
1100
0000
0010
0000
1000
0000
0100
0000
1010
0000
0100
0000
0001
0010
0001
0000
,
1100
0001
0010
1000
0110
0001
0100
0010
,
1001
0100
0010
0000
1001
0010
1100
0001
1010
0100
0010
0001
1000
0001
0100
0010
,
1000
0001
0100
0010
1001
0100
1001
0000
0000
0000
1100
0001
1100
0000
0001
0000
,
1010
0100
1010
0000
0010
0000
1100
0001
1100
0000
0100
0000
0101
1000
0101
0000
,
1000
0100
0010
0001
1100
0001
1100
0000
0000
0000
1001
0010
1001
0000
0001
0000
,
0110
1000
0110
0000
0000
0000
1001
0010
1001
0000
0001
0000
1100
0001
1100
0000
,
0001
1000
0100
0010
1001
0100
1001
0100
1001
0000
0101
1000
0101
1000
0101
0000
,
1000
0001
0010
0100
1001
0100
1001
0100
1001
0000
0110
1000
0110
1000
0110
0000
,
2000
0000
0000
0000
0000
0000
0000
3000
0012
0000
0000
0000
1000
0000
0003
0000
0011
0000
0100
0000
1000
0000
0000
0000
0100
0000
0000
0000
0010
0000
0100
0000
,
1010
0100
0010
0000
0001
0000
0100
0000
0101
0010
0001
0000
1000
0100
1000
0000
,
0101
0010
0100
0000
1000
0000
0100
0000
1010
0100
0001
0000
0010
0000
0001
0010
,
1100
0001
0010
0000
0100
0000
1000
0000
1001
0010
0100
0000
1000
0010
0001
0000
,
1100
0010
0001
0000
1002
0000
0100
0003
0011
0100
1000
0000
0100
0000
0010
0000
,
1001
0010
0001
0000
1000
0100
1000
0010
1001
0010
0100
0000
0001
0010
0001
0100
,
1001
0100
0010
0000
0010
0000
0100
0000
1001
0000
1000
0100
0001
0000
0100
0000
,
1001
0010
1000
0000
0001
0000
0100
0000
1001
0000
0100
0000
1001
0000
0100
0000
,
1001
0010
0100
0000
1001
0010
0100
0001
0010
0100
1000
0010
0100
1000
0100
0010
,
0001
1000
0001
0010
0100
1000
0100
0010
1000
0001
0100
0010
1001
0010
0100
1000
,
0100
1000
0100
0010
0001
0010
0100
0001
1010
0100
1000
0100
0001
0100
1000
0100
,
0001
0010
0100
0010
1001
0010
0100
0001
0010
0100
1000
0100
0010
0001
0100
0010
,
0001
0010
0100
0001
0010
0100
0010
0001
0010
0100
1000
0100
0011
0100
1000
0100
,
0010
0000
0000
0001
0000
0000
0010
0000
0000
0100
0000
0000
1000
0000
0000
0100
0000
0000
0001
0000
0000
1000
0000
0000
0100
0000
0001
0000
0010
0000
0100
0000
1000
0000
0001
0000
0010
0000
0100
0000
1000
0000
0001
0000
0010
0000
0100
0000
,
1000
0000
0000
0000
0000
0000
0001
0010
0100
1000
0001
0010
1000
0100
0010
0001
1000
0100
0001
0010
0100
1000
0001
0010
,
1000
0100
0010
0001
1000
0100
0001
0010
0100
1000
0001
0010
1000
0100
0010
0001
1000
0100
0001
0010
0100
1000
0001
0010
,
1000
0100
0010
0001
1000
0100
0001
0010
0100
1000
0100
0010
0001
0010
0100
1000
0001
0010
0100
1000
0001
0010
0100
1000
,
0001
0010
0100
1000
0001
0010
1000
0100
0010
0001
1000
0100
0001
0010
0100
1000
0001
0010
1000
0100
0010
0001
1000
0100
,
0001
0010
0100
1000
0001
0010
1000
0100
0010
0001
1000
0100
0010
0001
0010
0100
1000
0100
0012
0000
0000
0000
0000
0000
,
0000
0000
0000
0000
0000
0000
0000
0000
0000
0000
0000
0000
0000
0000
0000
0003
2000
0000
0000
3000
0200
0000
0000
0300
0020
0000
0000
0030
0002
0000
0000
0003
,
0200
0000
0000
0300
2000
0000
0000
3000
0012
0000
0000
0000
0100
0000
0003
0000
0011
0000
0100
0000
1000
0000
0000
0000
0001
0000
0000
0000
1000
0000
0010
0000
,
0101
0010
1000
0000
0010
0000
1000
0000
0101
0000
1000
0000
0100
0000
0001
0010
,
1001
0100
0010
0000
0001
0000
1000
0000
0110
0000
1000
0000
0100
0000
0001
1000
,
0110
0001
1000
0000
0100
0000
0001
0000
0110
1000
0001
0000
0010
0000
1000
0100
,
1010
0001
0110
0000
1200
0000
0001
0300
1010
0100
1000
0000
0100
0000
1000
0000
,
0101
1000
0010
0000
0100
0000
0001
0000
1100
0000
0001
0000
1000
0000
0001
0010
,
1100
0010
0001
0000
0100
0000
0010
0000
0101
0000
0010
0000
0100
0000
0001
0000
,
1010
0000
0100
0000
0001
0000
0000
0000
1000
0000
0000
0000
0010
0000
0000
0000
0011
0000
1000
0000
0200
0000
0010
0300
1001
0000
0100
0000
0011
0000
1000
0000
,
0110
0000
0002
0003
1000
0000
0100
0000
0021
0000
0000
0000
0100
0000
0030
0000
1001
0000
0100
0000
0010
0000
0000
0000
0100
0000
0000
0000
0010
0000
0100
0000
,
1001
0100
0010
0000
0100
0000
0001
0000
1010
0000
0001
0000
0100
0000
0010
0100
,
1001
0100
0010
0000
1000
0000
0100
0000
1010
0000
0100
0000
1000
0000
0001
0010
,
1100
0001
1000
0000
0001
0000
1000
0000
0011
1000
0100
0000
0010
0000
0100
0000
,
1001
0010
1100
0000
0210
0000
1000
0300
0011
1000
0100
0000
0010
0000
0001
0000
,
1001
0010
0100
0000
0010
0000
0100
0000
0011
0000
1000
0000
0100
0000
0010
0001
,
1010
0100
0001
0000
1000
0000
0010
0000
0101
0000
1000
0000
0100
0000
0001
0000
,
1010
0000
0001
0000
0100
0000
0000
0000
0001
0000
1000
0000
0001
0000
1000
0000
0100
0000
0012
0003
0100
0000
0010
0000
0001
0000
0100
0000
0001
0000
2100
3000
,
0011
1000
0011
1000
0012
0000
0100
0003
1001
0000
0100
0000
0010
0100
1000
0000
,
0101
0000
1000
0100
0010
0000
0010
0000
0101
0000
0010
0000
0010
0100
1000
0000
,
0101
1000
0001
0100
1010
0001
0010
0100
,
1010
0100
1000
0000
0010
0000
0100
0000
1001
0000
0010
0000
0100
0000
1000
0000
,
0011
1000
0010
0000
0100
0000
1000
0000
0101
0000
0010
0000
0001
1000
0100
0000
,
1001
0000
0010
0000
0001
0000
0100
0000
1010
0000
0100
0000
0001
1000
0100
0000
,
0110
1000
0001
1000
0011
0100
0001
1000
,
0011
1000
0001
0000
0102
0000
1000
0003
0110
0000
1000
0000
0011
1100
0000
0011
,
1100
0000
1100
0000
0001
0000
0100
0000
1001
0000
0100
0000
0001
0010
0100
0000
,
1010
0000
0100
0000
0001
0000
1000
0000
0011
0000
0100
0000
1000
0100
0010
0000
,
0011
1000
0001
1000
0101
0010
0001
0100
,
1001
0000
0100
0000
1000
0000
0000
0000
0010
0000
0000
0000
0001
0000
0000
0000
1100
0000
0000
0000
0001
0000
0000
0000
0010
0000
0000
0000
0002
0003
2000
3000
,
0011
0000
0010
0100
1000
0000
0001
0000
0110
0000
0001
0000
0010
0100
0010
0000
,
1001
0000
0100
0000
0001
0000
1000
0000
0101
0000
1000
0000
0010
0100
0010
0000
,
1001
0010
0100
0001
1100
0010
1000
0100
,
0011
1000
0100
0000
0011
0100
1001
0010
0101
1000
0100
0010
0001
0010
1000
0100
,
0001
0010
1000
0100
0011
1000
0011
0000
0000
0000
1001
0010
1001
0000
0010
0000
,
0101
1000
0101
0000
0010
0000
1001
0010
1001
0000
0100
0000
1010
0001
1010
0000
,
0001
1000
0100
0010
1001
0010
1001
0000
0000
0000
0011
0100
0011
0000
1000
0000
,
1100
0001
1100
0000
0000
0000
0011
0100
0011
0000
0010
0000
1001
0010
1001
0000
,
0010
0001
1000
0100
0011
1000
0011
1000
0011
0000
1010
0001
1010
0001
1010
0000
,
0001
0010
0100
1000
0011
1000
0011
1000
0011
0000
1100
0001
1100
0001
1100
0000
,
0002
0000
0000
0000
0000
0000
0000
0003
2010
0000
0000
0000
0000
0000
3000
0000
0000
0000
0000
0000
0000
0000
0000
0000
0000
0000
0000
0000
0000
0000
0000
0000
;

//---------------dance-double - Blank----------------
#NOTES:
     dance-double:
     Blank:
     Challenge:
     13:
     0.000,0.000,0.000,0.000,0.000,0.000,0.000,0.000,0.000,0.000:

00000000
00000000
00000000
00000000
;

//---------------dance-double - Blank----------------
#NOTES:
     dance-double:
     Blank:
     Hard:
     11:
     0.000,0.000,0.000,0.000,0.000,0.000,0.000,0.000,0.000,0.000:

00000000
00000000
00000000
00000000
;
