#TITLE:Parallaxing Atmosphere;
#SUBTITLE:EXoduz Violation;
#ARTIST:MachinimaSound;
#TITLETRANSLIT:;
#SUBTITLETRANSLIT:;
#ARTISTTRANSLIT:;
#CREDIT:;
#BANNER:../Banner.png;
#BACKGROUND:../Background.png;
#LYRICSPATH:;
#CDTITLE:;
#MUSIC:Parallaxing Atmosphere.ogg;
#OFFSET:1.991;
#SAMPLESTART:99.940;
#SAMPLELENGTH:12.000;
#SELECTABLE:YES;
#DISPLAYBPM:234.000;
#BPMS:0.000=117.000,68.000=58.500,84.000=234.000,404.000=58.500,420.000=234.000;
#STOPS:;
#BGCHANGES:;
// cache tags:
#FIRSTBEAT:4.000;
#LASTBEAT:692.000;
#SONGFILENAME:Songs/EXoduz Violation/Parallaxing Atmosphere/Parallaxing Atmosphere.sm;
#HASMUSIC:1;
#HASBANNER:1;
#MUSICLENGTH:220.053;
// end cache tags

//---------------dance-single - ----------------
#NOTES:
     dance-single:
     :
     Challenge:
     16:
     1.000,1.000,0.159,1.000,0.582,1543.000,35.000,344.000,0.000,0.000:

0000
0000
0000
0000
,
1000
0001
0100
0010
1000
0100
0010
0001
,
1000
0001
0100
0010
1000
0100
0010
0001
,
1000
0010
0100
0001
0010
0100
1000
0010
,
0100
0001
1000
0010
0100
0001
0010
0100
,
1000
0100
0040
0031
1000
0010
0200
0301
,
0010
0100
4000
3010
0100
0001
0020
0130
,
1000
0010
0400
0301
0100
0010
0200
0301
,
1000
0000
0010
0000
4000
0000
3001
0000
0100
0000
0100
0100
0120
0000
0100
0100
,
0130
0010
0100
0001
1000
0010
0100
0001
0010
0100
1000
0010
0100
0001
1000
0010
,
0100
0001
1000
0010
0100
0001
0010
0100
1000
0010
0100
0001
1000
0010
0100
0001
,
0010
0100
1000
0001
0010
0100
1000
0010
0100
0001
1000
0010
0100
0001
0010
0100
,
1000
0100
0010
0001
1000
0010
0100
0001
1000
0010
0100
0001
0010
0100
1000
0001
,
0010
0001
0010
0001
1000
0010
0100
0001
1000
0010
0100
0001
0010
0001
0010
0001
,
1000
0010
1000
0010
0100
0001
1000
0001
1000
0100
0010
0001
1000
0100
0010
0001
,
1000
0010
0100
0001
0100
0001
1000
0010
0100
0001
0010
0100
1000
0001
0010
0100
,
1000
0010
0100
0001
1000
0001
1000
0010
0100
0001
0010
0100
1000
0001
0010
0100
,
2000
0000
0000
3020
0000
0000
0230
0000
0000
0000
0000
0000
0302
0000
0023
0000
,
0230
0000
0000
0000
0000
0000
2300
0000
0000
0000
0000
0000
3020
0000
0000
0000
0230
0000
0000
0000
0000
0000
0000
0000
0302
0000
0000
0000
1003
0000
0010
0100
,
0002
0000
0000
2003
0000
0000
3200
0000
0000
0000
0000
0000
0320
0000
0032
0000
,
1003
0000
0010
0000
0100
0000
0002
0000
0000
0000
0000
0000
0000
0000
0000
0000
2003
0000
0000
0000
0000
0000
3200
0000
0000
0000
0310
0001
0010
0000
0001
0000
,
2000
3001
0100
0010
2000
3100
0010
0001
,
2000
3010
0100
0001
0020
0130
1000
0010
,
0200
0301
1000
0010
0200
0301
0010
0100
,
2000
3010
0100
0001
2000
3010
0100
0001
,
0020
0130
1000
0010
0200
0301
1000
0010
,
2000
3010
0100
0001
0020
0130
1000
0010
,
0200
0301
1000
0010
0200
0301
0010
0100
,
2000
3010
0100
0001
2000
3010
0100
0001
,
2000
3001
1000
0010
0200
0301
0010
0001
,
0020
0031
1000
0010
0200
0301
1000
0010
,
0200
0301
0010
0100
2000
3100
0010
0001
,
2000
3010
0100
0001
2000
3010
0100
0001
,
0020
0130
2000
3010
0200
0301
2000
3010
,
0100
0001
0010
0100
1000
0010
0100
0001
,
2000
3010
0100
0001
0010
0100
2000
3010
,
0100
0001
1000
0010
0200
0301
0010
0100
,
1000
0000
0001
0000
0100
0000
0010
0000
0000
1000
0000
0000
0001
0000
0000
0000
0000
0000
1000
0000
0000
0000
0000
0000
0100
0000
0000
0000
0000
0000
0010
0000
0000
0000
0000
0000
0001
0000
0000
0000
0000
0000
0100
0000
0000
0000
0000
0000
,
0010
1000
0010
0100
0001
0010
0100
1000
,
0001
0000
0010
0000
0100
0000
1000
0000
0000
0001
0000
0000
0100
0000
0000
0000
0000
0000
0010
0000
0000
0000
0000
0000
1000
0000
0000
0000
0000
0000
0100
0000
0000
0000
0000
0000
0010
0000
0000
0000
0000
0000
0001
0000
0000
0000
0000
0000
,
1000
0010
0100
0001
0010
0100
1000
0010
,
0100
0000
0001
0000
1000
0000
0010
0000
0000
0100
0000
0000
0001
0000
0000
0000
0000
0000
0010
0000
0000
0000
0000
0000
0100
0000
0000
0000
0000
0000
1000
0000
0000
0000
0000
0000
0010
0000
0000
0000
0000
0000
0100
0000
0000
0000
0000
0000
,
0001
1000
0001
1000
0100
0010
0001
1000
,
0100
0000
0010
0000
0001
0000
1000
0000
0000
0100
0000
0000
0010
0000
0000
0000
0000
0000
0001
0000
0000
0000
0000
0000
1000
0000
0000
0000
0000
0000
0001
0000
0000
0000
0000
0000
0100
0000
0000
0000
0000
0000
0001
0000
0000
0000
0000
0000
,
0010
0001
1000
0010
0100
0001
1000
0001
,
1000
0000
0001
0000
1000
0000
0001
0000
0000
0100
0000
0000
0010
0000
0000
0000
0000
0000
1000
0000
0000
0000
0000
0000
0001
0000
0000
0000
0000
0000
0100
0000
0000
0000
0000
0000
0010
0000
0000
0000
0000
0000
1000
0000
0000
0000
0000
0000
,
0100
0010
0001
1000
0100
0010
0001
1000
,
0100
0000
0010
0000
0001
0000
1000
0000
0000
0010
0000
0000
0100
0000
0000
0000
0000
0000
0001
0000
0000
0000
0000
0000
1000
0000
0000
0000
0000
0000
0010
0000
0000
0000
0000
0000
0100
0000
0000
0000
0000
0000
0001
0000
0000
0000
0000
0000
,
1000
0100
0010
0001
1000
0010
0100
0001
,
1000
0000
0001
0000
0100
0000
0001
0000
0000
1000
0000
0000
0010
0000
0000
0000
0000
0000
0100
0000
0000
0000
0000
0000
0001
0000
0000
0000
0000
0000
0010
0000
0000
0000
0000
0000
0100
0000
0000
0000
0000
0000
1000
0000
0000
0000
0000
0000
,
0001
0010
0100
1000
0001
1000
0010
0100
,
0001
0000
1000
0000
0001
0000
0100
0000
0000
0010
0000
0000
1000
0000
0000
0000
0000
0000
0002
0000
0000
0000
0000
0000
0203
0000
0000
0000
0000
0000
0320
0000
0000
0000
0000
0000
2030
0000
0000
0000
0000
0000
3200
0000
0000
0000
0000
0000
,
0320
0032
2003
3020
2030
3020
0230
0302
,
0103
0010
0100
0010
0100
0010
0100
0010
0100
0010
0000
0000
1000
0000
0000
0001
0000
0000
0100
0000
0000
0010
0000
0000
,
2000
3100
0020
0031
2000
3010
0200
0301
,
0100
0001
0100
0001
0100
0001
0100
0001
0100
0001
0000
0000
1000
0000
0000
0010
0000
0000
0100
0000
0000
0001
0000
0000
,
0010
0100
2000
3010
0200
0301
2000
3010
,
0100
0001
0100
0001
0100
0001
0100
0001
0100
0001
0000
0000
1000
0000
0000
0010
0000
0000
0100
0000
0000
0001
0000
0000
,
1000
0001
1000
0100
0010
0001
1000
0010
,
0100
0010
0100
0010
0100
0010
0100
0010
0100
0010
0000
0000
0200
0000
0000
0301
0000
0000
1000
0000
0000
0010
0000
0000
,
0200
0301
0010
0100
2000
3001
1000
0001
,
1000
0010
1000
0010
1000
0010
1000
0010
1000
0010
0000
0000
1000
0000
0000
0001
0000
0000
0100
0000
0000
0010
0000
0000
,
2000
3100
0020
0031
2000
3010
0200
0301
,
1000
0001
1000
0001
1000
0001
1000
0001
1000
0001
0000
0000
1000
0000
0000
0010
0000
0000
0100
0000
0000
0001
0000
0000
,
1000
0100
0020
0031
2000
3010
0200
0301
,
0010
0100
0010
0100
0010
0100
0010
0100
0010
0100
0000
0000
1000
0000
0000
0001
0000
0000
0100
0000
0000
0010
0000
0000
,
1000
0010
1000
0010
0100
0001
0010
0100
,
1000
0001
1000
0001
1000
0001
1000
0001
1000
0001
0000
0000
1000
0000
0000
0001
0000
0000
1000
0000
0000
0010
0000
0000
,
0200
0301
0010
0100
2000
3001
0010
0100
,
2020
0000
0000
0000
0000
0000
3030
1000
,
0020
0000
0100
0000
0000
0100
0030
1000
,
0101
0000
0020
0000
0000
1000
0030
1010
,
0200
0000
0320
0000
0030
1001
0000
0101
,
2000
0000
3020
0000
0000
0130
0000
0110
,
0100
0000
0202
0000
0303
1000
0000
0110
,
0120
0000
2030
0000
3000
1100
0000
0010
,
0001
0000
0102
0000
0000
1003
0000
1000
,
0100
0010
1001
0020
0230
0320
0230
0320
,
0230
0302
0203
0302
0203
0302
0203
0302
,
0203
0302
2003
3020
2030
3020
2030
3020
,
2030
3200
2300
3200
2300
3200
0320
0230
,
0320
0032
0023
0032
0023
0032
0023
0032
,
0023
0032
2003
3002
2003
3002
2003
3020
,
0230
0320
0230
0302
0203
0302
2003
3200
,
0320
0032
2003
3002
2003
3002
2003
3002
,
2003
3020
0230
0302
0203
0302
0203
0302
,
0203
0320
0230
0320
0230
0320
2030
3020
,
2030
3200
0320
0032
2003
3200
0320
0032
,
2003
3200
0320
0032
0023
0230
2300
3002
,
0023
0230
2300
3002
0023
0230
2300
3020
,
0230
0320
0230
0320
0230
0320
0230
0302
,
0203
0302
0203
0302
0203
0302
0203
0302
,
2003
3020
2030
3020
0230
0320
0230
0320
,
0430
0000
0301
1000
0010
0100
0001
0010
,
0110
0100
1000
0010
0110
0100
0001
0010
,
1100
1000
0010
0100
0101
0001
0010
0100
,
1100
1000
0010
0100
0101
0001
0010
0100
,
1010
0010
0100
0001
1010
0010
0100
0001
,
0110
0100
1000
0010
0110
0100
0001
1000
,
1010
0010
0100
0001
0101
0010
1000
0100
,
0110
0001
1000
0010
0110
0100
0001
0100
,
2010
0000
0000
3020
0000
0000
0230
0000
0000
0000
0000
0000
0302
0000
0023
0000
,
0230
0000
0000
0000
0000
0000
2300
0000
0000
0000
0000
0000
3020
0000
0000
0000
0230
0000
0000
0000
0000
0000
0000
0000
0302
0000
0000
0000
0013
0000
0100
1000
,
0020
0000
0000
0230
0000
0000
0302
0000
0000
0000
0000
0000
0023
0000
0230
0000
,
1300
0001
0100
0020
0000
0000
0000
0000
2030
0000
0000
3200
0000
0000
0310
0000
,
0002
1003
0010
0100
0002
0013
0100
1000
,
0020
0130
0001
0010
0200
1300
0010
0100
,
0002
1003
0010
0100
0002
0013
0100
1000
,
0020
0130
0001
1000
0020
0130
0001
0010
,
0200
1300
0010
1000
0020
1030
0010
0100
,
0002
0103
0010
1000
0200
0310
0001
1000
,
0020
0130
0001
0010
0200
1300
0010
0100
,
0002
1003
0010
0100
0002
0013
0200
2300
,
3020
0130
0001
0010
0200
1300
0010
0100
,
0002
0013
0100
1000
0020
0130
0001
1000
,
0020
0130
0001
0010
0200
1300
0010
0100
,
0002
1003
0001
1000
0002
1003
0001
1000
,
0002
1003
0020
0130
0002
1003
0020
0130
,
0002
1003
0010
0100
0002
0013
0100
1000
,
0020
0130
0001
1000
0020
0130
0001
0010
,
0200
1300
0010
0100
0002
1003
0001
1000
,
0002
1003
0010
0100
0002
0013
0100
1000
,
0020
1030
1000
0010
0200
0301
1000
0001
,
2000
3001
0100
0010
2000
3100
0010
0001
,
2000
3010
0100
0001
0020
0130
1000
0001
,
0020
0130
1000
0010
0200
0301
1000
0010
,
2000
3010
0100
0001
0020
0130
1000
0001
,
0020
0130
1000
0001
2000
3010
0100
0001
,
2000
3010
0100
0001
2000
3010
0200
0302
,
0023
0130
1000
0010
0200
0301
0010
0100
,
2000
3010
0100
0001
2000
3010
0100
0001
,
0020
0130
1000
0010
0200
0301
1000
0010
,
0200
0301
0010
0100
2000
3001
0010
0100
,
2000
3010
0100
0001
2000
3010
0100
0001
,
2000
3010
0100
0001
0020
0130
1000
0001
,
0020
0130
1000
0010
0200
0301
1000
0010
,
0200
0301
0010
0100
2000
3001
0010
0100
,
1000
0100
0010
0001
1000
0010
1000
0010
1000
0010
0000
0000
0100
0000
0000
0001
0000
0000
0010
0000
0000
0100
0000
0000
,
1000
0010
0100
0001
1000
0010
0100
0001
,
0010
0100
1000
0001
0010
0001
0010
0001
0010
0001
0000
0000
1000
0000
0000
0001
0000
0000
1000
0000
0000
0010
0000
0000
,
0100
0001
0010
0001
1000
0010
0100
0001
,
1000
0010
0100
0001
1000
0001
1000
0001
1000
0001
0000
0000
1000
0000
0000
0010
0000
0000
0100
0000
0000
0001
0000
0000
,
0010
0100
1000
0001
0010
0100
1000
0010
,
0100
0001
1000
0010
1000
0010
1000
0010
1000
0010
0000
0000
0100
0000
0000
0001
0000
0000
0010
0000
0000
0100
0000
0000
,
1000
0010
0100
0010
0100
0010
1000
0001
,
1000
0100
0010
0001
0010
0001
0010
0001
0010
0001
0000
0000
1000
0000
0000
0010
0000
0000
1000
0000
0000
0001
0000
0000
,
1000
0001
1000
0100
0010
0001
1000
0010
,
0100
0001
1000
0010
0100
0010
0100
0010
0100
0010
0000
0000
1000
0000
0000
0001
0000
0000
1000
0000
0000
0001
0000
0000
,
1000
0010
0100
0001
1000
0001
1000
0001
,
1000
0100
0010
0001
1000
0001
1000
0001
1000
0001
0000
0000
1000
0000
0000
0010
0000
0000
0100
0000
0000
0001
0000
0000
,
0100
0001
1000
0010
0100
0001
0010
0100
,
1000
0001
0010
0100
0010
0100
0010
0100
0010
0100
0000
0000
1000
0000
0000
0001
0000
0000
0010
0000
0000
0100
0000
0000
,
1000
0010
0100
0001
1000
0001
1000
0010
,
0100
0001
1000
0010
1000
0010
1000
0010
1000
0010
0000
0000
1000
0000
0000
0001
0000
0000
0100
0000
0000
0001
0000
0000
,
2000
3010
0200
0301
0020
0130
2000
3001
,
0010
0100
1000
0001
0010
0001
0010
0001
0010
0001
0000
0000
1000
0000
0000
0010
0000
0000
0100
0000
0000
0001
0000
0000
,
0010
0100
2000
3001
0020
0130
2000
3010
,
0100
0001
1000
0010
0100
0010
0100
0010
0100
0010
0000
0000
0100
0000
0000
0001
0000
0000
1000
0000
0000
0010
0000
0000
,
1000
0010
0100
0001
0010
0100
1000
0001
,
0010
0100
1000
0001
0010
0001
0010
0001
0010
0001
0000
0000
1000
0000
0000
0010
0000
0000
0100
0000
0000
0001
0000
0000
,
0020
0130
1000
0010
0200
0301
0010
0100
,
1000
0010
0100
0001
0100
0001
0100
0001
0100
0001
0000
0000
1000
0000
0000
0010
0000
0000
0100
0000
0000
0001
0000
0000
,
0020
0130
2000
3001
0020
0130
2000
3010
,
0100
0001
1000
0010
0100
0010
0100
0010
0100
0010
0000
0000
1000
0000
0000
0001
0000
0000
0100
0000
0000
0010
0000
0000
,
1000
0100
0020
0031
2000
3010
0200
0301
,
1000
0001
1000
0010
0100
0010
0100
0010
0100
0010
0000
0000
0100
0000
0000
0001
0000
0000
1000
0000
0000
0010
0000
0000
,
1000
0010
0100
0001
0010
0100
1000
0001
,
0010
0100
1000
0001
0010
0001
0010
0001
0010
0001
0000
0000
1000
0000
0000
0010
0000
0000
0100
0000
0000
0001
0000
0000
,
0020
0230
1300
0020
0230
0302
2003
3020
,
0130
0000
0010
0000
0100
0000
0020
0000
0000
0000
0000
0000
0030
0000
0000
0000
0000
0000
0220
0000
0000
0000
0000
0000
0000
0000
0000
0000
0000
0000
0330
0000
0000
0000
0000
0000
1000
0000
0000
0100
0000
0000
0010
0000
0000
0000
0000
0000
,
0002
0000
0000
2003
0000
0000
3020
0000
0000
0230
0000
0000
0302
0000
0000
2003
0000
0000
3020
0000
0000
0130
0000
0004
,
0040
0000
0000
0000
,
0000
0000
0000
0000
,
0033
0000
0000
0000
;
