#TITLE:Galaxy Ba-ban-ga-Bang!;
#SUBTITLE:- Galaxy Angel 3 Opening;
#ARTIST:Angel Tai;
#TITLETRANSLIT:;
#SUBTITLETRANSLIT:;
#ARTISTTRANSLIT:;
#CREDIT:;
#BANNER:Galaxy-logo.jpg;
#BACKGROUND:Galaxy-bg.jpg;
#LYRICSPATH:;
#CDTITLE:cdtitle02.png;
#MUSIC:Galaxy_Angel_3_-_Galaxy_Baban_ga_Bang.mp3;
#OFFSET:0.360;
#SAMPLESTART:100.000;
#SAMPLELENGTH:12.000;
#SELECTABLE:YES;
#BPMS:0.000=162.020;
#STOPS:;
#BGCHANGES:;
// cache tags:
#FIRSTBEAT:8.000;
#LASTBEAT:602.000;
#SONGFILENAME:Songs/Otaku's Dream 1st Anime Mix/Tweety3187 - Galaxy Baban ga Bang (Galaxy Angel 3 OP)/Trance.sm;
#HASMUSIC:1;
#HASBANNER:1;
#MUSICLENGTH:227.375;
// end cache tags

//---------------dance-single - ----------------
#NOTES:
     dance-single:
     :
     Challenge:
     11:
     1.000,1.000,1.000,0.194,0.754,1454.000,674.000,44.000,0.000,0.000:
0000
0000
0000
0000
,
0000
0000
0000
0000
,
1001
0000
1100
0000
0110
1010
0101
1100
,
0011
1010
0101
1100
0010
1020
0001
0031
,
0101
0011
1010
0001
,
0110
1100
0010
0201
1000
0310
1001
0001
,
0101
0000
1010
0000
1100
0110
0011
0110
,
1010
1001
1001
1001
0100
0021
0100
0031
,
1010
1010
0100
0011
0011
0100
1010
1010
,
0010
0110
0110
0100
1001
0010
0101
1000
,
0110
0000
0000
0000
0000
0000
0011
0000
0000
0000
0000
0000
1010
0000
0000
0000
0000
0000
0110
0000
0000
1000
0100
0010
,
1001
0000
0011
0000
0110
0000
1001
0000
1000
0100
0010
0001
1000
0100
0010
0001
,
1000
0110
0001
1010
0100
0011
0001
1010
,
0100
0000
1001
0000
0010
0000
0101
0000
0010
0000
1100
0000
0010
0000
0101
0110
,
1000
0110
0001
1010
0001
0110
0001
1100
,
0100
1010
0100
1001
0010
1100
1000
0101
,
0010
0101
0001
1010
1000
0110
0001
0110
,
0001
1010
0100
1010
0001
0110
1000
0011
,
1001
0000
0110
0011
1010
0000
0110
1100
0011
0000
0101
0101
0101
0000
1010
0110
,
0001
0000
1000
0000
0001
0000
1000
0000
0110
0000
1000
0001
0110
0000
1000
0000
,
0001
1100
0010
0101
0010
1100
0001
0110
,
1000
0011
0100
1001
0010
0011
0100
0011
,
1000
0110
0001
1001
1000
0110
1000
0011
,
0100
1010
0001
0110
1000
0011
0100
1001
,
0010
0101
0010
1100
0001
0101
0010
1100
,
1000
0011
0100
1010
1000
0011
0100
0011
,
1001
0000
0011
1010
1010
0000
0011
0101
0101
0000
1010
1010
1010
0000
0110
0011
,
0011
0000
0100
0000
1010
0000
0100
0000
1010
0000
0011
1000
0110
0001
1100
0000
,
0011
0110
1010
0110
0001
1010
0100
1001
,
0000
0011
0011
0011
1100
1100
1100
1100
,
1001
0000
0010
1000
0110
0000
1000
0001
0110
0000
0001
0010
1100
0000
0001
1000
,
0101
0000
0010
0100
1010
0000
0100
0001
0110
0000
0001
1000
0101
0000
0100
0001
,
1010
0000
1000
0001
0110
0000
1000
0001
0110
0000
0001
1000
0101
0000
1000
0010
,
0110
0000
0001
1000
1010
0000
0100
1000
0110
0000
0010
0100
1001
0000
0010
0001
,
0110
0000
0001
1000
0011
0000
0100
0001
1010
0000
0010
0010
0101
0000
0010
0001
,
1100
0000
0100
0001
1010
0000
0010
0001
0110
0000
1000
0001
0110
0000
0010
1000
,
0101
0010
1000
0001
0110
1000
0001
0010
1100
0001
0010
0001
1100
0010
0001
0100
,
0011
1000
0010
0100
1100
0001
0100
0010
1001
0100
0010
1000
0101
0010
1000
0100
,
1001
0010
0100
0001
1000
0110
0110
0011
,
1001
0000
0000
1100
1100
0000
0000
0110
,
0011
0000
1000
0001
0110
0000
0001
0000
1010
0000
0100
1000
0011
0000
0110
0000
,
0000
0000
0011
1000
0011
0000
1010
0000
0110
0000
0100
0001
1010
0000
1200
0000
,
0010
0000
0310
1000
0011
0000
0100
0000
1010
0000
0110
0001
1001
0000
0110
0000
,
0011
0000
0110
0001
1010
0000
1010
0000
0110
0000
0011
1000
0101
0000
1010
0000
,
0210
0000
0010
0301
1010
0000
0100
0000
0011
0000
0100
1010
0001
0000
0110
0000
,
0101
0010
0001
0100
1010
0001
1000
0001
0110
1000
0100
1000
0011
0100
0010
0100
,
1001
0100
0010
0001
0110
0001
0010
0100
1010
0001
0100
0001
1010
0001
1000
0001
,
0210
0000
0010
0001
1000
0000
0310
0000
0012
0000
1000
0010
0100
0000
0013
0000
,
0210
0000
0301
0100
1010
0000
0001
0000
0110
0000
0010
1000
0110
0000
0011
0000
,
0000
0000
1010
0001
0110
0000
0011
0000
1100
0000
0110
1000
0011
0000
1001
0000
,
0210
0000
0010
0001
1300
0000
0010
0000
0011
0000
1100
0001
0110
0000
0011
0000
,
1010
0000
0110
1000
0011
0000
1100
0000
0210
0000
0301
1000
0120
0000
1030
0000
,
0021
0000
0100
1000
0031
0000
1000
0000
0110
0000
1000
0011
0100
0000
1010
0000
,
1100
0001
0010
0001
0110
1000
0001
0100
1010
0001
0010
1000
0110
1000
0100
0010
,
0101
1000
0001
0100
1010
0001
1000
0001
0110
1000
0100
1000
0011
0100
0010
0001
,
1200
0000
1300
0100
0011
0000
0210
0000
0001
0000
0010
1000
0001
0000
0310
0000
,
1100
0000
0001
0000
0110
0000
0001
0000
1010
0110
0011
0000
0110
1010
1010
0000
,
0001
0010
0100
1000
0001
0010
0100
0010
1000
0001
0100
0010
0100
1000
0100
0010
,
0100
0001
0100
0010
1000
0001
0100
0001
0010
0100
1000
0001
0010
0100
0001
1000
,
0101
0010
1000
0100
0011
0100
1000
0001
1010
0100
0001
0010
1100
0001
0100
0010
,
1100
0000
1100
0000
0101
0000
0101
0000
0001
0010
0100
1000
0001
0010
0100
1000
,
0001
1010
0100
0011
1000
0110
0100
0011
,
1000
0101
0010
1100
0010
1001
0010
1100
,
0011
1010
0101
0011
0110
1010
0100
1001
,
1000
0000
0011
1000
1000
0000
0101
0010
0010
0000
1001
0000
0001
0000
1100
0000
,
0010
1100
0100
0011
0001
1010
0100
1010
,
0100
0011
1000
0011
0100
1010
0001
0110
,
0101
0000
1010
1010
0011
0000
1010
0110
0110
0000
1100
0011
1100
0000
0011
0011
,
0100
0000
0001
0000
0100
0000
0001
0000
1010
0000
0001
0100
1010
0000
0001
0000
,
0100
1001
0010
1100
0010
1001
0100
1010
,
0001
0110
1000
0101
0010
0110
1000
0110
,
0001
1010
0100
0101
0001
1010
0001
0110
,
1100
1100
1100
0011
0011
0000
0000
0000
0101
0101
0101
0110
0110
0000
0000
0000
,
0010
1100
0010
1001
0100
1100
0010
1001
,
0001
0110
1000
0011
0001
0110
1000
0110
,
0101
0000
0110
0011
0011
0000
0110
1100
1100
0000
0011
0011
0110
0000
1010
0101
,
0110
0000
1000
0000
0011
0000
1000
0000
0011
0000
0110
0001
1010
0100
1001
0000
,
0110
1010
0011
1010
0100
0011
1000
0101
,
0000
0000
0110
0000
0110
0000
0101
0010
1100
0000
1010
0000
1001
0000
1100
0000
,
0101
0000
0010
0001
1010
0000
0001
0100
1010
0000
0100
0010
1001
0000
0100
0001
,
1100
0000
0010
1000
0011
0000
1000
0100
1010
0000
0100
0001
1100
0000
1000
0100
,
0011
0000
0001
0100
1010
0000
0001
0100
1010
0000
0100
0001
1100
0000
0001
0010
,
1010
0000
0100
0001
0011
0000
1000
0001
1010
0000
0010
1000
0101
0000
0010
0100
,
1010
0000
0100
0001
0110
0000
1000
0100
0011
0000
0010
0010
1100
0000
0010
0100
,
1001
0000
1000
0100
0011
0000
0010
0100
1010
0000
0001
0100
1010
0000
0010
0001
,
1100
0010
0001
0100
1010
0001
0100
0010
1001
0100
0010
0100
1001
0010
0100
1000
,
0110
0001
0010
1000
1001
0100
1000
0010
0101
1000
0010
0001
1100
0010
0001
1000
,
0101
0010
1000
0100
0001
1010
1010
0110
,
0101
0000
0000
1001
1001
0000
0000
1010
,
0110
0000
0001
0100
1010
0000
0100
0000
0011
0000
1000
0001
0110
0000
1010
0000
,
0000
0000
0110
0001
0110
0000
0011
0000
1010
0000
1000
0100
0011
0000
2001
0000
,
0010
0000
3010
0001
0110
0000
1000
0000
0011
0000
1010
0100
0101
0000
1010
0000
,
0110
0000
1010
0100
0011
0000
0011
0000
2010
0000
3010
0001
1100
0000
0011
0000
,
2010
0000
0010
3100
0011
0000
1000
0000
0110
0000
1000
0011
0100
0000
1010
0000
,
1100
0010
0100
1000
0011
0100
0001
0100
1010
0001
1000
0001
0110
1000
0010
1000
,
0101
1000
0010
0100
1010
0100
0010
1000
0011
0100
1000
0100
0011
0100
0001
0100
,
2010
0000
0010
0100
0001
0000
3010
0000
0210
0000
0001
0010
1000
0000
0310
0000
,
2010
0000
3100
1000
0011
0000
0100
0000
1010
0000
0010
0001
1010
0000
0110
0000
,
0000
0000
0011
0100
1010
0000
0110
0000
1001
0000
1010
0001
0110
0000
0101
0000
,
2010
0000
0010
0100
3001
0000
0010
0000
0110
0000
1001
0100
1010
0000
0110
0000
,
0011
0000
1010
0001
0110
0000
1001
0000
2010
0000
3100
0001
1020
0000
0031
0000
,
0120
0000
1000
0001
0130
0000
0001
0000
1010
0000
0001
0110
1000
0000
0011
0000
,
1001
0100
0010
0100
1010
0001
0100
1000
0011
0100
0010
0001
1010
0001
1000
0010
,
1100
0001
0100
1000
0011
0100
0001
0100
1010
0001
1000
0001
0110
1000
0010
0100
,
2001
0000
3001
1000
0110
0000
2010
0000
0100
0000
0010
0001
0100
0000
3010
0000
,
1001
0010
0100
0001
1010
0001
0100
1000
0011
1000
0100
0001
1010
0100
0001
1000
,
0110
0000
0101
0000
1001
1100
0011
0101
,
1010
1100
0011
0101
1000
2100
0010
3010
,
0110
0000
0011
0000
0110
0101
1010
0011
,
1100
0000
0101
0000
1010
0000
0011
0000
0100
0000
0201
0010
1000
0000
1300
0001
,
1010
0000
0011
0110
1000
0010
0101
0000
,
0110
0000
0011
0110
0001
1000
0110
0000
,
1001
0000
0101
0110
1000
0001
0110
0000
,
0011
0000
0000
0000
1100
0000
0101
0010
1100
0000
1100
0000
1100
0000
0000
0000
,
1001
0000
0101
0011
0001
0010
1100
0000
,
0110
0000
1010
1010
0100
0001
1010
0000
,
0110
0000
0011
0110
1000
0001
0101
0000
,
1100
0000
0011
0101
0010
1000
0101
1000
,
0011
1100
0001
0110
0001
1010
0100
0001
,
1001
1001
1001
0100
0100
0000
0010
0000
,
0002
0100
0000
0013
0000
1000
0000
0010
,
0000
0100
0000
0001
0000
0010
0000
0100
,
0000
0010
0000
1000
0000
0100
0000
0010
,
0000
0001
0000
0100
0000
0010
0000
0001
,
0000
0100
0000
0010
0000
1000
0000
1000
,
0000
0100
0000
0010
0000
0011
0011
1100
,
0011
1000
0110
0001
1010
0001
0110
1000
,
0011
0010
1100
0001
1100
0001
0110
0100
,
1002
0100
0010
1003
0100
0011
0110
1100
,
0011
0000
0000
1010
0110
0000
0000
1100
,
0011
0000
0110
0001
1100
0000
0101
0000
0011
0000
0011
0100
1010
0000
1001
0000
,
0000
0000
0101
0010
0101
0000
0011
0000
1001
0000
1000
0100
0011
0000
2010
0000
,
0001
0000
3001
0010
0101
0000
1000
0000
0011
0000
1001
0100
0110
0000
1001
0000
,
0101
0000
1001
0100
0011
0000
0011
0000
1001
0000
0101
0010
1100
0000
0011
0000
,
2001
0000
0001
3100
0011
0000
1000
0000
0101
0000
1000
0011
0100
0000
1001
0000
,
1100
0001
0100
1000
0011
0100
0010
0100
1001
0010
1000
0010
0101
1000
0001
1000
,
0110
1000
0001
0100
1001
0100
0001
1000
0011
0100
1000
0100
0011
0100
0010
0100
,
2001
0000
0001
0100
0010
0000
3001
0000
0201
0000
0010
0001
1000
0000
0301
0000
,
2001
0000
3100
1000
0011
0000
0100
0000
1001
0000
0001
0010
1001
0000
0101
0000
,
0000
0000
0011
0100
1001
0000
0101
0000
1010
0000
1001
0010
0101
0000
0110
0000
,
2001
0000
0001
0100
3010
0000
0001
0000
0101
0000
1010
0100
1001
0000
0101
0000
,
0011
0000
1001
0010
0101
0000
1010
0000
2001
0000
3100
0010
1002
0000
0013
0000
,
0102
0000
1000
0010
0103
0000
0010
0000
1001
0000
0010
0101
1000
0000
0011
0000
,
1010
0100
0001
0100
1001
0010
0100
1000
0011
0100
0001
0010
1001
0010
1000
0001
,
1100
0010
0100
1000
0011
0100
0010
0100
1001
0010
1000
0010
0101
1000
0001
0100
,
2010
0000
3010
1000
0101
0000
2001
0000
0100
0000
0001
0010
0100
0000
3001
0000
,
1010
0000
0100
0000
1001
0000
0100
0000
0011
1000
0101
0000
1001
0000
0010
0000
,
0201
0010
0001
0010
0000
0010
0001
0010
0001
1000
0001
1000
0001
1000
0301
1000
,
0110
0001
1000
0010
0100
0001
1000
0010
0101
1000
0110
0001
1100
0010
0201
0010
,
0001
1300
0012
0000
0100
0000
1000
0000
0100
0000
0013
0000
1000
0000
0010
0000
,
1100
0011
0110
0011
0000
0000
0000
0000
;

//---------------dance-single - ----------------
#NOTES:
     dance-single:
     :
     Medium:
     6:
     0.478,0.596,0.537,0.418,0.000,544.000,122.000,95.000,0.000,0.000:
0000
0000
0000
0000
,
0000
0000
0000
0000
,
1000
1000
1000
1000
,
1000
1000
1000
1000
,
2001
0001
0001
0001
,
0001
0001
0001
3001
,
0010
0010
0010
0010
,
0010
0010
0010
0010
,
0100
0100
0000
0001
0001
0000
1000
1000
,
0000
0010
0010
0000
1001
0000
0110
0000
,
1001
0110
1001
0110
,
0001
1000
0001
1000
0000
0000
0000
0000
,
1000
0100
0001
0100
,
0010
1000
0001
0100
,
0001
0010
0100
0001
,
0010
1000
0110
1001
,
1000
0001
0100
0010
,
1000
0001
1000
0001
,
1100
0110
1001
0110
,
2001
0010
0010
3010
,
1000
0001
0100
0010
,
1000
0001
0010
0001
,
0010
0001
0100
1000
,
0100
0001
0100
0001
,
1000
0001
0010
1000
,
0100
0001
0010
0100
,
1100
0011
1100
0011
,
1001
0010
0100
0001
,
2002
0000
0000
0000
3003
0000
0000
1001
,
0000
1000
1000
1000
,
0210
0310
1002
1003
,
2010
3010
0201
0301
,
0012
0013
1002
1003
,
2001
3001
0210
0310
,
1020
1030
2100
3100
,
2001
3001
0012
0013
,
2000
3002
2003
3002
,
2003
3020
2030
3020
,
2030
0000
3000
0000
,
1001
0000
0110
0000
,
1100
1010
2200
3300
,
1001
0001
0010
0100
,
0001
1000
0010
0100
,
1001
0100
0001
1000
,
0010
0001
1000
0100
,
1001
0010
0100
0001
,
0010
0001
0010
0001
,
1001
0100
0010
1000
,
0010
1100
1100
0010
,
1001
0100
0010
1000
,
0001
0100
0010
0100
,
1001
0010
0100
0001
,
0010
1000
0001
0100
,
2001
0001
0001
3001
,
1020
1000
1000
1030
,
0220
0000
0000
0330
2002
0000
0000
3003
,
0210
0010
0010
0310
,
2002
0000
0000
0000
,
0000
0000
3003
0000
,
1000
1000
1000
1000
,
0010
0010
0010
0010
,
0001
0010
1000
0010
,
0100
0001
1000
0010
,
1000
0100
0010
1000
,
0100
0001
0110
1001
,
0001
1000
0010
0100
,
0001
1000
0001
1000
,
0011
0110
1001
0110
,
1002
0100
0100
0103
,
0001
1000
0010
0100
,
0001
1000
0100
1000
,
0100
1000
0010
0001
,
0010
1000
0010
1000
,
0001
1000
0100
0001
,
0010
1000
0100
0010
,
0011
1100
0011
1100
,
1001
0100
0010
1000
,
2002
0000
0000
0000
3003
0000
0000
1001
,
0000
0001
0001
0001
,
0120
0130
2001
3001
,
0102
0103
1020
1030
,
2100
3100
2001
3001
,
1002
1003
0120
0130
,
0201
0301
0012
0013
,
1002
1003
2100
3100
,
0002
2003
3002
2003
,
3002
0203
0302
0203
,
0302
0000
0003
0000
,
1001
0000
0110
0000
,
0011
0101
0022
0033
,
1001
1000
0100
0010
,
1000
0001
0100
0010
,
1001
0010
1000
0001
,
0100
1000
0001
0010
,
1001
0100
0010
1000
,
0100
1000
0100
1000
,
1001
0010
0100
0001
,
0100
0011
0011
0100
,
1001
0010
0100
0001
,
1000
0010
0100
0010
,
1001
0100
0010
1000
,
0100
0001
1000
0010
,
1002
1000
1000
1003
,
0201
0001
0001
0301
,
0220
0000
0000
0330
2002
0000
0000
3003
,
0120
0100
0100
0130
,
1000
1000
1000
1000
,
1000
1000
1000
1000
,
0001
0001
0001
0001
,
0001
0001
0001
0001
,
0100
0100
0001
0001
,
1000
1000
0010
0010
,
0100
0100
1000
1000
,
0001
0001
1000
1000
,
0001
0001
0100
0100
,
0010
0010
1000
1000
,
0010
0010
0100
0100
,
0001
0001
0100
0100
,
2020
0000
0000
3030
0202
0000
0000
0303
,
1000
1000
1000
0000
0000
0000
0000
0000
,
0000
0001
0000
0001
0000
0001
0000
0001
,
0000
0001
0000
0001
0000
0001
0000
0001
,
0000
1000
0000
1000
0000
1000
0000
1000
,
0000
1000
0000
1000
0000
1000
0000
1000
,
0000
0010
0000
0010
0000
0010
0000
0010
,
0000
0010
0000
0010
0000
0010
0000
0010
,
0200
0302
0203
0302
,
0203
0320
0030
0020
,
0230
0000
0000
0000
0000
0300
0000
0000
,
1001
0000
0000
0000
,
0000
0000
0000
0000
,
1001
0000
0110
0000
,
0011
0011
0202
0303
,
1001
0100
0001
1000
,
0010
0100
0001
1000
,
1001
0100
0010
1000
,
0001
0010
0001
1000
,
1001
0100
0010
1000
,
0001
0110
0110
1000
,
2002
3003
0220
0330
,
2002
0000
3003
0010
,
1001
0100
0001
0010
,
1000
0100
0001
1000
,
1001
0100
0001
1000
,
1001
0100
0001
1000
,
1020
1000
1000
1030
,
0201
0001
0001
0301
,
2002
0000
0000
3003
0220
0000
0000
0330
,
0001
1000
0001
1000
,
0101
1000
0001
1000
,
0110
0000
1001
0000
;
