#TITLE:What's up, People!;
#SUBTITLE:;
#ARTIST:Maximum the Hormone;
#TITLETRANSLIT:;
#SUBTITLETRANSLIT:;
#ARTISTTRANSLIT:;
#CREDIT:Darkmage/Arch0wl;
#BANNER:whatsuppeople-bn.png;
#BACKGROUND:whatsuppeople-bg.png;
#LYRICSPATH:;
#CDTITLE:arch0wldarkmagetitle.png;
#MUSIC:What's up, people!.ogg;
#OFFSET:0.645;
#SAMPLESTART:30.550;
#SAMPLELENGTH:10.680;
#SELECTABLE:YES;
#BPMS:0.000=161.000,178.000=267.000;
#STOPS:;
#BGCHANGES:0.000=whatsuppeople-bg.png=1.000=0=0=1,
1.000=whatsuppeople.avi=1.000=0=0=1,
239.000=whatsuppeople-bg.png=1.000=0=0=1,
99999=-nosongbg-=1.000=0=0=0 // don't automatically add -songbackground-
;
// cache tags:
#FIRSTBEAT:2.500;
#LASTBEAT:239.000;
#SONGFILENAME:Songs/Archmage and Dark0wl Hammer of Thor UltraHyperMegaPack/What's up, People!/What's up, People!.sm;
#HASMUSIC:1;
#HASBANNER:1;
#MUSICLENGTH:105.000;
// end cache tags

//---------------dance-single - Arch0wl----------------
#NOTES:
     dance-single:
     Arch0wl:
     Challenge:
     19:
     1.000,1.000,0.857,0.333,1.000,854.000,90.000,35.000,0.000,13.000:
0000
0000
0000
0000
0000
0000
0000
0000
0000
0000
1001
0001
1001
0001
1001
0000
,
0000
0000
0000
0000
,
0000
0000
0000
0000
0000
0000
0000
0000
0000
0000
0110
0010
0110
0010
0110
0000
,
0000
0000
0000
0000
,
0000
0000
0000
0000
,
1000
0100
0010
0001
0010
0100
1000
0100
0010
0001
0010
0100
1000
0100
0010
0001
0010
0100
1000
0100
0010
0001
0010
0100
,
1000
0100
0010
0001
0010
0100
1000
0100
0010
0001
0010
0100
1000
0100
0010
0001
0010
0100
1000
0100
0010
0001
0010
0100
,
1000
0100
0010
0001
0010
0100
1000
0100
0010
0001
0010
0100
1000
0100
0010
0001
0010
0100
1000
0100
0010
0001
0010
0100
,
1000
0100
0010
0001
0010
0100
1000
0100
0010
0001
0010
0100
1000
0100
0010
0001
0010
0100
1000
0001
0010
0100
1000
0010
,
0100
0001
0100
0010
1000
0010
0100
0001
0100
0010
1000
0010
0100
0001
0100
0010
1000
0010
0100
0001
0100
0010
1000
0010
,
0100
0001
0100
0010
1000
0010
0100
0001
0100
0010
1000
0010
0100
0001
0100
0010
1000
0010
0100
0001
0100
0010
1000
0010
,
0100
0001
0100
0010
1000
0010
0100
0001
0100
0010
1000
0010
0100
0001
0100
0010
1000
0010
0100
0001
0100
0010
1000
0010
,
0100
0001
0100
0010
1000
0010
0100
0001
0100
0010
1000
0010
0100
0001
0100
0010
1000
0010
0100
0001
0100
0010
1000
0010
,
2001
0010
0001
0000
0100
0001
0000
0010
0001
0010
0001
0000
0100
0001
0000
0010
,
0001
0100
0001
0000
0010
0001
0000
3100
1020
0000
1230
0000
2301
0000
3021
0000
,
2130
0001
0100
0000
0010
0100
0000
0001
0010
0001
0100
0000
0001
0010
0000
0001
,
0100
0010
0100
0000
0001
0010
0000
3001
0102
0000
2013
0000
3012
0000
2103
0010
,
0001
0010
0100
0001
0010
0100
0000
0001
0010
0001
0100
0010
0001
0100
0000
0001
,
0010
0001
0100
0010
0001
0100
0000
3100
1200
0000
0321
0000
1032
0000
2103
0010
,
0001
0100
0010
0001
0100
0010
0000
0100
0010
0100
0001
0010
0100
0001
0000
0100
,
0010
0100
0001
0010
0100
0001
0000
3010
0110
0000
1001
0000
0000
0000
0000
0000
,
1000
0100
0010
0001
0000
0000
0000
0000
1000
0001
0010
0100
0000
0000
0000
0000
1000
0100
0010
0000
0100
0010
0001
0000
1200
0000
0000
0000
2302
0000
0000
0000
,
3003
0000
0000
0000
1010
0000
0000
0000
0000
0000
0000
0000
0110
0000
0000
0000
1000
0010
0100
0000
1000
0001
0100
0000
0011
0000
0000
0000
0000
0000
0000
0000
,
1000
0010
0100
0001
0000
0000
0000
0000
1000
0100
0010
0001
0000
0000
0000
0000
0010
0001
1000
0000
0010
1000
0001
0000
1200
0000
0000
0000
2320
0000
0000
0000
,
3030
0000
0000
0000
0000
0000
1001
0000
0000
0101
0000
0000
0011
0000
0000
1001
0000
0000
0101
0000
0000
0011
0000
0000
1001
0000
0000
0000
0000
0000
0100
0000
1000
0000
0100
0000
0010
0000
0001
0000
0010
0000
0100
0000
1000
0000
0100
0000
,
0001
0010
0100
1000
0000
0000
0000
0000
0001
1000
0100
0010
0000
0000
0000
0000
0001
0010
0100
0000
0010
0100
1000
0000
0021
0000
0000
0000
2032
0000
0000
0000
,
3003
0000
0000
0000
0101
0000
0000
0000
0000
0000
0000
0000
0110
0000
0000
0000
0001
0100
0010
0000
0001
1000
0010
0000
1100
0000
0000
0000
0000
0000
0000
0000
,
0001
0100
0010
1000
0000
0000
0000
0000
0001
0010
0100
1000
0000
0000
0000
0000
0100
1000
0001
0000
0100
0001
1000
0000
0001
0100
0010
0000
1000
0010
0100
0000
,
0001
1000
0001
0000
1000
0001
1000
0000
0001
1000
0001
0000
1000
0001
1000
0000
0010
0100
0010
0000
0100
0010
0100
0000
0010
0100
0010
0000
0100
0010
0100
0000
,
1001
0001
1001
0001
1001
0001
1001
0001
,
1001
0001
1001
0001
1001
0001
1001
0001
,
0110
0010
0110
0010
0110
0010
0110
0010
,
0110
0010
0110
0010
0110
0010
0110
0010
,
2100
0001
3100
0000
2100
0010
3100
0000
2001
0010
3001
0000
2001
0100
3001
0000
,
2100
0001
3010
0000
2010
0001
3100
0000
0012
0100
1003
0000
1002
0010
0103
0000
,
2100
0100
3100
0000
2100
0100
3100
0000
0021
0001
0031
0000
0021
0001
0031
0000
,
1100
1100
1100
0000
1100
1100
1100
0000
0011
0011
0011
0000
0011
0011
0011
0000
,
1000
0100
1000
0010
0100
0001
0010
0001
0100
0010
1000
0100
1000
0010
0100
0001
0010
0001
0100
0010
1000
0100
1000
0010
,
0100
0001
0100
0010
1000
0100
1000
0010
0100
0001
0100
0010
1000
0100
1000
0010
0100
0001
0100
0010
1000
0100
1000
0010
,
0100
0001
0010
0100
0010
0001
0100
0010
0001
0010
0100
0001
0010
0100
0010
0001
0100
0001
0010
0001
0100
0010
0100
0010
,
1000
0100
0010
0100
1000
0010
0100
1000
0100
0010
1000
0100
1000
0010
1000
0100
0010
0100
1000
0010
1000
0100
0010
0001
,
1000
0100
0010
0001
0100
0010
0100
0001
0010
0100
1000
0010
0100
0010
1000
0100
0010
0001
0100
0010
0100
0001
0010
0100
,
1000
0010
0100
0001
0100
0010
1000
0010
0100
0001
0100
0010
1000
0010
0100
0001
0100
0010
1000
0010
0100
0001
0100
0010
,
1000
0100
0010
0001
0100
0010
1000
0100
0010
0001
0100
0010
1000
0100
0010
0001
0100
0010
1000
0100
0010
0001
0100
0010
,
1000
0100
0010
0001
1000
0010
0100
0001
1000
0100
0010
0001
1000
0010
0100
0001
1000
0000
0000
0000
0000
0000
0000
0000
0000
0000
0000
0000
0000
0000
0000
0000
,
1000
0001
0100
0010
1000
0010
0100
0001
0010
0001
0100
0010
1000
0010
0100
0001
,
0010
0001
0100
0010
1000
0010
0100
0001
0010
0001
0100
0010
1000
0100
1000
0100
,
1000
0100
1000
0100
0010
0001
0100
0010
1000
0010
0100
0001
0010
0001
0100
0010
,
1000
0010
0100
0001
0010
0001
0100
0010
1000
0010
0100
0001
0010
0001
0100
0010
,
1000
0100
1000
0100
1000
0100
1000
0100
0010
0001
0100
0010
1000
0010
0100
0001
,
0010
0001
0100
0010
1000
0010
0100
0001
0010
0001
0100
0010
1000
0010
0100
0001
,
1000
0100
1000
0100
1000
0100
1000
0100
0010
0001
0100
0010
1000
0010
0100
0001
,
0010
0000
0000
0001
0000
0000
0100
0000
0000
0010
0000
0000
1000
0000
0000
0010
0000
0000
0100
0000
0000
0001
0000
0000
1010
0000
0000
0000
0000
0000
0000
0000
0110
0000
0000
0000
0000
0000
0000
0000
0101
0000
0000
0000
0000
0000
0000
0000
,
0011
0000
1001
0000
0000
0000
0000
0000
0000
1001
0000
0000
,
0000
0000
0000
0000
,
0001
0100
0010
1000
0100
0010
0001
0010
0100
1000
0010
0100
0001
0100
0010
1000
,
0100
0010
0001
0010
0100
0000
0000
0000
0000
0000
0000
0000
1000
0010
0100
0001
,
0010
0100
1000
0100
0010
0001
0100
0010
1000
0010
0100
0001
0010
0000
0000
0000
,
0000
0011
0000
0000
,
1001
0000
0000
0110
;

//---------------dance-single - Darkmage----------------
#NOTES:
     dance-single:
     Darkmage:
     Hard:
     13:
     0.860,0.939,0.943,0.181,0.714,507.000,99.000,19.000,0.000,8.000:
0000
0000
0000
0000
0000
1001
1001
1001
,
0000
0000
0000
0000
,
0000
0000
0000
0000
0000
0110
0110
0110
,
0000
0000
0000
0000
,
0000
0000
0000
0000
,
1100
0000
1010
0000
0101
0000
0000
0100
1000
0000
0011
0000
1100
0000
0000
0100
,
0001
0000
1010
0000
0101
0000
0000
0001
0010
0000
1100
0000
0011
0000
0000
1000
,
0010
0000
0101
0000
1010
0000
0000
1000
0100
0000
0011
0000
1100
0000
0000
0100
,
0001
0000
0000
0000
0000
0000
1010
0000
0000
0000
0000
0000
0101
0000
0000
0000
0000
0000
0000
0000
0000
0100
0000
0000
0010
0000
0000
0000
0000
0000
1000
0000
0100
0000
0010
0000
0001
0000
0010
0000
0100
0000
1000
0000
0100
0000
0010
0000
,
1001
0000
0101
0000
1010
0000
0000
0001
1000
0000
1010
0000
1100
0000
0000
1000
,
0010
0000
0101
0000
0011
0000
0000
0010
0100
0000
0011
0000
1010
0000
0000
0100
,
0010
0000
1010
0000
0011
0000
0000
1000
0100
0000
0101
0000
1100
0000
0000
0001
,
0100
0000
1100
0000
0101
0000
0000
0100
0010
0000
1001
0000
0110
0000
0000
0000
,
1000
0100
1000
0000
0010
1000
0000
0100
1000
0100
1000
0000
0001
1000
0000
0100
,
1000
0010
1000
0000
0100
1000
0000
0010
1010
0000
1200
0000
2300
0000
3020
0000
,
0130
0001
0100
0000
0010
0100
0000
0001
0010
0001
1000
0000
0001
0010
0000
0001
,
0100
0010
0100
0000
0001
0010
0000
0001
0101
0000
2010
0000
3020
0000
0230
0000
,
0301
0010
0100
1000
0010
0100
0000
0001
0010
0100
1000
0010
0100
0001
0000
0010
,
0100
1000
0010
0100
0001
0010
0000
0100
1100
0000
0021
0000
0230
0000
2300
0000
,
3010
0100
0001
0010
0100
1000
0000
0010
0100
0001
0010
0100
1000
0010
0000
0100
,
0001
0010
0100
1000
0010
0100
0000
0010
0110
0000
1001
0000
0000
0000
0000
0000
,
1101
0000
1011
0000
1100
0110
0011
2002
,
3003
1010
0000
0110
1010
1001
0011
0000
,
1011
0000
1101
0000
0011
0110
1100
2020
,
3030
0000
0000
0000
0000
0000
1000
0000
0000
0100
0000
0000
0010
0000
0000
0001
0000
0000
0100
0000
0000
0010
0000
0000
1000
0000
0000
0000
0000
0000
0100
0000
1000
0000
0100
0000
0010
0000
0001
0000
0010
0000
0100
0000
1000
0000
0100
0000
,
0022
0000
0133
0000
0011
0101
1010
2200
,
3300
1010
0000
0101
0011
1100
1010
0000
,
1011
0000
1101
0000
1010
1100
0011
0202
,
0000
0000
0000
0000
0000
0000
0000
0303
,
1001
0001
1000
0001
1000
0001
1000
0001
,
1000
0001
1000
0001
1000
0001
1000
0001
,
0100
0010
0100
0010
0100
0010
0100
0010
,
0100
0010
0100
0010
0100
0010
0100
0010
,
1000
0100
1000
0000
0100
1000
0100
0000
0010
0001
0010
0000
0001
0010
0001
0000
,
1000
0010
1000
0000
0001
0100
0001
0000
0010
0001
0010
0000
0100
1000
0100
0000
,
1000
0100
1000
0000
0100
0010
0100
0000
0010
0001
0010
0000
0001
0100
0001
0000
,
1000
0100
0010
0000
0001
0100
0010
0000
1000
0100
0010
0000
0001
0100
0010
0000
,
1000
0100
1000
0010
0100
0001
0010
0001
0100
0010
1000
0100
1000
0010
0100
0001
,
1000
0100
1000
0010
0100
0001
0010
0001
0100
0010
1000
0100
1000
0010
0100
0001
,
1000
0100
0010
0100
1000
0010
0100
0010
1000
0100
0010
0100
1000
0010
0100
0010
,
0100
0001
0010
0100
0010
0001
0100
0010
0100
0001
0010
0100
0010
0001
0100
0010
,
1000
0100
0010
0001
1000
0010
0100
0001
1000
0100
0010
0001
1000
0010
0100
0001
,
0100
0010
1000
0001
0010
0100
1000
0001
0100
0010
1000
0001
0010
0100
1000
0001
,
1000
0100
0010
0100
0001
0100
1000
0010
0100
0010
0001
0010
0100
0001
1000
0100
,
1000
0010
0100
0001
0010
0100
1000
0001
1001
0000
0000
0000
0000
0000
0000
0000
,
1010
0001
0100
0001
1000
0001
0100
0001
,
1010
0100
0010
0100
0001
0100
0010
1000
,
0101
0010
0100
0001
0100
0010
0001
0010
,
1100
0010
0100
0001
0100
0010
0001
1000
,
0101
0010
1000
0010
0100
1000
0100
0010
,
1100
0010
0100
0001
0100
0010
1000
0010
,
0101
1000
0010
0100
0001
0100
0010
1000
,
0101
0000
0000
0010
0000
0000
1000
0000
0000
0001
0000
0000
1010
0000
0000
0000
0110
0000
0000
0000
0101
0000
0000
0000
,
0011
0000
1001
0000
0000
0000
0000
0000
0000
1001
0000
0000
,
0000
0000
0000
0000
,
1001
0010
0100
0001
0010
0100
1000
0100
,
0010
0001
1000
0000
0000
0000
1100
0010
,
0001
1000
0010
0100
0001
0010
0100
0000
,
0000
0011
0000
0000
,
1011
0000
0000
0100
;
