#TITLE:Little God Ch@nnel;
#SUBTITLE:;
#ARTIST:DJ Sharpnel;
#TITLETRANSLIT:;
#SUBTITLETRANSLIT:;
#ARTISTTRANSLIT:;
#CREDIT:;
#BANNER:Little Doge Channel - bn.png;
#BACKGROUND:Little Doge Channel - bg.png;
#LYRICSPATH:;
#CDTITLE:;
#MUSIC:Little God Channel.ogg;
#OFFSET:-1.261;
#SAMPLESTART:227.602;
#SAMPLELENGTH:20.343;
#SELECTABLE:YES;
#DISPLAYBPM:189.000;
#BPMS:0.000=188.750;
#STOPS:;
#BGCHANGES:;
// cache tags:
#FIRSTBEAT:4.000;
#LASTBEAT:780.000;
#SONGFILENAME:Songs/Jimmy Jawns/Little God Channel - [Aoreo]/Little God Channel.sm;
#HASMUSIC:1;
#HASBANNER:1;
#MUSICLENGTH:251.918;
// end cache tags

//---------------dance-single - J. Nero----------------
#NOTES:
     dance-single:
     J. Nero:
     Challenge:
     16:
     1.000,1.000,0.020,0.167,1.000,2510.000,5.000,42.000,3.000,0.000:
0000
0000
0000
0000
,
0001
0000
0000
0000
1000
0000
0000
0000
0100
0000
0000
0000
2000
0000
0000
0000
0001
0000
0000
3000
2000
0000
0000
0000
3010
0000
0000
0000
0100
0000
0000
0000
,
0001
0000
0010
0000
0100
0000
2000
3000
0010
0000
0100
0000
0001
0000
1000
0000
,
0100
0000
0000
0000
0010
0000
0000
0000
0001
0000
0000
0000
2000
0000
0000
0000
0100
0000
0000
3000
2000
0000
0000
0000
0001
0000
0000
3000
2000
0000
0000
0000
,
0010
0000
0000
0000
3000
0000
M100
0000
0000
0000
0000
0000
0010
0000
0000
0000
0000
0000
1000
0000
0000
0000
0000
0000
0001
0000
0000
0000
0000
0000
0010
0000
0000
0000
0000
0000
0100
0000
0000
1000
0000
0000
0001
0000
0000
1000
0000
0000
,
0001
0000
0000
0000
0100
0000
0000
0000
0010
0000
0000
0000
0200
0000
0000
0000
0001
0000
0000
0300
0200
0000
0000
0000
0310
0000
0000
0000
1000
0000
0000
0000
,
0001
0010
0100
2000
3001
0100
0010
0100
,
0001
0000
0000
0000
1000
0000
0000
0000
0100
0000
0000
0000
2000
0000
0000
0000
0001
0000
0000
3000
2000
0000
0000
0000
0010
0000
0000
3000
2000
0000
0000
0000
,
0100
0000
0000
0000
3000
0000
M010
0000
0000
0000
0000
0000
0001
0000
0000
0000
0000
0000
1000
0000
0000
0000
0000
0000
0010
0000
0000
0100
0000
0000
0010
0000
0000
0000
0000
0000
1000
0000
0000
0000
0000
0000
0001
0000
0000
0000
0000
0000
,
0020
0000
0030
0000
0100
0000
0000
0000
1000
0000
0000
0000
0002
0000
0000
0000
0100
0000
0000
0003
0002
0000
0000
0000
0013
0000
0000
0000
0100
0000
0000
0000
,
1000
0000
0010
0000
0100
0000
0002
0003
1000
0000
0100
0000
0010
0000
0100
0000
,
1000
0000
0000
0000
0001
0000
0000
0000
0100
0000
0000
0000
0020
0000
0000
0000
1000
0000
0000
0030
0020
0000
0000
0000
0100
0000
0000
0030
0020
0000
0000
0000
,
1000
0000
0000
0000
0030
0000
00M1
0000
0000
0000
0000
0000
0100
0000
0000
0000
0000
0000
0001
0000
0000
0000
0000
0000
0010
0000
0000
0000
0000
0000
0100
0000
0000
0000
0000
0000
1000
0000
0000
0100
0000
0000
1000
0000
0000
0001
0000
0000
,
0100
0001
0000
1000
0000
0100
0000
0010
,
0000
0001
0000
1000
0000
0001
0000
0100
,
0001
1000
0001
0100
0001
1000
0100
0010
0001
1000
0001
0100
0010
0100
0001
1000
,
0001
0010
0100
1000
0001
0000
1001
0000
,
1000
0100
1000
0001
0100
0001
1000
0001
1000
0100
0010
0001
1000
0001
0100
0001
,
1000
0100
0010
0100
1000
0001
1000
0001
0100
0000
0010
0000
0100
0000
0010
0000
,
1000
0001
0100
0001
1000
0100
1000
0001
0010
0100
1000
0001
1000
0010
0100
0010
,
1000
0001
0010
0001
1000
0100
0010
0001
1000
0000
0001
0000
0100
0001
0100
0001
,
0010
0100
1000
0001
1000
0001
0100
0010
0100
0001
1000
0001
0010
0100
1000
0001
,
1000
0001
0100
0010
0100
0001
1000
0001
0010
0000
0100
0000
0010
0000
0100
1000
,
0010
0000
1000
0000
0002
0003
0100
0001
0010
0000
0100
0000
2000
3000
0010
0100
,
0001
1000
0001
0010
0100
1000
0001
0100
0010
0100
0001
1000
0002
0000
0000
0000
,
1003
0100
1000
0001
0100
0001
1000
0100
0010
0001
1000
0100
1000
0001
1000
0010
,
0100
0010
1000
0001
0100
0001
1000
0100
1000
0000
0100
0000
0010
0000
0001
0000
,
1000
0001
1000
0100
1000
0001
0100
0010
0100
0001
1000
0001
1000
0100
0010
0001
,
1000
0001
0100
0001
1000
0010
0100
0010
1000
0000
0001
0000
0100
0001
0100
0001
,
0010
0100
1000
0001
1000
0001
0100
0010
0100
0001
1000
0001
1000
0100
0010
0001
,
1000
0100
0010
0100
1000
0001
0100
0001
1000
0100
1000
0001
0100
0001
1000
0100
,
0010
0100
1000
0001
0100
0001
1000
0010
0100
0010
1000
0001
1000
0100
0010
0001
,
1000
0000
0000
0001
0000
0000
0010
0000
0000
0100
0000
0000
1000
0001
1000
0001
0000
0000
0100
0000
0000
0000
0000
0000
,
0101
0000
0000
0000
0001
0000
1000
0000
0001
0000
0000
0000
1000
0100
1000
0100
,
0010
0001
1000
0001
0100
0001
1000
0100
1000
0100
0010
0001
1000
0001
0100
0001
,
1000
0010
0100
0010
1000
0001
1000
0100
1000
0001
0100
0010
0100
0001
1000
0100
,
1000
0001
0010
0100
1000
0001
1000
0010
0100
0010
1000
0001
1000
0100
1000
0001
,
0010
0100
1000
0001
0100
0001
1000
0010
0100
0010
1000
0001
1000
0100
0010
0001
,
1000
0100
1000
0001
0100
0010
0100
0001
1000
0001
0010
0100
1000
0001
1000
0001
,
0100
0001
1000
0010
0100
0001
1000
0001
1000
0100
0010
0001
1000
0100
1000
0001
,
1000
0010
0100
0010
1000
0001
0100
0001
1000
0001
0010
0100
1000
0001
1000
0100
,
1000
0000
0001
0000
0400
0000
0000
0300
0001
1000
0001
0000
0010
0000
0100
0000
,
1000
0010
0100
0001
1000
0001
1000
0100
0010
0001
1000
0100
1000
0001
0100
0001
,
0100
0010
1000
0001
1000
0100
0010
0100
1000
0001
0100
0001
1000
0100
0010
0001
,
1000
0001
0100
0001
1000
0010
0100
0010
1000
0001
1000
0100
1000
0001
0100
0001
,
1000
0100
0010
0100
1000
0001
0100
0001
1000
0010
0100
0010
1000
0001
1000
0100
,
0010
0001
1000
0100
1000
0001
0100
0010
0100
0001
1000
0001
0010
0100
1000
0001
,
1000
0001
0100
0001
1000
0100
0010
0001
1000
0100
1000
0001
0100
0001
1000
0001
,
0100
0010
0100
0001
1000
0001
1000
0100
1000
0001
0010
0100
1000
0001
0100
0001
,
1000
0000
0000
0100
0000
0000
0010
0000
0000
0100
0000
0000
1000
0001
1000
0001
0000
0000
1000
0000
0000
0000
0000
0000
,
0001
0100
0001
1000
0100
0010
0001
1000
0001
0100
0001
1000
0100
1000
0010
0100
,
0010
1000
0100
0010
0100
1000
0010
0100
0010
1000
0100
0010
0100
1000
0010
0100
,
0001
1000
0001
0100
0001
1000
0100
0010
0100
1000
0001
1000
0001
0100
0001
0010
,
0100
0010
0001
0100
0010
0100
0001
0010
0100
0010
0001
0100
0010
0100
0001
0010
,
0100
1000
0001
1000
0010
0100
0010
1000
0001
1000
0100
0010
0100
1000
0010
0100
,
0010
1000
0100
0010
0100
1000
0010
0100
0010
1000
0100
0010
0100
1000
0010
0100
,
0001
1000
0001
0010
0100
1000
0001
1000
0100
1000
0001
0100
0001
0010
0100
0010
,
0001
0100
0010
0100
0001
0010
0100
0010
0001
0100
0010
0100
0001
0010
0100
1000
,
0001
0100
0001
1000
0010
0100
0010
1000
0001
1000
0100
0010
0001
1000
0100
1000
,
0001
1000
0001
0100
0010
0100
0001
0100
0010
1000
0001
1000
0100
0010
0001
1000
,
0100
0010
0100
1000
0001
0100
0001
1000
0001
0100
0010
0100
0001
1000
0100
0010
,
0001
1000
0001
0100
0001
1000
0100
1000
0001
1000
0010
0100
0010
1000
0001
0100
,
0001
1000
0001
1000
0100
0010
0001
1000
0100
1000
0001
0100
0001
1000
0010
0100
,
0010
1000
0001
0010
0100
1000
0001
0100
0001
1000
0100
0010
0100
1000
0001
0100
,
0001
1000
0010
0100
0010
1000
0001
1000
0100
0010
0001
1000
0100
1000
0001
0100
,
0001
0000
0000
0010
0000
0000
0100
0000
0000
1000
0000
0000
0001
1000
0001
1000
0000
0000
0010
0000
0000
0000
0000
0000
,
0110
0000
0000
0000
,
0000
0000
0000
0000
,
0000
0000
0000
0000
,
0000
0000
0000
0000
,
1000
0100
1000
0001
,
0100
0001
0010
0100
,
1000
0001
0100
0001
,
1000
0000
0000
0000
0001
0100
0001
1000
0010
0100
0010
1000
0002
0000
0003
0000
,
1001
1000
0100
0010
0200
0300
0010
0001
,
1000
0000
0001
0000
0100
0000
0010
0000
0200
0000
0000
0000
0301
0000
0020
0030
,
0100
1000
0001
0100
0010
0100
0001
1000
,
0000
1000
0100
0010
0001
1000
0010
0200
,
0301
1000
0100
1000
,
0001
0100
0010
1000
,
0001
0100
0001
1000
0001
0100
0010
0100
0001
1000
0100
0010
0001
1000
0001
0100
,
0001
1000
0100
1000
0001
1000
0010
0100
0010
1000
0001
0100
0002
0000
0003
0000
,
1000
0100
1000
0001
0100
0001
1000
0001
0100
0010
0100
0001
1000
0001
0100
0001
,
1000
0100
1000
0001
1000
0010
0100
0010
1000
0001
1000
0100
0010
0100
0010
0001
,
1000
0001
0100
0010
0100
0001
1000
0001
0100
0010
0100
0001
1000
0100
0010
0100
,
1000
0001
0100
0010
1000
0010
1000
0001
0100
0001
1000
0100
1000
0001
1000
0100
,
0010
0001
1000
0001
0100
0010
0100
0001
1000
0001
0010
0100
1000
0001
0100
0001
,
1000
0010
1000
0010
0100
0001
1000
0100
1000
0100
0010
0001
1000
0001
0100
0010
,
0100
0001
1000
0001
0010
0100
1000
0001
0100
0001
1000
0100
1000
0001
0100
0010
,
1000
0001
0010
0100
1000
0010
0100
0001
0010
0100
1000
0001
0200
0000
0300
0000
,
0001
0100
0001
1000
0100
1000
0001
1000
0010
0100
0010
1000
0001
0100
0001
1000
,
0100
0010
0001
1000
0100
1000
0001
0100
0010
0100
0001
1000
0001
0010
0100
1000
,
0001
0100
0001
1000
0001
0100
0010
0100
0001
1000
0100
1000
0001
1000
0010
0100
,
0010
1000
0001
0100
0001
0100
0010
1000
0001
1000
0100
0010
0001
1000
0001
0100
,
0010
0100
0001
1000
0001
0010
0100
1000
0001
0100
0001
1000
0100
0010
0100
1000
,
0001
1000
0001
0100
0010
0100
0001
1000
0001
0100
0001
1000
0100
1000
0001
0100
,
0001
1000
0100
0010
0100
1000
0001
0100
0001
1000
0100
0010
0001
1000
0001
0100
,
0001
1000
0100
0010
0001
0100
0010
1000
0100
0010
0001
0100
0002
0000
0003
0000
,
1000
0001
1000
0100
0010
0001
1000
0001
1000
0010
0100
0001
0100
0001
1000
0010
,
0100
0010
1000
0001
1000
0100
0010
0001
1000
0001
0100
0001
1000
0100
1000
0001
,
1000
0001
0010
0100
1000
0001
0100
0001
0100
0010
1000
0010
0100
0001
1000
0001
,
1000
0010
0100
0001
1000
0001
1000
0100
1000
0001
0010
0100
1000
0001
0100
0001
,
1000
0001
1000
0010
0100
0010
1000
0001
0100
0001
1000
0100
1000
0001
0010
0100
,
1000
0001
0100
0001
0100
0010
1000
0010
0100
0001
1000
0100
1000
0100
0010
0001
,
1000
0001
1000
0100
1000
0001
0100
0010
0100
0001
1000
0100
1000
0001
1000
0001
,
0100
0001
1000
0100
0010
0100
1000
0001
0010
0001
1000
0001
0100
0010
0100
0001
,
1000
0001
0100
0010
1000
0010
0100
0001
1000
0001
1000
0100
0010
0100
1000
0001
,
0100
0001
1000
0001
0100
0010
0100
0001
1000
0100
0010
0001
1000
0100
1000
0001
,
0100
0010
0100
0001
1000
0001
0010
0100
1000
0001
0100
0001
1000
0100
1000
0001
,
1000
0010
0100
0010
1000
0001
0100
0001
1000
0100
0010
0001
1000
0100
1000
0001
,
0100
0010
0100
0001
1000
0001
0010
0100
1000
0001
0100
0010
0100
0001
1000
0100
,
0010
0100
1000
0001
0100
0010
0100
0001
1000
0001
1000
0100
0010
0001
1000
0001
,
1000
0100
0010
0001
1000
0001
0100
0010
0100
0001
1000
0100
0010
0001
1000
0100
,
1000
0000
0000
0100
0000
0000
1000
0000
0000
0001
0000
0000
0100
0001
0100
0001
0000
0000
2000
0000
3000
0000
0000
0000
,
0001
0100
0001
1000
0100
0010
0001
1000
0001
0100
0001
1000
0010
1000
0010
0100
,
0001
0100
0001
1000
0100
0010
0100
1000
0001
0100
0001
1000
0010
0100
0010
1000
,
0001
0100
0001
1000
0100
1000
0001
1000
0010
0100
0010
1000
0001
0010
0100
1000
,
0001
0100
0010
0100
0001
1000
0100
0010
0001
1000
0001
0000
1000
0000
0100
0000
,
1000
0100
0010
0001
1000
0001
0100
0001
1000
0010
1000
0010
0100
0001
1000
0001
,
1000
0100
0010
0001
1000
0100
1000
0001
0100
0001
1000
0010
0100
0010
1000
0001
,
0010
0100
1000
0001
0100
0010
0100
0001
1000
0100
1000
0001
0010
0100
1000
0001
,
0100
0001
1000
0010
0100
0001
1000
0100
0010
0100
0010
0100
0010
0000
0001
0000
,
1000
0100
1000
0001
0100
0001
1000
0001
0010
0100
1000
0001
0100
0001
0100
0010
,
1000
0001
1000
0100
1000
0001
0100
0001
1000
0001
1000
0010
0100
0001
0100
0010
,
1000
0001
1000
0100
1000
0001
0010
0100
1000
0001
0100
0001
1000
0010
0100
0010
,
1000
0001
1000
0100
0010
0001
1000
0001
0100
0010
0100
0000
0001
0000
0010
0000
,
0100
1000
0001
1000
0001
0010
0100
1000
0001
0010
0001
1000
0010
0100
0010
1000
,
0001
1000
0100
1000
0001
0010
0100
0010
0001
1000
0010
1000
0001
0100
0010
0100
,
0001
1000
0001
0010
0100
1000
0001
0010
0001
1000
0010
0100
0010
1000
0001
1000
,
0001
0100
0010
0100
0001
1000
0001
0010
0100
0010
0100
0010
0100
0000
1000
0000
,
0001
1000
0001
0100
0001
1000
0010
0100
0001
1000
0100
1000
0001
0100
0001
1000
,
0100
0010
0100
1000
0001
0100
0001
1000
0001
0100
0010
0100
0010
1000
0001
0100
,
0001
0100
0001
1000
0100
1000
0001
1000
0100
0010
0100
1000
0001
1000
0001
0100
,
0001
1000
0100
1000
0001
0100
0001
1000
0010
0100
0001
1000
0001
0010
0100
1000
,
0001
1000
0001
0100
0010
0100
0001
1000
0001
0100
0001
1000
0100
1000
0001
0010
,
0100
1000
0001
0100
0001
1000
0010
1000
0010
0100
0001
1000
0001
0100
0001
1000
,
0100
0010
0100
1000
0001
0100
0001
1000
0100
1000
0001
1000
0100
0010
0100
1000
,
0001
0100
0001
1000
0100
1000
0001
0100
0001
1000
0001
0000
0010
0000
0100
0000
,
1000
0001
0100
0010
0100
0001
1000
0100
0010
0001
1000
0100
1000
0001
1000
0010
,
0100
0010
1000
0001
0100
0001
0100
0010
1000
0001
0100
0001
0100
0010
1000
0010
,
0100
0001
1000
0001
1000
0100
0010
0001
1000
0100
1000
0001
0100
0001
1000
0001
,
0100
0010
0100
0001
1000
0100
0010
0100
1000
0001
0100
0001
1000
0010
0100
0010
,
1000
0001
1000
0100
0010
0100
0010
0001
1000
0001
0100
0001
1000
0100
1000
0001
,
1000
0010
0100
0010
1000
0001
0100
0001
0100
0010
1000
0010
0100
0001
1000
0001
,
0010
0100
1000
0001
0100
0001
1000
0100
1000
0100
0010
0001
1000
0001
0100
0001
,
2000
0000
0000
0000
3000
0000
0000
0000
0000
0000
0000
0000
0001
0100
0001
1000
,
0200
0300
0000
0000
,
0000
0000
0000
0000
,
0000
0000
0000
0000
,
0000
0000
0000
0000
,
1000
0100
1000
0001
,
0100
0010
0100
0001
,
0010
0100
1000
0001
,
0100
0000
0000
0000
0001
0100
0001
1000
0100
0010
0001
1000
0002
0000
0003
0000
,
1001
1000
0100
1000
0002
0003
0100
0010
,
0100
0000
0001
0000
0010
0000
0100
0000
2000
0000
0000
0000
3100
0000
2000
3000
,
0010
0100
0010
1000
0001
0010
0100
1000
,
0000
1000
0001
0010
0100
1000
0001
0200
,
0310
0100
0001
0010
,
0100
1000
0001
0100
,
0001
0100
0001
1000
0010
0100
0010
1000
0001
1000
0100
0010
0001
1000
0100
1000
,
0001
0100
0010
0100
0001
1000
0001
0010
0100
1000
0001
0100
0002
0000
0003
0000
,
1000
0100
1000
0001
0010
0100
1000
0001
0100
0001
1000
0100
1000
0001
1000
0010
,
0100
0010
1000
0001
0100
0001
1000
0100
0010
0001
1000
0100
1000
0001
0100
0010
,
0100
0001
1000
0001
0010
0100
1000
0001
1000
0100
1000
0001
0100
0001
1000
0001
,
0100
0010
0100
0001
1000
0100
0010
0001
1000
0100
1000
0001
0100
0010
0100
0001
,
1000
0001
1000
0100
1000
0001
0100
0001
0100
0010
1000
0001
1000
0001
0010
0100
,
1000
0001
0100
0001
1000
0010
0100
0010
1000
0001
0100
0010
0100
0001
1000
0100
,
1000
0001
0010
0100
1000
0001
0100
0001
1000
0010
0100
0010
1000
0001
1000
0100
,
1000
0001
0010
0100
1000
0010
0100
0001
0010
0100
1000
0010
0200
0000
0300
0000
,
0001
0100
0001
1000
0100
1000
0100
0010
0001
1000
0001
0100
0010
0100
0001
1000
,
0100
1000
0001
1000
0010
0100
0001
0100
0001
1000
0010
0100
0001
1000
0001
1000
,
0100
0010
0100
1000
0001
1000
0100
1000
0001
0100
0001
1000
0001
0100
0010
0100
,
0001
1000
0100
1000
0001
0010
0100
1000
0001
1000
0001
0100
0010
0100
0001
1000
,
0001
1000
0010
1000
0001
0100
0001
1000
0100
1000
0001
0010
0100
1000
0001
0100
,
0001
0100
0010
1000
0001
1000
0100
0010
0001
1000
0100
1000
0001
0100
0001
1000
,
0001
0100
0010
1000
0001
1000
0001
0100
0010
0100
0001
0100
0010
1000
0001
1000
,
0100
1000
0001
0010
0100
1000
0001
0100
0010
0100
0001
1000
0100
0010
0001
1000
,
0001
0100
0010
1000
0010
1000
0001
0100
0001
1000
0001
0010
0100
1000
0001
0100
,
0001
1000
0010
0100
0010
1000
0001
0100
0001
1000
0100
0010
0100
1000
0001
0100
,
0001
1000
0010
0100
0010
1000
0001
0100
0001
1000
0100
1000
0001
0010
0100
1000
,
0001
0100
0001
1000
0100
1000
0001
0100
0001
0100
0010
1000
0001
0100
0001
1000
,
0100
0010
0100
0010
0001
1000
0001
0100
0001
1000
0100
1000
0001
1000
0010
0100
,
0010
1000
0001
1000
0100
1000
0001
0100
0001
0100
0010
1000
0001
0100
0001
1000
,
0100
1000
0001
0010
0100
1000
0001
1000
0100
1000
0001
0100
0010
0100
0001
1000
,
0001
0010
0100
1000
0010
0100
0001
0010
0100
1000
0010
0100
0002
0000
0003
0000
,
1000
0100
1000
0001
0100
0001
1000
0010
0100
0010
1000
0001
1000
0100
0010
0001
,
1000
0100
1000
0001
0100
0001
1000
0001
0100
0010
0100
0001
1000
0100
0010
0100
,
1000
0001
0100
0001
1000
0010
0100
0010
1000
0001
0100
0001
1000
0100
0010
0100
,
1000
0001
0010
0001
1000
0001
0100
0010
0100
0001
1000
0100
0010
0100
1000
0001
,
1000
0001
0100
0001
0010
0100
1000
0010
,
0100
0010
1000
0100
1000
0001
0100
0001
,
1000
0001
0100
0010
0100
0001
1000
0001
0010
0100
1000
0001
0100
0001
1000
0010
,
1000
0100
1000
0010
0100
0001
0010
0001
0100
0010
1000
0100
1000
0010
0100
0001
,
2000
0000
0000
0000
,
3000
0000
0000
0000
;
