#TITLE:Disciples of Babylon;
#SUBTITLE:;
#ARTIST:DragonForce;
#TITLETRANSLIT:;
#SUBTITLETRANSLIT:;
#ARTISTTRANSLIT:;
#CREDIT:;
#BANNER:Disciples of Babylon bn.png;
#BACKGROUND:Disciples of Babylon bg.png;
#LYRICSPATH:;
#CDTITLE:cdtitle.png;
#MUSIC:Disciples of Babylon.mp3;
#OFFSET:-0.665;
#SAMPLESTART:29.480;
#SAMPLELENGTH:11.460;
#SELECTABLE:YES;
#BPMS:0.000=190.081,688.000=188.001;
#STOPS:;
#BGCHANGES:;
// cache tags:
#FIRSTBEAT:0.000;
#LASTBEAT:733.500;
#SONGFILENAME:Songs/toune 2/Disciples of Babylon/Disciples of Babylon.sm;
#HASMUSIC:1;
#HASBANNER:1;
#MUSICLENGTH:237.688;
// end cache tags

//---------------dance-single - ----------------
#NOTES:
     dance-single:
     :
     Hard:
     11:
     1.000,1.000,1.000,0.248,1.000,1815.000,294.000,59.000,0.000,23.000:
2002
0000
0000
0000
,
3003
0000
0000
0000
0000
0000
0000
0000
0100
0010
0100
0010
0100
0010
0100
0010
,
1001
0000
0000
0000
,
0110
0000
0000
0000
,
2001
0010
0010
0010
,
0001
0001
0001
0001
,
3001
0010
0100
0010
0100
0010
0001
0010
0100
0010
0100
0010
0001
0010
0100
0010
,
1000
0100
0010
0100
0010
0100
1000
0100
0010
0100
1000
0100
0010
0100
1000
0000
,
0120
1000
0100
1000
,
0231
0000
0000
0000
0010
0000
0000
0000
1300
0000
0100
0010
0100
0000
0100
0000
,
2000
0000
0010
0100
0000
0010
0001
0000
,
3002
0000
1000
0100
0000
0100
0010
0000
,
1003
0100
0010
0100
1000
0100
0010
0100
1000
0100
0010
0100
1000
0100
0010
0100
,
0001
0010
0100
0010
0001
0010
0100
0010
0001
0010
0100
0010
0001
0010
0100
0010
,
1001
0000
0100
0010
0100
0000
1001
0000
0110
0000
1001
0000
0110
0000
1001
0000
,
0100
0010
0100
0000
1001
0000
0110
0000
1001
0000
0210
0000
0000
0000
0300
0000
,
2000
0000
0200
0000
,
3020
0000
0302
0000
,
1033
0100
1000
0100
0010
0100
0010
0001
0010
0001
0010
0100
0010
0100
1000
0100
,
1000
0100
0010
0100
0010
0001
0010
0001
0010
0100
0010
0100
1000
0100
1000
0000
,
0110
0000
0001
0010
0001
0000
1100
0000
1100
0000
0010
0100
0010
0000
1001
0000
,
0110
0000
1000
0100
1000
0000
0110
0000
0110
0000
0001
0010
0001
0000
0110
0000
,
2001
0010
0010
0010
0010
0010
0010
3010
,
1001
0100
0010
0001
0100
0010
1000
0100
0010
0001
0100
0010
1001
0000
0000
0000
,
1001
0100
1000
0000
0000
0000
1001
0010
0001
0000
0100
0000
0011
0000
0100
0000
,
0011
0100
0010
0000
0000
0000
1100
0010
0100
0000
0010
0000
1100
0000
0001
0000
,
0110
0001
0010
0000
0000
0000
0110
1000
0100
0000
0001
0000
0110
0000
1000
0000
,
0101
0010
0001
0000
0000
0000
1010
0100
1000
0000
0010
0000
0101
0000
0010
0000
,
0101
0010
0100
0000
0000
0000
1010
0100
0010
0000
1000
0000
0110
0000
1000
0000
,
1001
0010
0100
0000
0000
0000
1001
0100
0010
0000
0100
0000
1001
0000
0010
0000
,
1100
0010
0001
0000
0000
0000
0011
0100
1000
0000
0100
0000
1010
0000
0100
0000
,
1001
0100
0010
0100
0010
0100
0010
0100
0010
0100
0010
0100
0010
0100
0010
0000
,
0011
1000
0100
0000
0001
0000
1010
0001
0010
0000
0000
0000
0101
0000
0000
0000
,
1001
0100
1000
0000
0010
0000
1001
0010
0001
0000
0000
0000
0110
0000
0000
0000
,
0101
0010
1000
0000
0001
0000
1010
0100
0001
0000
0000
0000
0011
0000
0000
0000
,
1010
0100
0010
0000
1000
0000
0101
0010
0100
0000
0000
0000
1001
0000
0000
0000
,
0011
0100
1000
0000
0010
0000
1100
0010
0001
0000
0000
0000
0110
0000
0000
0000
,
1001
0010
0001
0000
0100
0000
1001
0100
1000
0000
0000
0000
0101
0000
0000
0000
,
2010
0000
0010
0100
0000
0100
0001
0000
,
3220
0000
0000
0000
0000
0000
0000
0330
,
2001
0000
0010
0000
0100
0010
0001
0000
,
3021
0000
0100
0000
1000
0100
0001
0000
,
1230
0000
0010
0000
0001
0010
1000
0000
,
1300
0100
0010
0001
1000
0100
0010
0001
1000
0010
0100
0001
1000
0010
0100
0001
,
1020
0000
0100
0000
0001
0100
1000
0000
,
2031
0000
0010
0000
0100
0001
0010
0000
,
3201
0000
0010
1000
0000
1000
0010
0000
,
1300
0100
0010
0100
0010
0001
0010
0100
0010
0100
1000
0100
0010
0100
0010
0001
,
0210
0000
0010
0000
1000
0010
0001
0000
,
0312
0000
0100
0000
1000
0010
0100
0000
,
0123
0000
1000
0000
0001
1000
0100
0000
,
0031
1000
0001
1000
0001
0100
0001
0100
0001
0010
0001
0010
0001
0010
0100
0010
,
0201
0000
0010
0000
1000
0010
1000
0000
,
0321
0000
0100
0000
1000
0001
0100
0000
,
2031
0001
0001
0001
0001
0001
0001
3001
,
0101
0010
0100
0010
0100
0010
0100
0010
0100
1000
0100
0010
0001
0010
0100
1000
,
0001
0010
0001
0000
1000
0100
1000
0000
0001
0010
0001
0000
1000
0100
1000
0000
,
0010
0100
0010
0000
0100
1000
0100
0000
0010
0100
0010
0000
0001
0010
0001
0000
,
1000
0100
0010
0001
0010
0100
1000
0001
0010
0100
1000
0100
0010
0001
0100
1000
,
0100
0010
0001
0010
1000
0100
0010
0001
0010
0100
1000
0100
0020
0000
0030
0000
,
0001
0010
0100
0000
1000
0100
0010
0000
0100
0010
0001
0000
0010
0100
1000
0000
,
0001
0100
0010
0000
1000
0010
0100
0000
0010
0001
0100
0000
0010
1000
0100
0000
,
1000
0100
0010
0001
0010
0100
1000
0100
0010
0001
0010
0100
1000
0100
0010
0001
,
1010
0100
0010
0100
0010
0100
0011
0100
0010
0100
0010
0100
1020
0000
0030
0000
,
1001
0100
0010
0000
0100
0000
1001
0010
0100
0000
0000
0000
0010
0000
0000
0000
,
1010
0100
0010
0000
1000
0000
0101
0010
0100
0000
0000
0000
0001
0000
0000
0000
,
1100
0001
0010
0000
1000
0000
0011
1000
0100
0000
0000
0000
0010
0000
0000
0000
,
0110
0001
1000
0000
0010
0000
0110
1000
0001
0000
0000
0000
0100
0000
0000
0000
,
1100
0010
0100
0000
1000
0000
0011
0100
0010
0000
0000
0000
0001
0000
0000
0000
,
1001
0010
0001
0000
0100
0000
1001
0100
1000
0000
0000
0000
0010
0000
0000
0000
,
0101
0010
1000
0000
0001
0000
1010
0100
0001
0000
0000
0000
1000
0000
0000
0000
,
1000
0100
0010
0100
1000
0011
1000
0100
0010
0100
1000
0011
1000
0100
0010
0001
,
1000
0100
2000
0000
0001
3000
0100
0010
0100
0000
0011
0000
1100
0000
0000
0000
,
0100
0010
0200
0000
1000
0300
0010
0001
0010
0000
1100
0000
0110
0000
0000
0000
,
0010
1000
0020
0000
0001
0030
0100
0001
0100
0000
0011
0000
0110
0000
0000
0000
,
1001
0100
0010
1001
0010
0100
1001
0100
0010
1001
0010
0100
2001
0000
0000
3000
,
0001
0010
0002
0000
1000
0003
0010
0100
0010
0000
1100
0000
0011
0000
0000
0000
,
0010
0100
0020
0000
0001
0030
0100
1000
0100
0000
1010
0000
0110
0000
0000
0000
,
2000
0000
0100
0010
0000
0010
0001
0000
,
3202
0000
0000
0000
0000
0000
0000
0303
,
1000
1000
1010
0010
0110
0100
0101
0001
,
1001
1000
1100
0100
0110
0010
0011
0001
,
1001
0001
0011
0010
0110
0100
1100
1000
,
1000
0100
1000
0100
0010
0100
0010
0001
0010
0001
0010
0100
0010
0100
1000
0000
,
0110
1000
0100
0010
1000
0001
0010
0100
,
0001
0100
0010
1000
0100
0010
0100
0001
,
0010
0000
0100
0010
0000
0010
0100
0000
,
1001
0010
0100
0010
1001
0100
0010
0100
1001
0010
0100
0010
1001
0100
0010
0100
,
1001
1000
1000
1000
1001
0001
0001
0001
,
0101
0100
0100
0100
0110
0010
0010
0010
,
1010
1000
1000
1000
1001
0001
0001
0001
,
1001
0010
0001
0010
1100
0010
0100
1000
0110
1000
0001
1000
0101
0010
0001
0010
,
1100
0100
1010
0100
0011
0010
0101
0010
,
1100
0010
0101
1000
0110
0001
1010
0100
,
1001
1001
1001
1001
1001
1001
1001
1001
,
0110
0000
0100
0010
0100
0000
0100
0000
0100
0000
0100
0000
0100
0000
0100
0000
,
2001
0010
0100
0010
0100
0001
0010
0100
,
3021
0100
1000
0100
1000
0001
0100
1000
,
0231
1000
0010
1000
0001
0010
1000
0010
,
1302
0100
0010
0100
1000
0010
1000
0100
,
1013
0100
0001
0010
0100
0010
1000
0001
,
1010
0100
0011
0100
1010
0001
1010
0100
,
1001
0100
1000
0100
1000
0100
1001
0100
1000
0100
1000
0100
1001
0100
1000
0100
,
1001
0010
0001
0010
0001
0010
1001
0010
0001
0010
0001
0010
1001
0010
0001
0010
,
1001
0100
0010
0001
0100
0010
0001
0010
0100
1000
0010
0100
1000
0010
0001
0010
,
0100
0010
1000
0100
0010
0001
0010
0100
1000
0010
0100
0001
0010
0100
1000
0010
,
0001
0010
0100
0010
0001
0010
0100
1000
0010
0100
0001
0010
0100
1000
0100
0010
,
0001
1000
0100
0010
0001
0010
0100
0001
0010
0100
1000
0100
0010
0100
0010
0001
,
0100
1000
0100
0010
0001
0010
0100
1000
0010
0100
1000
0100
0010
0100
0010
0001
,
0010
0100
1000
0001
0010
0100
1000
0100
0010
0100
0010
0001
1000
0100
0010
0001
,
0100
0010
0100
0010
0100
0010
0100
0010
0001
1000
0001
1000
0001
1000
0001
1000
,
0110
0000
0000
0000
0000
0000
0000
0000
0000
0000
0000
0000
0000
0000
0000
0000
0000
0000
0000
0000
0000
0000
0000
0000
0000
0100
0010
0000
0000
0000
0000
0000
,
0110
1000
0100
1000
0100
1000
0100
1000
0100
0010
0100
0010
0100
0010
0100
0010
,
0001
0010
0001
0010
0001
0010
0001
0010
0001
1000
0001
1000
0001
1000
0001
1000
,
0100
0001
0100
0001
0100
0001
0100
0001
0010
1000
0010
1000
0010
1000
0010
1000
,
0100
0010
0100
0010
0100
0010
0100
0010
0100
1000
0100
1000
0100
1000
0100
1000
,
0001
0010
0100
1000
0001
0100
0010
1000
0001
0010
0100
1000
0001
0100
0010
1000
,
0001
0010
0100
0010
0100
1000
0100
0010
0100
0010
0001
0010
0100
0010
0100
0010
,
0001
1000
0001
1000
0001
1000
0001
1000
0001
0100
0001
0100
0001
0100
0001
0100
,
0001
0010
0001
0010
0001
0010
0001
0010
0100
0010
0100
0010
0100
0010
0100
0010
,
2000
0000
0200
0000
,
3020
0000
0000
0000
0000
0000
0000
0000
0302
0000
0000
0000
0000
0000
0000
0033
,
1000
0100
1000
0100
0010
0100
0010
0001
0010
0001
0010
0100
0010
0100
1000
0100
,
1000
0100
0010
0100
0010
0001
0010
0001
0010
0100
0010
0100
1000
0100
1000
0100
,
1001
0000
0100
0010
0100
0000
1001
0000
0110
0000
1001
0000
0110
0000
1001
0000
,
0100
0010
0100
0000
1001
0000
0110
0000
1001
0000
0110
0000
1001
0000
0110
0000
,
1001
1001
1001
1001
1001
1001
1001
1001
,
1000
0100
0010
0001
0010
0100
1000
0100
0010
0001
0010
0100
1000
0100
0010
0001
,
1010
0100
1010
0001
1010
0100
1010
0001
,
0101
0010
0101
1000
0101
0010
0101
1000
,
0110
0001
0110
1000
0110
0001
0110
1000
,
0001
0010
0100
1000
0010
0100
0001
0010
0100
1000
0010
0100
0001
0010
0100
1000
,
0110
0001
0110
1000
0110
0001
0110
1000
,
1001
0010
1001
0100
1001
0010
1001
0100
,
1001
0010
0100
0010
0100
0010
0101
0010
0100
0010
0100
0010
0101
0010
0100
0010
,
1000
0100
0010
0001
1000
0100
0010
0001
1000
0100
0010
0001
1000
0100
0010
0001
,
1010
0100
1010
0100
0011
0100
0011
0100
,
1001
0100
1001
0100
1010
0100
1010
0100
,
0101
0010
0101
0010
1100
0010
1100
0010
,
1000
0100
0010
0001
0100
0010
1000
0100
0010
0001
0100
0010
1000
0100
0010
0001
,
1100
0001
1100
0001
0110
0001
0110
0001
,
1010
0001
1010
0001
1100
0001
1100
0001
,
0110
0110
0110
0110
0110
0110
0110
0110
,
1000
0001
1000
0001
1000
0001
1000
0001
1000
0001
1000
0001
1000
0001
1000
0001
,
2010
0001
0100
0010
0001
0010
0100
0001
,
3120
0001
1000
0001
0100
0001
1000
0001
,
1230
0010
1000
0010
0001
1000
0010
1000
,
0312
0000
0100
0000
1000
0000
0010
0000
0100
0000
0010
0000
1000
0000
0010
0003
,
0100
1000
0001
0100
0010
1000
0100
0001
,
1000
0100
0001
0010
0100
0010
1000
0100
,
1000
0001
1000
0001
1000
0001
1000
0010
1000
0010
1000
0010
1000
0100
1000
0100
,
1000
0001
1000
0001
1000
0001
1000
0010
1000
0010
1000
0010
1000
0100
1000
0100
,
1001
0110
1100
0011
,
0110
0101
1100
1010
,
1000
0010
0100
0001
0010
0100
1000
0010
,
1000
0100
1000
0010
0100
0010
0001
0010
,
1100
0010
0101
0010
1100
0001
1010
0100
,
0011
0100
1010
0001
1100
0010
1001
0100
,
0010
0100
0010
0100
0010
0100
0010
0100
0010
0100
0010
0100
0010
0100
0010
0100
,
1001
0000
0000
0000
0000
0000
0000
0000
0000
0000
0000
0000
0000
0000
0000
0000
0000
0000
0000
0000
0000
0000
0000
0000
0000
0010
0100
0000
0000
0000
0000
0000
,
1001
0100
0010
0100
1000
0100
0010
0001
0100
0010
0001
0010
0100
0010
0100
1000
,
0100
0010
0001
0010
0001
1000
0100
0010
0001
0100
0010
1000
0010
0100
0001
0010
,
0100
1000
0100
0010
0100
1000
0001
0010
0100
1000
0001
0100
0010
1000
0100
0010
,
0001
0010
0100
0010
0100
1000
0100
1000
0100
0001
0010
0100
0010
0001
1000
0100
,
0010
0001
0010
1000
0100
0010
0100
1000
0001
0010
0100
1000
0100
0010
1000
0100
,
0010
0001
0010
0100
1000
0010
0100
0001
0010
0100
1000
0100
1000
0001
0010
0100
,
0010
0100
0010
0100
1000
0010
0100
0010
0100
1000
0100
0010
0001
0010
0100
0010
,
0100
1000
0100
1000
0100
0010
0100
1000
0001
1000
0001
1000
0001
1000
0001
1000
,
0110
0001
0010
0100
1000
0100
1000
0010
0100
1000
0100
0010
0001
0010
0100
0010
,
0100
0001
0010
0100
1000
0100
0010
0001
0100
0010
1000
0100
0010
0100
0010
0100
,
1000
0100
1000
0100
1000
0100
1000
0100
0010
0100
0010
0100
0010
0100
0010
0100
,
0010
0001
0010
0001
0010
0001
0010
0001
0010
0001
0010
0001
0220
0000
0330
0000
,
1001
0000
0010
0100
0010
0000
1001
0000
0110
0000
1001
0000
0110
0000
1001
0000
,
0100
0010
0100
0000
1001
0000
0110
0000
1001
0000
0110
0000
1001
0000
0110
0000
,
1001
1001
1001
1001
1001
1001
1001
1001
,
0220
0000
0000
0000
,
0030
0000
0000
0000
0000
0000
0001
0000
0000
0000
0000
0000
0000
0000
0000
1000
0010
0000
0000
0000
0010
0000
0000
0000
0000
0000
0000
0000
0000
0000
0000
0000
,
0300
0000
2000
0000
0000
0000
0000
0000
0000
0000
0000
0000
0000
0000
3100
0010
,
0002
0000
0000
0000
0000
0000
0013
0100
1000
0100
0010
0001
0010
0100
1000
0100
,
0010
0001
0010
0100
1000
0100
0010
0001
0010
0100
1000
0100
0020
0000
0000
0000
,
0000
0000
0000
0000
0000
0000
0000
0000
0130
1000
0100
0010
0001
0010
0001
0010
,
0100
1000
0100
0010
0001
0010
0200
0000
0000
0000
0000
0000
0000
0000
0000
0000
,
0000
0000
0000
0000
,
0000
0000
0000
0300
0000
0000
0000
0000
;
