#TITLE:Summer in Belize;
#SUBTITLE:;
#ARTIST:Digital Explosion;
#TITLETRANSLIT:;
#SUBTITLETRANSLIT:;
#ARTISTTRANSLIT:;
#CREDIT:;
#BANNER:SummerInBelize-bn.png;
#BACKGROUND:SummerInBelize-bg.png;
#LYRICSPATH:;
#CDTITLE:!joeCDtitle.png;
#MUSIC:Digital Explosion - Summer in Belize.mp3;
#OFFSET:0.360;
#SAMPLESTART:100.000;
#SAMPLELENGTH:12.000;
#SELECTABLE:YES;
#BPMS:0.000=140.000;
#STOPS:;
#BGCHANGES:;
// cache tags:
#FIRSTBEAT:1.000;
#LASTBEAT:532.000;
#SONGFILENAME:Songs/Fresh Flock of Fantastic Files F4/(-joe-) Summer in Belize/SummerinBelize.sm;
#HASMUSIC:1;
#HASBANNER:1;
#MUSICLENGTH:228.466;
// end cache tags

//---------------dance-single - ----------------
#NOTES:
     dance-single:
     :
     Hard:
     11:
     1.000,1.000,0.337,0.066,1.000,1583.000,77.000,15.000,0.000,0.000:
0000
0000
0000
0000
0001
1000
0000
1000
0010
0000
0010
0100
0000
0100
0001
0000
,
0001
1000
0000
1000
0010
0000
0010
1000
0000
1000
0001
0000
0001
0010
0000
0010
,
0100
0000
0100
0000
0001
1000
0000
0010
0100
0000
0001
1000
0000
0010
1000
0000
,
0100
1000
0000
0010
0100
0000
0001
0010
0000
0001
1000
0000
0100
1000
0000
1000
,
0010
0000
0001
0000
0001
1000
0000
0010
0100
0000
0100
0001
0000
1000
0010
0000
,
0010
0100
0000
0001
1000
0000
1000
0010
0000
0100
0001
0000
0001
0100
0000
0100
,
0001
0000
0001
0000
0100
0010
0000
0001
1000
0000
0100
1000
0000
0001
0010
0000
,
0100
0001
0000
0001
1000
0000
0010
1000
0000
0100
0010
0000
1001
0000
0100
0000
,
1001
0000
0010
0000
1000
0001
0000
0010
0001
0000
0001
1000
0000
0010
1000
0000
,
1000
0100
0000
1000
0010
0000
0001
1000
0000
0010
0100
0000
0001
1000
0000
0010
,
0100
0000
1010
0000
0100
0001
0000
0001
1000
0000
0010
0100
0000
0100
0001
0000
,
0001
1000
0000
0010
0100
0000
0001
0010
0000
0001
1000
0000
0010
0000
0100
0000
,
0110
0000
1001
0000
1000
0010
0000
0100
0001
0000
1000
0001
0000
0100
0010
0000
,
1000
0001
0000
0010
0001
0000
1000
0010
0000
1000
0100
0000
1000
0010
0000
0100
,
0001
0000
0101
0000
0001
0100
0000
0010
1000
0000
0010
0100
0000
0100
0010
0000
,
1000
0001
0000
0100
0010
0000
0010
1000
0000
1000
0001
0000
0001
0000
1000
0000
,
1010
0000
1001
0000
1000
0010
0000
0010
0100
0000
0001
1000
0000
0010
1000
0000
,
0010
0100
0000
0100
0001
0000
0010
0001
0000
0001
1000
0000
0100
1000
0000
0010
,
1000
0000
1010
0000
0010
0001
0000
0001
1000
0000
1000
0010
0000
0100
0001
0000
,
0001
1000
0000
0010
0100
0000
1000
0001
0000
0100
0010
0000
0001
0000
0100
0000
,
1001
0000
1010
0000
0010
0100
0000
0100
0010
0000
0001
1000
0000
0100
0010
0000
,
0010
1000
0000
1000
0010
0000
0010
0100
0000
0100
0001
0000
0001
1000
0000
0010
,
0100
0000
0101
0000
0001
1000
0000
0010
0100
0000
0001
1000
0000
0001
0010
0000
,
0010
1000
0000
1000
0010
0000
0100
0001
0000
0010
0001
0000
0010
0000
1000
0000
,
1001
0000
0101
0000
0100
1000
0000
1000
0001
0000
0001
0100
0000
0010
1000
0000
,
1000
0001
0000
0100
0010
0000
0001
1000
0000
0010
0100
0000
1000
0001
0000
0100
,
0010
0000
0110
0000
0100
0010
0000
0010
0100
0000
1000
0001
0000
0010
0100
0000
,
0100
0001
0000
0001
0100
0000
0100
0010
0000
0010
1000
0000
1000
0000
0100
0000
,
1010
0000
1010
0000
1000
0001
0000
0100
0010
0000
1000
0001
0000
1000
0100
0000
,
0100
0001
0000
0001
0100
0000
0010
1000
0000
0100
1000
0000
1000
0010
0000
0100
,
0001
0000
0011
0000
0001
0100
0000
0100
0010
0000
0010
0001
0000
1000
0100
0000
,
0100
0010
0000
0001
1000
0000
0010
0100
0000
1000
0001
0000
0100
0000
0001
0000
,
1100
0000
1001
0000
0001
1000
0000
1000
0001
0000
0100
0010
0000
1000
0001
0000
,
0001
0010
0000
0010
0001
0000
0001
1000
0000
1000
0100
0000
0100
0010
0000
0001
,
1000
0000
0011
0000
0010
0100
0000
1000
0001
0000
0010
0100
0000
0010
1000
0000
,
1000
0100
0000
0100
1000
0000
0001
0010
0000
1000
0010
0000
0010
0000
1000
0000
,
0101
0000
0110
0000
0100
1000
0000
1000
0001
0000
0001
0100
0000
0010
1000
0000
,
1000
0001
0000
0100
0010
0000
0001
1000
0000
0010
0100
0000
1000
0001
0000
0100
,
0010
0000
0110
0000
0100
0010
0000
0010
0100
0000
1000
0001
0000
0010
0100
0000
,
0100
0001
0000
1000
0010
0000
0010
0100
0000
0100
0001
0000
0001
1000
0010
0100
,
0001
1000
0010
0100
0002
0000
0000
0000
0000
0000
0000
0000
0000
0000
0000
0000
,
0000
0000
0000
0000
0003
1000
0001
0000
,
0000
0010
1000
0000
0000
0001
1000
0001
,
0100
0000
0001
0000
1000
0010
0100
0001
1000
0010
0100
0001
1000
0010
1000
0010
,
0100
0001
0100
0001
1000
0001
0100
0010
1000
0001
0100
0010
1000
0100
0010
0001
,
1000
0100
0010
0001
0100
0010
1000
0001
0010
0001
1000
0001
1000
0010
1000
0001
,
0100
0001
1000
0010
0100
0010
1000
0001
1000
0010
0100
0001
1000
0001
0010
0001
,
0100
0001
0100
0010
1000
0001
0010
0001
0100
0001
0010
0001
0100
0010
1000
0010
,
0100
0010
1000
0001
0100
0010
1000
0001
0010
0001
1000
0010
0100
0001
1000
0010
,
0100
0010
0100
0001
0010
0001
1000
0010
0100
0010
1000
0100
1000
0010
0100
0001
,
0010
0001
1000
0010
0100
0001
0010
0001
0100
0010
1000
0100
1000
0010
0100
0001
,
0010
0100
1000
0001
1000
0010
0100
0001
1000
0100
0010
0001
1000
0010
1000
0001
,
0100
0001
1000
0010
0100
0010
1000
0001
1000
0010
0100
0001
1000
0001
0010
0001
,
0100
0001
0010
0001
0100
0001
0010
0001
0100
0001
0010
0001
0100
0010
1000
0010
,
0100
0010
1000
0001
0100
0010
1000
0001
0010
0001
1000
0010
0100
0001
1000
0010
,
0100
0010
0100
0001
0010
0001
1000
0010
0100
0010
1000
0100
1000
0010
0100
0001
,
0010
0001
1000
0010
0100
0001
0010
0001
1100
0010
1000
0100
1000
0010
0100
0001
,
1010
0100
1000
0001
1000
0010
0100
0001
1010
0100
0010
0001
0010
0001
1000
0010
,
0101
0010
1000
0010
0100
0010
1000
0001
1100
0010
1000
0001
0100
0010
1000
0100
,
0011
0100
1000
0100
1000
0010
1000
0010
1001
0010
0100
0001
0010
0001
1000
0000
,
0101
0000
1001
0000
0100
0010
1000
0001
0010
0001
0100
0010
1000
0001
0010
0001
,
1000
0100
1000
0010
0200
0000
0000
0000
0302
0000
0000
0000
0023
0000
0000
0000
,
0032
0000
0000
0000
1003
0010
0100
0010
1000
0010
0100
0010
0100
0001
0010
0001
,
0100
0001
0010
0001
1000
0001
0100
0010
1000
0001
0010
0001
0100
0000
1001
0000
,
0110
0000
1001
0000
0100
0010
1000
0100
1000
0010
0100
0010
0100
0001
0010
0001
,
0100
0010
1000
0010
1000
0010
0100
0001
0010
0001
1000
0010
0100
0010
0100
0001
,
0010
0001
1000
0100
1000
0010
0100
0010
1000
0001
0100
0001
0010
0001
1000
0010
,
1000
0100
1000
0010
0100
0001
0010
0001
1000
0010
0100
0010
1000
0000
0101
0000
,
1010
0000
1100
0000
0100
0001
0010
0001
1000
0100
1000
0010
0100
0010
1000
0001
,
0100
0001
0010
0001
1000
0010
0100
0010
1000
0001
0100
0010
1000
0001
0010
0001
,
0100
0001
1000
0010
1000
0001
0010
0001
1000
0100
1000
0001
0100
0010
1000
0001
,
0100
0001
0010
0001
1000
0010
0100
0001
1000
0001
0100
0010
0100
0000
0110
0000
,
1001
0000
1010
0000
0100
0001
0100
0001
0100
0001
0100
0001
1000
0001
1000
0010
,
1000
0001
0100
0001
1000
0010
0100
0010
1000
0001
1000
0001
0100
0001
0100
0001
,
1000
0001
0100
0010
0100
0001
0010
0001
1000
0001
1000
0010
1000
0001
1000
0001
,
0100
0001
0010
0001
1000
0010
0100
0010
1000
0001
0100
0010
1000
0000
0101
0000
,
0110
0000
1001
0000
0100
0001
0010
0001
1000
0001
1000
0010
0100
0010
1000
0001
,
1000
0001
0100
0001
1000
0010
0100
0010
1000
0010
0100
0010
1000
0001
0010
0001
,
0100
0001
1000
0010
0100
0001
1000
0010
1000
0001
0100
0001
1000
0010
0100
0001
,
1000
0001
0100
0001
1000
0010
0100
0010
1000
0001
1000
0010
1000
0000
1100
0000
,
0011
0000
1010
0000
0100
0001
0010
0001
1000
0010
1000
0001
0100
0001
1000
0001
,
0100
0001
0100
0010
1000
0001
0100
0010
1000
0001
0100
0010
1000
0001
1000
0001
,
0100
0001
0100
0001
0100
0001
1000
0001
0010
0001
1000
0010
0100
0010
1000
0001
,
1000
0001
0100
0001
2000
0000
0000
0000
3200
0000
0000
0000
0320
0000
0000
0000
,
0032
0000
0000
0000
1003
0100
0010
0001
1000
0100
0010
0001
1000
0010
0100
0001
,
0010
0001
1000
0001
1000
0001
1000
0010
0100
0001
0100
0001
0100
0001
0100
0001
,
1000
0001
1000
0010
1000
0001
0100
0001
1000
0010
0100
0010
1000
0001
1000
0001
,
0100
0001
0100
0001
1000
0001
0100
0010
0100
0001
0010
0001
1000
0001
1000
0010
,
1000
0001
1000
0001
0100
0001
0010
0001
1000
0010
0100
0010
1000
0001
0100
0010
,
1000
0001
0100
0001
0010
0001
1000
0010
0100
0001
0010
0001
1000
0001
1000
0010
,
0100
0010
1000
0001
1000
0001
0100
0001
1000
0010
0100
0010
1000
0010
0100
0010
,
1000
0001
0010
0001
1000
0010
0100
0001
1000
0010
0100
0001
0010
0001
1000
0010
,
0100
0001
0010
0001
1000
0100
1000
0010
0100
0010
1000
0010
0100
0001
0100
0001
,
1000
0010
1000
0010
0100
0010
0100
0010
1000
0010
1000
0010
0100
0001
0100
0001
,
1000
0001
1000
0010
0100
0010
0100
0001
1000
0001
1000
0001
0100
0001
0100
0010
,
1000
0010
1000
0001
0010
0001
0010
0001
1000
0001
1000
0100
1000
0100
1000
0001
,
0100
0001
0100
0001
0220
0000
0000
0000
0330
0000
0000
0000
1000
0010
0100
0001
,
0010
0001
1000
0010
2200
0000
0000
0000
3300
0000
0000
0000
1001
0000
0000
0000
,
0000
0101
0110
1010
,
1100
0000
0000
0000
1001
0000
0001
0000
0101
0000
0001
0000
1100
0001
0010
0001
,
1000
0001
0010
0001
1000
0001
0000
1000
0010
0000
0100
0010
0000
0010
1000
0000
,
1000
0001
0000
0001
0100
0000
0100
0001
0000
0001
1000
0000
1000
0100
0000
0100
,
0010
0000
0010
0000
1000
0001
0000
0100
0010
0000
1000
0001
0000
0100
0001
0000
,
0010
0001
0000
0100
0010
0000
1000
0100
0000
1000
0001
0000
0010
0000
1010
0000
,
0110
0000
1001
0000
1000
0001
0000
0100
0010
0000
0010
1000
0000
0001
0100
0000
,
0100
0010
0000
1000
0001
0000
0001
0100
0000
0010
1000
0000
1000
0100
0000
0100
,
0001
0000
1000
0000
0010
0100
0000
1000
0001
0000
0010
0001
0000
1000
0100
0000
,
0010
1000
0000
1000
0010
0000
0010
0001
0000
1000
0100
0000
0100
0001
1000
0000
,
1010
0000
0101
0000
1000
0001
0000
0100
0010
0000
1000
0010
0000
0100
0001
0000
,
1000
0100
0000
0100
1000
0000
1000
0010
0000
0100
0001
0000
0001
0010
0000
0010
,
1000
0000
0001
0000
0100
0010
0000
0001
1000
0000
0100
1000
0000
0001
0010
0000
,
0100
0001
0000
0001
0100
0000
0100
1000
0000
0001
0010
0000
0010
0000
1001
0000
,
0110
0000
1010
0000
0001
1000
0000
0010
0100
0000
0001
0100
0000
0010
1000
0000
,
0001
0010
0000
0010
1000
0000
1000
0010
0000
0100
0001
0000
0001
0010
0000
0010
,
1000
0000
0001
0000
0100
0010
0000
0001
1000
0000
0100
1000
0000
0001
0010
0000
,
0100
0001
0000
0001
0100
0000
0100
1000
0000
0001
0010
0000
1000
0000
0011
0000
,
0110
0000
1010
0000
0001
1000
0000
0010
0100
0000
0001
0100
0000
0010
1000
0000
,
0001
0010
0000
0010
0001
0000
0001
0100
0000
0010
1000
0000
1000
0100
0000
0100
,
0001
0000
1000
0000
0010
0100
0000
1000
0001
0000
0010
0001
0000
1000
0100
0000
,
0010
1000
0000
1000
0010
0000
0010
0001
0000
1000
0100
0000
0100
0000
1100
0000
,
0110
0000
0001
0000
1000
0001
0000
0100
0010
0000
1000
0010
0000
0100
0001
0000
,
1000
0100
0000
0100
0001
0000
0001
0100
0000
0010
1000
0000
1000
0100
0000
0100
,
0001
0000
1000
0000
0010
0100
0000
1000
0001
0000
0010
0001
0000
1000
0100
0000
,
0010
1000
0000
1000
0010
0000
0010
0001
0000
1000
0100
0000
0001
0000
1100
0000
,
0110
0000
0001
0000
1000
0001
0000
0100
0010
0000
1000
0010
0000
0100
0001
0000
,
1000
0100
0000
0100
1000
0000
1000
0010
0000
0100
0001
0000
0001
0010
0000
0010
,
1000
0000
0001
0000
0100
0010
0000
0001
1000
0000
0100
1000
0000
0001
0010
0000
,
0100
0001
0000
0001
0100
0000
0100
1000
0000
0001
0010
0000
0010
0000
1100
0000
,
0110
0000
1000
0000
0001
1000
0000
0010
0100
0000
0001
0100
0000
0010
1000
0000
,
0001
0010
0000
0010
1000
0000
1000
0010
0000
0100
0001
0000
0001
0010
0000
0010
,
1000
0000
0001
0000
0100
0010
0000
0001
1000
0000
0100
1000
0000
0001
0010
0000
,
0100
0001
0000
0001
0100
0000
0010
1000
0000
0001
0010
0000
0001
0000
1000
0000
,
1010
1000
2002
0000
0000
0000
0000
0000
,
3003
0000
0000
0000
;

//---------------dance-single - ----------------
#NOTES:
     dance-single:
     :
     Challenge:
     12:
     1.000,1.000,1.000,0.153,1.000,1599.000,231.000,35.000,0.000,0.000:
0000
0000
0000
0000
0001
1000
0000
1000
0010
0000
0010
0100
0000
0100
0001
0000
,
0001
1000
0000
1000
0010
0000
0010
1000
0000
1000
0001
0000
0001
0010
0000
0010
,
0100
0000
0100
0000
0001
1000
0000
0010
0100
0000
0001
1000
0000
0010
1000
0000
,
0100
1000
0000
0010
0100
0000
0001
0010
0000
0001
1000
0000
0100
1000
0000
1000
,
0010
0000
0001
0000
0001
1000
0000
0010
0100
0000
0100
0001
0000
1000
0010
0000
,
0010
0100
0000
0001
1000
0000
1000
0010
0000
0100
0001
0000
0001
0010
0000
0010
,
1000
0000
0001
0000
0100
0010
0000
0001
1000
0000
0100
1000
0000
0001
0010
0000
,
0100
0001
0000
0001
1000
0000
0010
1000
0000
0100
0010
0000
1010
0000
0100
0000
,
0101
0000
0001
0000
1000
0001
0000
0010
1001
0000
0001
1000
0000
0010
1000
0000
,
1001
0100
0000
1000
0010
0000
0001
1000
0000
0010
0100
0000
0001
1000
0000
0010
,
1001
0000
0010
0000
0100
0001
0000
0001
1100
0000
0010
0100
0000
0100
0001
0000
,
0101
1000
0000
0010
0100
0000
0001
0010
0000
0001
1000
0000
0010
1000
0101
0000
,
1010
0000
1001
0000
1000
0010
0000
0100
1001
0000
1000
0001
0000
0100
0010
0000
,
1100
0001
0000
0010
0001
0000
1000
0010
0000
1000
0100
0000
1000
0010
0000
0100
,
1001
0000
0001
0000
0001
0100
0000
0010
1001
0000
0010
0100
0000
0100
0010
0000
,
1100
0001
0000
0100
0010
0000
0010
1000
0000
1000
0001
0000
0001
0000
1010
0000
,
0110
0000
1001
0000
1000
0010
0000
0010
0101
0000
0001
1000
0000
0010
1000
0000
,
0011
0100
0000
0100
0001
0000
0010
0001
0000
0001
1000
0000
0100
1000
0000
0010
,
1001
0000
1010
0000
0010
0001
0000
0001
1100
0000
1000
0010
0000
0100
0001
0000
,
0101
1000
0000
0010
0100
0000
1000
0001
0000
0100
0010
0000
0001
1000
0110
0000
,
0101
0000
0110
0000
0010
0100
0000
0100
0011
0000
0001
1000
0000
0100
0010
0000
,
0011
1000
0000
1000
0010
0000
0010
0100
0000
0100
0001
0000
0001
1000
0000
0010
,
1100
0000
1000
0000
0001
1000
0000
0010
1100
0000
0001
1000
0000
0001
0010
0000
,
0110
1000
0000
1000
0010
0000
0100
0001
0000
0010
0001
0000
0001
0010
0101
0000
,
1010
0000
0101
0000
0100
1000
0000
1000
0101
0000
0001
0100
0000
0010
1000
0000
,
1100
0001
0000
0100
0010
0000
0001
1000
0000
0010
0100
0000
1000
0001
0000
0100
,
1010
0000
0010
0000
0100
0010
0000
0010
0101
0000
1000
0001
0000
0010
0100
0000
,
1100
0001
0000
0001
0100
0000
0100
0010
0000
0010
1000
0000
1000
0000
0101
0000
,
0011
0000
1010
0000
1000
0001
0000
0100
1010
0000
1000
0001
0000
1000
0100
0000
,
0110
0001
0000
0001
0100
0000
0010
1000
0000
0100
1000
0000
1000
0010
0000
0100
,
1001
0000
1000
0000
0001
0100
0000
1000
0110
0000
0010
0001
0000
1000
0100
0000
,
1100
0010
0000
0001
1000
0000
0010
0100
0000
1000
0001
0000
0100
0000
0101
0000
,
1010
0000
1001
0000
0001
1000
0000
1000
0101
0000
0100
0010
0000
1000
0001
0000
,
0011
1000
0000
0010
1000
0000
0001
1000
0000
1000
0100
0000
0100
0010
0000
0001
,
1010
0000
1000
0000
0010
0100
0000
0001
1010
0000
0010
0100
0000
0010
1000
0000
,
1010
0100
0000
0100
1000
0000
0001
0010
0000
1000
0010
0000
0010
0001
1010
0000
,
1100
0000
0101
0000
0100
1000
0000
1000
0101
0000
0001
0100
0000
0010
1000
0000
,
0101
0010
0000
0100
0010
0000
0001
1000
0000
0010
0100
0000
1000
0001
0000
0100
,
1010
0000
0010
0000
1000
0010
0000
0001
1010
0000
1000
0001
0000
0010
0100
0000
,
1100
0001
0000
1000
0010
0000
0010
0100
0000
0100
0001
0000
1100
0010
0001
0010
,
1100
0010
0100
0010
2002
0000
0000
0000
0000
0000
0000
0000
0000
0000
0000
0000
,
0000
0000
0000
0000
3003
0010
0100
0000
,
0000
0010
1000
0000
0000
0010
1000
0001
,
1000
0000
0001
0000
1000
0010
0100
0001
1000
0010
0100
0001
1000
0010
1000
0010
,
0100
0001
0100
0001
1000
0001
0100
0010
1000
0001
0100
0010
1000
0100
0010
0001
,
1000
0100
0010
0001
0100
0010
1000
0001
0010
0001
1000
0001
1000
0010
1000
0001
,
0100
0001
1000
0010
1000
0010
0100
0001
1000
0010
0100
0001
1000
0001
0010
0001
,
0100
0001
0010
0001
0100
0001
1000
0010
0100
0001
0100
0001
1000
0100
0010
0001
,
1000
0100
0010
0001
1000
0010
0100
0001
0010
0001
1000
0010
0100
0001
1000
0010
,
0100
0010
0100
0001
0010
0001
1000
0010
0100
0010
1000
0100
1000
0010
0100
0001
,
0010
0001
1000
0010
0100
0001
0010
0001
0100
0010
1000
0100
1000
0010
0100
0001
,
0010
0100
1000
0001
1000
0010
0100
0001
1000
0100
0010
0001
1000
0010
1000
0001
,
0100
0001
1000
0010
0100
0010
1000
0001
1000
0010
0100
0001
1000
0001
0010
0001
,
0100
0001
0010
0001
1000
0010
0100
0001
1000
0100
1000
0001
0100
0010
1000
0010
,
0100
0010
1000
0001
0100
0010
1000
0001
0010
0001
1000
0010
0100
0001
1000
0010
,
0100
0010
0100
0001
0010
0001
1000
0010
0100
0010
1000
0100
1000
0010
0100
0001
,
0010
0001
1000
0010
0100
0001
0010
0001
1100
0010
1000
0100
1000
0010
0100
0001
,
1010
0100
1000
0001
1000
0010
0100
0001
1010
0100
0010
0001
0010
0001
1000
0010
,
0101
0010
1000
0010
0100
0010
1000
0001
1100
0010
1000
0001
0100
0010
1000
0100
,
0011
1000
0100
0010
0001
0100
0010
0100
1001
0010
0100
0001
0010
0001
1000
0000
,
0101
0000
1001
0000
0101
0010
1000
0001
1010
0001
0100
0010
1100
0001
0010
0001
,
1010
0100
1000
0010
2200
0000
3300
0000
0022
0000
0033
0000
0220
0000
0330
0000
,
0202
0000
0303
0000
1000
0010
0100
0010
1001
0010
0100
0010
1000
0001
0010
0001
,
1100
0001
0010
0001
1000
0001
0100
0010
1100
0001
0010
0001
0100
0010
1001
0000
,
0110
0000
1001
0000
0100
0010
1000
0100
1001
0010
0100
0010
0100
0001
0010
0001
,
1100
0010
1000
0010
1000
0010
0100
0001
0110
0001
1000
0010
0100
0010
0100
0001
,
0110
0001
1000
0100
1000
0010
0100
0010
1001
0010
0100
0001
0010
0001
1000
0010
,
1001
0100
1000
0010
0100
0001
0010
0001
1100
0010
0100
0010
1000
0001
1100
0000
,
0011
0000
1100
0000
0100
0001
0010
0001
1010
0100
1000
0010
0100
0010
1000
0001
,
1100
0001
0010
0001
1000
0010
0100
0010
1001
0010
0100
0010
1000
0001
0010
0001
,
1100
0001
1000
0010
1000
0001
0010
0001
1010
0100
1000
0001
0100
0010
1000
0001
,
0110
0001
0010
0001
1000
0010
0100
0001
1010
0001
0100
0010
1000
0010
0101
0000
,
1010
0000
1001
0000
0100
0001
1000
0010
1100
0001
1000
0010
0100
0001
1000
0010
,
0101
0010
0100
0001
1000
0010
0100
0010
1100
0001
1000
0001
0100
0001
0100
0001
,
1010
0001
0100
0010
0100
0001
0010
0001
0110
0001
1000
0010
1000
0001
1000
0100
,
1010
0001
0010
0001
1000
0010
0100
0010
0101
0010
0100
0010
1000
0010
1100
0000
,
0011
0000
0101
0000
1000
0001
0010
0001
0110
0001
1000
0010
0100
0010
1000
0010
,
1001
0010
1000
0001
1000
0010
0100
0010
1001
0010
0100
0010
1000
0001
0010
0001
,
1100
0001
1000
0010
0100
0001
1000
0010
0101
0010
1000
0001
1000
0010
0100
0001
,
1010
0001
0100
0001
1000
0010
0100
0010
0101
0010
1000
0010
1000
0100
0011
0000
,
0101
0000
1100
0000
0100
0001
1000
0010
0101
0010
1000
0001
0100
0001
1000
0001
,
1100
0001
0100
0010
1000
0001
0010
0100
0011
1000
0001
0100
0010
1000
0001
0100
,
1001
0010
1000
0001
0100
0001
1000
0001
0110
0001
1000
0010
0100
0010
1000
0001
,
1010
0001
0100
0001
2000
0000
0000
0000
3200
0000
0000
0000
0320
0000
0000
0000
,
0032
0000
0000
0000
1003
0100
0010
0001
1000
0100
0010
0001
1100
0010
0100
0001
,
0010
0001
1000
0001
1010
0001
1000
0010
0100
0001
0100
0001
1100
0001
0100
0001
,
1000
0001
1000
0010
1100
0001
0100
0001
1000
0010
0100
0010
1100
0001
1000
0001
,
0100
0001
0100
0001
1010
0001
0100
0010
0100
0001
0010
0001
1100
0001
1000
0010
,
1000
0001
1000
0100
0011
0100
1000
0001
1000
0010
0100
0010
0101
0010
1000
0010
,
1000
0001
0100
0001
0110
0001
1000
0010
0100
0001
0010
0001
1010
0001
1000
0010
,
0100
0010
1000
0001
1100
0001
0100
0001
1000
0010
0100
0010
1001
0010
0100
0010
,
1000
0001
0010
0001
1100
0010
0100
0001
1000
0010
0100
0001
1010
0001
1000
0010
,
0100
0001
0010
0001
1010
0100
1000
0010
0100
0010
1000
0001
0110
0001
0010
0001
,
1000
0010
0100
0001
0100
0001
1000
0010
0100
0001
1000
0001
0010
0001
1000
0010
,
1000
0001
0010
0001
0010
0100
1000
0001
0100
0010
1000
0001
0100
0001
0010
0001
,
1000
0010
0100
0001
1000
0001
0100
0010
0100
0001
0010
0001
1000
0001
1000
0010
,
0100
0001
0100
0001
0220
0000
0000
0000
0330
0000
0000
0000
1000
0010
0100
0001
,
0010
0001
1000
0010
2200
0000
0000
0000
3300
0000
0000
0000
2002
0000
0000
0000
,
3003
0000
0202
0303
0220
0330
2020
3030
,
2200
0000
3300
0000
1001
0000
1100
0000
0101
0000
1100
0000
1001
0010
0100
0001
,
1100
0010
0100
0001
1100
0001
0000
0001
1100
0000
0100
0010
0000
0010
1000
0000
,
0011
1000
0000
0001
0100
0000
0100
0001
0000
0001
1000
0000
1000
0100
0000
0100
,
0011
0000
0010
0000
1000
0001
0000
0100
0011
0000
1000
0001
0000
0100
0001
0000
,
1010
0001
0000
0100
0010
0000
1000
0100
0000
1000
0001
0000
0010
1000
0101
0000
,
1100
0000
0110
0000
1000
0001
0000
0100
1010
0000
0010
1000
0000
0001
0100
0000
,
1100
0010
0000
1000
0001
0000
0001
0100
0000
0010
1000
0000
1000
0100
0000
0100
,
1001
0000
1000
0000
0010
0100
0000
1000
0101
0000
0010
0001
0000
1000
0100
0000
,
0011
1000
0000
1000
0010
0000
0010
0001
0000
1000
0100
0000
0100
0001
1010
0000
,
0101
0000
0110
0000
1000
0001
0000
0100
0011
0000
1000
0010
0000
0100
0001
0000
,
1010
0100
0000
0100
1000
0000
1000
0010
0000
0100
0001
0000
0001
0010
0000
0010
,
1001
0000
0001
0000
0100
0010
0000
0001
1010
0000
0100
1000
0000
0001
0010
0000
,
1100
0001
0000
0001
0100
0000
0100
1000
0000
0001
0010
0000
0010
0100
1001
0000
,
0110
0000
1010
0000
0001
1000
0000
0010
1100
0000
0001
0100
0000
0010
1000
0000
,
1001
0010
0000
0010
1000
0000
1000
0010
0000
0100
0001
0000
0001
0010
0000
0010
,
1100
0000
0001
0000
0100
0010
0000
0001
1010
0000
0100
1000
0000
0001
0010
0000
,
1100
0001
0000
0001
0100
0000
0100
1000
0000
0001
0010
0000
1000
0100
0011
0000
,
0110
0000
1010
0000
1000
0001
0000
0100
0011
0000
1000
0010
0000
0100
0001
0000
,
1001
0100
0000
0100
1000
0000
1000
0010
0000
0100
0001
0000
0001
0010
0000
0010
,
1100
0000
0001
0000
0100
0010
0000
0001
1010
0000
0100
1000
0000
0001
0010
0000
,
1100
0001
0000
0001
0100
0000
0100
1000
0000
0001
0010
0000
1000
0100
0011
0000
,
0110
0000
1100
0000
1000
0001
0000
0100
0011
0000
1000
0010
0000
0100
0001
0000
,
1010
0100
0000
0100
0001
0000
0001
0100
0000
0010
1000
0000
1000
0100
0000
0100
,
0011
0000
1000
0000
0010
0100
0000
1000
0101
0000
0010
0001
0000
1000
0100
0000
,
0110
1000
0000
1000
0010
0000
0010
0001
0000
1000
0010
0000
0100
0001
1100
0000
,
0110
0000
0101
0000
1000
0001
0000
0100
1010
0000
1000
0010
0000
0100
0001
0000
,
1001
0100
0000
0100
1000
0000
1000
0010
0000
0100
0001
0000
0001
0010
0000
0010
,
1100
0000
0001
0000
0100
0010
0000
0001
1100
0000
0100
1000
0000
0001
0010
0000
,
0110
0001
0000
0001
0100
0000
0100
1000
0000
0001
0010
0000
0010
0001
1100
0000
,
0110
0000
0011
0000
0001
1000
0000
0001
0110
0000
0001
0100
0000
0010
1000
0000
,
0101
0010
0000
0010
1000
0000
1000
0010
0000
0100
0001
0000
0001
0010
0000
0010
,
1001
0000
0001
0000
0100
0010
0000
0010
0101
0000
0100
1000
0000
0001
0010
0000
,
1010
0001
0000
0001
0100
0000
0100
1000
0000
0001
1000
0000
1000
0001
2200
3300
,
0020
0030
0202
0303
2002
0000
0000
0000
0000
0000
0000
0000
0000
0000
0000
0000
,
3003
0000
0000
0000
;
