#TITLE:4312;
#SUBTITLE:Nothing Fits;
#ARTIST:Tyvek;
#TITLETRANSLIT:;
#SUBTITLETRANSLIT:;
#ARTISTTRANSLIT:;
#CREDIT:;
#BANNER:4312 BN.jpg;
#BACKGROUND:4312 BG.jpg;
#LYRICSPATH:;
#CDTITLE:;
#MUSIC:4312.mp3;
#OFFSET:-0.040;
#SAMPLESTART:0.050;
#SAMPLELENGTH:12.000;
#SELECTABLE:YES;
#BPMS:0.000=124.460;
#STOPS:;
#BGCHANGES:;
// cache tags:
#FIRSTBEAT:0.000;
#LASTBEAT:204.000;
#SONGFILENAME:Songs/Fog's StupidStream Pack/[Fogfactor] 4312/4312.sm;
#HASMUSIC:1;
#HASBANNER:1;
#MUSICLENGTH:100.231;
// end cache tags

//---------------dance-single - Copied from----------------
#NOTES:
     dance-single:
     Copied from:
     Challenge:
     13:
     1.000,1.000,0.200,0.040,1.000,1254.000,20.000,4.000,0.000,20.000:
0010
0000
0100
0000
1000
0000
0100
0000
1111
1000
0100
1000
0100
0100
0010
0100
,
1000
0100
0010
1000
0100
0010
1000
0100
0001
1111
0010
1000
0010
0100
1000
0100
,
0001
1000
0100
0010
0100
0010
0001
0010
0100
0010
1111
0010
1000
0001
0010
1000
,
0001
0100
1111
0001
0010
1000
0001
0010
1000
0100
1111
1000
0001
1000
1111
0100
,
0010
0000
0000
1000
0000
0000
1111
0000
0000
1000
0000
0000
1111
0000
0000
1111
0000
0000
1111
0000
0000
1111
0000
0000
1111
0000
0000
1111
0000
0000
0001
0000
0010
0000
0100
0000
0001
0000
0010
0000
0100
0000
0001
0000
0010
0000
0001
0000
,
0010
0100
1000
0100
0001
0010
0100
0001
1000
0001
0010
0100
0001
0010
0100
0010
0100
0001
0010
0001
0100
0010
0001
0100
,
0001
0010
1000
0010
0100
1000
0001
0100
0010
0100
0001
0010
0001
0100
0010
1000
0100
0010
1000
0100
0001
0100
0010
1000
,
0100
0010
0001
0100
1000
0010
0100
0010
0001
0010
0001
0010
1000
0100
1000
0001
0100
0010
0001
1000
0001
0010
0100
1000
,
0010
0001
0100
1000
0010
1000
0100
0010
0100
0001
0010
0001
0100
0001
1000
0010
0100
0010
1000
0100
0010
0001
0100
0010
,
1000
0010
0100
0010
0001
0100
0001
0010
0100
0001
0010
0100
0001
0010
1000
0010
1000
0010
0001
0010
0100
1000
0010
0100
,
0010
0001
0010
0001
0010
0100
0001
0100
1000
0010
0100
0010
0100
0001
1000
0100
0001
0010
0001
0010
0100
0001
0100
1000
,
0100
0001
0010
1000
0010
0100
0010
0100
0010
0001
0010
0100
0001
0010
0100
0010
0100
0001
1000
0001
0010
0001
0100
1000
,
0100
0000
0000
0000
0000
0000
0000
0000
1000
0000
0000
0000
0000
0000
0000
0000
0010
0000
0000
0000
0000
0000
0000
0000
0100
0000
0000
0000
0000
0000
0000
0000
1000
0000
0000
0000
0000
0000
0000
0000
0010
0000
0000
0000
0000
0000
0000
0000
0001
0000
0000
0000
0000
0000
0000
0000
0100
0000
0000
0000
0000
0000
0000
0000
0010
0000
0000
0000
0000
0000
0000
0000
1000
0000
0000
0000
0000
0000
0000
0000
0100
0000
0000
0000
0000
0000
0000
0000
0001
0000
0000
0000
0000
0000
0000
0000
0100
0000
0000
0000
0000
0000
0000
0000
1000
0000
0000
0000
0000
0000
0000
0000
0001
0000
0000
0000
0000
0000
0000
0000
0100
0000
0000
0000
0000
0000
0010
0000
0000
0000
0000
0000
1000
0000
0000
0000
0000
0000
0001
0000
0000
0000
0000
0000
0100
0000
0000
0000
0000
0000
0010
0000
0000
0000
0000
0000
0001
0000
0000
0000
0000
0000
1000
0000
0000
0000
0000
0000
0100
0000
0000
0000
0000
0000
1000
0000
0000
0000
0000
0000
0010
0000
0000
0000
0000
0000
0001
0000
0000
0000
0000
0000
,
1000
0001
0100
0010
1000
0100
0001
0010
0001
0100
1000
0010
0100
0010
0001
1000
0100
0010
0100
0010
0001
0010
0001
0100
0001
0010
0100
0010
0001
0100
0001
0100
,
0001
0100
0001
0010
1000
0001
0010
0100
1000
0001
0000
0000
0100
0010
0001
0010
1000
0010
0100
0010
0001
0010
1000
0100
0001
0010
0100
1000
0100
1000
0010
0100
,
0010
0100
0001
0010
0100
0001
1000
0100
0001
0010
0001
0100
0010
0100
0001
0010
0100
1000
0100
0010
1000
0010
0001
0100
0010
0001
0010
0001
0100
0010
0100
0001
,
0010
0000
0000
0000
0000
0000
0100
0000
0000
0000
0000
0000
0010
0000
0000
0000
0000
0000
0001
0000
0000
0000
0000
0000
1111
0000
0000
0000
0000
0000
0000
0000
0000
0000
0000
0000
0010
0000
0000
0000
0000
0000
0000
0000
0000
0000
0000
0000
0000
0000
0000
0000
0000
0000
0000
0000
0000
0000
0000
0000
0100
0000
0000
0000
0000
0000
0000
0000
0000
0000
0000
0000
0000
0000
0000
0000
0000
0000
0000
0000
0000
0000
0000
0000
1000
0000
0000
0000
0000
0000
0000
0000
0000
0000
0000
0000
0000
0000
0000
0000
0000
0000
0000
0000
0000
0000
0000
0000
0001
0000
0000
0000
0000
0000
0000
0000
0000
0000
0000
0000
0000
0000
0000
0000
0000
0000
0000
0000
0000
0000
0000
0000
1111
0000
0000
0000
0000
0000
0000
0000
0000
0000
0000
0000
0001
0000
0000
0000
0000
0000
0000
0000
0010
0000
0000
0000
0000
0000
0000
0000
0100
0000
0000
0000
0000
0000
0000
0000
0010
0000
0000
0000
0000
0000
0000
0000
1000
0000
0000
0000
0000
0000
0000
0000
0100
0000
0000
0000
0000
0000
0000
0000
,
0001
0010
1000
0010
0100
0010
0100
1000
0001
0010
0001
0010
0001
0010
0100
1000
0010
1000
0100
1000
0010
0100
0010
0001
,
0100
0001
0100
1000
0010
0001
0100
1000
0100
0001
0010
0100
0010
1000
0100
0001
0010
1000
0010
0001
0010
0001
0100
0010
,
1000
0100
0001
0100
1000
0001
0010
0001
1000
0100
1000
0001
0010
0001
0100
0010
0100
0001
1000
0100
0001
0010
1000
0100
,
0010
0000
0000
0000
0000
0000
0000
0000
1000
0000
0000
0000
0000
0000
0000
0000
0001
0000
0000
0000
0000
0000
0000
0000
0010
0000
0000
0000
0000
0000
0000
0000
0000
0000
0000
0000
0000
0000
0000
0000
0000
0000
0000
0000
0000
0000
0000
0000
1000
0000
0000
0000
0000
0000
0000
0000
0001
0000
0000
0000
0000
0000
0000
0000
0100
0000
0000
0000
0000
0000
0000
0000
1000
0000
0000
0000
0000
0000
0000
0000
0100
0000
0000
0000
0000
0000
0000
0000
0010
0000
0000
0000
0000
0000
0000
0000
0001
0000
0000
0000
0000
0000
0000
0000
1000
0000
0000
0000
0000
0000
0000
0000
0100
0000
0000
0000
0000
0000
0000
0000
1000
0000
0000
0000
0000
0000
0000
0000
0001
0000
0000
0000
0000
0000
0000
0000
0010
0000
0000
0000
0000
0000
0000
0000
0100
0000
0000
0000
0000
0000
1000
0000
0000
0000
0000
0000
0001
0000
0000
0000
0000
0000
0100
0000
0000
0000
0000
0000
1000
0000
0000
0000
0000
0000
0010
0000
0000
0000
0000
0000
1000
0000
0000
0000
0000
0000
0010
0000
0000
0000
0000
0000
,
1000
0100
0010
0001
0010
0100
0010
0001
0100
0010
1000
0100
0010
1000
0001
0010
0100
0001
0010
0001
1000
0100
0010
0100
0001
1000
0010
0100
0001
0010
0001
0100
,
0010
0100
0001
0010
0100
0001
1000
0010
0100
0001
1000
0010
0100
1000
0010
0001
1000
0001
0100
0001
0010
1000
0100
1000
0010
0100
1000
0001
0100
0001
0010
0001
,
0100
0001
0010
1000
0001
0010
1000
0100
0001
0010
1000
0100
0010
0001
0010
0001
1000
0100
0010
0100
1000
0010
0001
1000
0100
0001
1000
0100
0010
1000
0010
0100
,
0001
0010
0001
0100
1000
0010
0001
0010
0001
0100
1000
0010
0001
0100
1000
0010
0100
0001
0010
0100
0010
0001
0100
0010
0001
0100
0100
0010
0001
0100
0010
0001
,
0010
1000
0001
0100
0001
0010
1000
0100
0010
0001
0010
0001
0010
1000
0100
0010
0100
0010
0100
0010
0001
1000
0100
1000
0010
0100
0010
0001
0010
0100
0010
0001
,
0010
0001
0010
1000
0100
1000
0100
0010
0001
1000
0100
0001
0010
0100
0001
0010
0001
1000
0100
0001
0010
0100
0001
1000
0010
1000
0100
0010
0001
0100
0001
0100
,
0010
1000
0001
0010
0100
0001
0010
1000
0100
0001
0010
0001
0010
0100
1000
0100
0010
0100
0010
0001
0010
1000
1111
0010
0100
1000
0001
0010
0001
0010
1111
0010
,
0001
0100
0010
0100
0001
0100
1111
0100
0010
0001
0010
0100
0010
1000
0100
0010
0001
0010
0100
0010
1000
0100
0001
0010
0001
0100
0010
1000
0100
0001
0100
0001
,
0010
1000
0100
0010
1000
0100
0010
0001
0010
0100
1000
0100
0010
0100
0010
0001
0100
0010
0100
0010
0001
0010
0100
0010
0001
0010
0001
1000
0100
0010
0001
1000
,
0010
0100
0001
0100
0001
1000
0010
0001
0010
0100
0001
0100
0010
0001
0100
0010
1000
0100
1000
0010
0001
0010
1000
0100
1000
0100
0010
0100
0010
1000
0100
1000
,
0010
0001
0010
0001
1000
0100
1000
0001
0010
1000
0010
0100
0001
0010
0001
0010
1000
0001
1000
0010
0100
0001
0010
0001
1000
0100
0010
1000
0010
0100
0010
0100
,
0001
0000
0000
0000
0000
0000
0010
0000
0000
0000
0000
0000
1000
0000
0000
0000
0000
0000
0010
0000
0000
0000
0000
0000
0100
0000
0000
0000
0000
0000
0000
0000
0000
0000
0000
0000
0000
0000
0000
0000
0000
0000
0000
0000
0000
0000
0000
0000
0001
0000
0000
0000
0000
0000
0000
0000
0000
0000
0000
0000
0000
0000
0000
0000
0000
0000
0000
0000
0000
0000
0000
0000
0001
0000
0000
0000
0000
0000
0000
0000
0000
0000
0000
0000
0000
0000
0000
0000
0000
0000
0000
0000
0000
0000
0000
0000
0100
0000
0000
0000
0000
0000
0000
0000
0000
0000
0000
0000
0000
0000
0000
0000
0000
0000
0000
0000
0000
0000
0000
0000
0100
0000
0000
0000
0000
0000
0000
0000
0000
0000
0000
0000
0000
0000
0000
0000
0000
0000
0000
0000
0000
0000
0000
0000
1111
0000
0000
0000
0000
0000
0000
0000
0100
0000
0000
0000
0000
0000
0000
0000
1000
0000
0000
0000
0000
0000
0000
0000
0010
0000
0000
0000
0000
0000
0000
0000
0001
0000
0000
0000
0000
0000
0000
0000
0100
0000
0000
0000
0000
0000
0000
0000
,
0010
0001
1000
0010
0001
1000
0010
0100
0010
0001
0010
1000
0100
0001
0001
0100
0010
1000
0010
1000
0100
0010
1000
0100
,
0010
0001
0100
0001
0010
0001
0100
0010
0001
1000
0001
1000
0010
0001
1000
0100
0010
0001
0010
1000
0010
0001
0010
0100
,
1000
0000
0000
0000
0000
0000
0000
0000
0100
0000
0000
0000
0000
0000
0000
0000
0001
0000
0000
0000
0000
0000
0000
0000
0100
0000
0000
0000
0000
0000
0000
0000
0010
0000
0000
0000
0000
0000
0000
0000
0001
0000
0000
0000
0000
0000
0000
0000
0010
0000
0000
0000
0000
0000
0000
0000
0001
0000
0000
0000
0000
0000
0000
0000
0010
0000
0000
0000
0000
0000
0000
0000
1000
0000
0000
0000
0000
0000
0000
0000
0001
0000
0000
0000
0000
0000
0000
0000
0100
0000
0000
0000
0000
0000
0000
0000
0010
0000
0000
0000
0000
0000
0000
0000
1000
0000
0000
0000
0000
0000
0000
0000
0010
0000
0000
0000
0000
0000
0000
0000
0001
0000
0000
0000
0000
0000
0000
0000
1000
0000
0000
0000
0000
0000
0000
0000
0001
0000
0000
0000
0000
0000
0000
0000
0100
0000
0000
0000
0000
0000
0010
0000
0000
0000
0000
0000
0001
0000
0000
0000
0000
0000
0010
0000
0000
0000
0000
0000
0001
0000
0000
0000
0000
0000
0100
0000
0000
0000
0000
0000
0010
0000
0000
0000
0000
0000
0001
0000
0000
0000
0000
0000
,
0010
0000
0000
0000
0000
0000
1000
0000
0000
0000
0000
0000
0001
0000
0000
0000
0000
0000
0100
0000
0000
0000
0000
0000
0010
0000
0000
0000
0000
0000
0001
0000
0000
0000
0000
0000
0010
0000
0000
0000
0000
0000
0001
0000
0000
0000
0000
0000
1000
0000
0000
0000
0000
0000
0010
0000
0000
0000
0000
0000
0100
0000
0000
0000
0000
0000
0010
0000
0000
0000
0000
0000
0100
0000
0000
0000
0000
0000
0010
0000
0000
0000
0000
0000
0001
0000
0000
0000
0000
0000
0010
0000
0000
0000
0000
0000
0001
0000
0000
0000
0000
0000
0100
0000
0000
0000
0000
0000
0010
0000
0000
0000
0000
0000
0100
0000
0000
0000
0000
0000
0001
0000
0000
0000
0000
0000
0000
0000
0010
0000
0000
0000
0000
0000
0000
0000
1000
0000
0000
0000
0000
0000
0000
0000
0100
0000
0000
0000
0000
0000
0000
0000
1000
0000
0000
0000
0000
0000
0000
0000
0100
0000
0000
0000
0000
0000
0000
0000
0001
0000
0000
0000
0000
0000
0000
0000
1000
0000
0000
0000
0000
0000
0000
0000
0010
0000
0000
0000
0000
0000
0000
0000
,
0100
0010
0001
0010
0100
0010
0100
0001
0010
0100
1000
0010
1000
0100
0010
0100
1000
0100
0001
1000
0001
0010
0100
0001
,
1000
0010
0001
0100
0010
0100
0001
1000
0010
0100
0001
0010
0100
0001
0010
0001
0010
1000
0010
0001
0100
1000
0100
0010
,
0001
0010
0001
1000
0100
0010
0001
1000
0010
0100
1000
0010
1000
0010
0001
0100
0010
1000
0010
0100
0001
0010
0100
0010
,
0100
0010
1000
0001
1000
0010
0001
0010
0001
0010
0100
1000
0100
0001
0010
0100
0001
1000
0100
0001
1000
0010
0001
0010
,
0001
0010
0001
0100
0010
0100
1000
0100
0010
0100
0010
1000
0100
0001
0010
0100
0010
1000
0100
1000
0100
0001
0010
0100
,
0001
0010
0100
1000
0100
0001
0010
0100
0010
0100
1000
0010
0001
0010
1000
0010
0100
0001
0010
0100
0001
0010
1000
0010
,
0100
0010
0001
0010
0001
0010
0001
0010
1000
0100
0001
0010
0100
1000
0001
0100
0010
0001
0100
0100
1000
0010
1000
0100
,
1000
0000
0000
0000
0000
0000
0000
0000
0001
0000
0000
0000
0000
0000
0000
0000
0010
0000
0000
0000
0000
0000
0000
0000
0100
0000
0000
0000
0000
0000
0000
0000
0010
0000
0000
0000
0000
0000
0000
0000
1000
0000
0000
0000
0000
0000
0000
0000
0100
0000
0000
0000
0000
0000
0000
0000
0010
0000
0000
0000
0000
0000
0000
0000
0001
0000
0000
0000
0000
0000
0000
0000
0100
0000
0000
0000
0000
0000
0000
0000
0010
0000
0000
0000
0000
0000
0000
0000
0001
0000
0000
0000
0000
0000
0000
0000
0010
0000
0000
0000
0000
0000
0000
0000
0100
0000
0000
0000
0000
0000
0000
0000
0010
0000
0000
0000
0000
0000
0000
0000
0001
0000
0000
0000
0000
0000
0100
0000
0000
0000
0000
0000
0010
0000
0000
0000
0000
0000
0100
0000
0000
0000
0000
0000
0010
0000
0000
0000
0000
0000
0001
0000
0000
0000
0000
0000
0010
0000
0000
0000
0000
0000
0100
0000
0000
0000
0000
0000
0010
0000
0000
0000
0000
0000
0001
0000
0000
0000
0000
0000
0100
0000
0000
0000
0000
0000
0010
0000
0000
0000
0000
0000
,
0100
0010
1000
0001
0010
0100
1000
0010
0100
0010
1000
0100
0001
0100
0001
0010
1000
0100
0001
0010
0100
0010
0100
0001
0010
0001
0010
0100
1000
0010
0100
0010
,
0001
0100
0001
0010
0001
0010
0100
0010
1000
0001
0100
0010
0001
0010
1000
0100
0010
1000
0001
0010
0100
1000
0001
0010
1000
0001
0100
0010
0001
1000
0001
1000
,
0001
0100
0010
0100
0010
0100
0001
0100
0001
0010
0001
0010
0001
0010
1000
0100
0010
0001
1000
0001
0010
1000
0010
1000
0010
0100
0010
1000
0010
1000
0001
0010
,
0001
1000
0010
1000
0100
0001
0010
0100
0010
0000
0000
0000
0001
0000
0000
0000
0010
0000
0000
0000
1000
0000
0000
0000
2222
0000
0000
0000
0000
0000
0000
0000
,
0000
0000
0000
0000
,
0000
0000
0000
0000
,
3333
0000
0000
0000
;
