#TITLE:roflgabber;
#SUBTITLE:magic cave of darkness anger laser;
#ARTIST:fury of zymgoria the battle laser dragon;
#TITLETRANSLIT:;
#SUBTITLETRANSLIT:;
#ARTISTTRANSLIT:;
#CREDIT:;
#BANNER:roflgabber-bn.png;
#BACKGROUND:roflgabber-bg.png;
#LYRICSPATH:;
#CDTITLE:cdtitle.png;
#MUSIC:roflgabber.mp3;
#OFFSET:-0.040;
#SAMPLESTART:42.953;
#SAMPLELENGTH:10.060;
#SELECTABLE:YES;
#BPMS:0.000=300.000;
#STOPS:;
#BGCHANGES:;
// cache tags:
#FIRSTBEAT:0.000;
#LASTBEAT:352.000;
#SONGFILENAME:Songs/hard shit/(Zaghurim) roflgabber/roflgabber.sm;
#HASMUSIC:1;
#HASBANNER:1;
#MUSICLENGTH:70.478;
// end cache tags

//---------------dance-solo - ----------------
#NOTES:
     dance-solo:
     :
     Hard:
     14:
     1.000,1.000,1.000,0.043,0.660,729.000,254.000,3.000,0.000,18.000:
100000
010000
001000
000100
,
000010
000000
000001
000000
000100
000000
001000
000100
,
100000
010000
001000
000100
,
000010
000000
000000
000000
000001
000000
000000
000000
000100
010000
000010
000000
000010
001000
000100
010000
,
000001
000010
000100
001000
,
010000
000000
000000
000000
100000
000000
000000
000000
001000
000000
000000
000000
000100
000000
010000
000100
,
000001
000010
000100
001000
,
010000
000000
000000
000000
000000
000000
000000
000000
000000
000000
000000
000000
100000
000000
000000
000000
000000
000000
000000
000000
000000
000000
000000
000000
000001
000000
000000
001000
000000
000000
000100
000000
000000
100000
000000
000000
000001
000000
000010
000000
000100
000000
001000
000000
010000
000000
100000
000000
,
000101
001000
010010
001000
000110
100000
001001
000100
,
010010
001000
100001
000100
001010
100000
000110
011000
,
000101
100000
001010
010000
000101
010000
001010
000100
,
010001
000000
000100
000000
100001
000000
000100
000000
101000
000010
010100
000000
010001
000100
011000
000010
,
100100
000001
010100
000010
101000
000010
010100
001000
,
100010
000000
000100
000000
010001
000000
000010
000000
001100
000000
000001
000000
011000
000000
000101
010000
,
001100
000010
010100
000010
011000
000001
010100
001000
,
100010
000000
000000
000000
000000
000000
000100
000000
000000
000000
000000
000000
010001
000000
000000
000000
000000
000000
000010
000000
000000
000000
000000
000000
110000
000000
000000
000100
000000
000000
001010
000000
000000
000001
000000
000000
100000
000000
010000
000000
001000
000000
000100
000000
000010
000000
000001
000000
,
100000
010000
001000
100000
010000
000100
100000
010000
,
000010
100000
010000
000100
100000
010000
000100
001000
,
100000
010000
001000
100000
010000
000100
100000
010000
,
000010
100000
010000
000001
100000
010000
000200
000000
,
100300
010000
001000
100000
010000
000100
100000
010000
,
000010
100000
010000
000100
100000
010000
000100
001000
,
100000
010000
001000
100000
010000
000100
100000
010000
,
000010
100000
010000
000001
100000
010000
000200
000000
,
100301
010000
001001
100000
010001
000100
100001
010000
,
000011
100000
010001
000100
100001
010000
000101
001001
,
100001
010000
001001
100000
010001
000100
100001
010000
,
000011
000000
100000
000000
010100
000000
000001
000000
101000
000100
011000
000000
000101
001000
000100
001000
,
100001
010000
001001
100000
010001
000100
100001
010000
,
000011
000000
100000
000000
010001
000000
000100
000000
100001
000000
010000
000000
000101
000000
001001
000010
,
100100
010000
001001
100000
010001
000100
100001
010000
,
000011
000000
000000
000000
000000
000000
100000
000000
000000
000000
000000
000000
010100
000000
000000
000000
000000
000000
000001
000000
000000
000000
000000
000000
100100
000000
000000
001000
000000
000000
010010
000000
000000
000100
000000
000000
010000
000000
001000
000000
000100
000000
000010
000000
001000
000000
000100
000000
,
100001
010000
001001
100000
010001
000100
100001
010000
,
000011
100000
010001
000100
100001
010000
000101
001001
,
100001
010000
001001
100000
010001
000100
100001
010000
,
000011
000000
100000
000000
010100
000000
000001
000000
101000
000100
011000
000000
000101
001000
000100
001000
,
100001
010000
001001
100000
010001
000100
100001
010000
,
000011
000000
100000
000000
010001
000000
000100
000000
100001
000000
010000
000000
000101
000000
001001
000010
,
100100
010000
001001
100000
010001
000100
100001
010000
,
000011
000000
000000
000000
000000
000000
100000
000000
000000
000000
000000
000000
010100
000000
000000
000000
000000
000000
000001
000000
000000
000000
000000
000000
100100
000000
000000
001000
000000
000000
010010
000000
000000
000100
000000
000000
010000
000000
001000
000000
000100
000000
000010
000000
001000
000000
000100
000000
,
100000
000001
001000
000100
,
100000
000000
000001
000000
010000
000000
001000
000100
,
000001
000010
000100
001000
,
010000
000000
000000
000000
100000
000000
000000
000000
000100
001000
000010
000000
010000
000100
001000
000001
,
100000
010000
001000
100000
010000
000100
100000
010000
,
000010
100000
010000
000100
100000
010000
000100
001000
,
100000
010000
001000
100000
010000
000100
100000
010000
,
000010
100000
010000
000001
100000
010000
000200
000000
,
101300
010000
000110
001000
000101
010000
001010
000100
,
100010
010000
000110
000001
010010
000100
001001
010100
,
100010
100000
000101
001000
000110
010000
001010
000100
,
001010
000000
010000
000000
000110
000000
000001
000000
100010
000100
001010
000000
010010
001000
000110
001000
,
100001
010000
000110
001000
000101
010000
001010
000100
,
100010
000000
010000
000000
000110
000000
000001
000000
010010
000000
000100
000000
001001
000000
010100
001000
,
100010
010000
000101
001000
000110
010000
001010
000100
,
001010
000000
000000
000000
000000
000000
010000
000000
000000
000000
000000
000000
000110
000000
000000
000000
000000
000000
000001
000000
000000
000000
000000
000000
001000
000000
000000
000100
000000
000000
010000
000000
000000
000010
000000
000000
100000
000000
010000
000000
001000
000000
000100
000000
000010
000000
000001
000000
,
101000
010000
000110
001000
000101
010000
001010
000100
,
100010
010000
000110
000001
010010
000100
001001
010100
,
100010
010000
000101
001000
000110
010000
001010
000100
,
001010
000000
010000
000000
000110
000000
000001
000000
100010
000100
001010
000000
010010
001000
000110
001000
,
100001
010000
000110
001000
000101
010000
001010
000100
,
100010
000000
010000
000000
000110
000000
000001
000000
010010
000000
000100
000000
001001
000000
010100
001000
,
100010
010000
000101
001000
000110
010000
001010
000100
,
001010
000000
000000
000000
000000
000000
010000
000000
000000
000000
000000
000000
000110
000000
000000
000000
000000
000000
000001
000000
000000
000000
000000
000000
001000
000000
000000
000100
000000
000000
010000
000000
000000
000010
000000
000000
100000
000000
010000
000000
001000
000000
000100
000000
000010
000000
000001
000000
,
111000
101000
000111
001000
000101
010000
001010
000100
,
100010
010000
000110
000001
010010
000100
001001
010100
,
101010
101000
000111
001000
000110
010000
001010
000100
,
001010
000000
010000
000000
000110
000000
001001
000000
100010
000100
001010
000000
010010
001000
000110
001000
,
110001
110000
000111
001000
000101
010000
001010
000100
,
100010
000000
010000
000000
000110
000000
000001
000000
010010
000000
000100
000000
001001
000000
010100
001000
,
110010
110000
000111
001000
000110
010000
001010
000100
,
001010
000000
000000
000000
000000
000000
010000
000000
000000
000000
000000
000000
000110
000000
000000
000000
000000
000000
100001
000000
000000
000000
000000
000000
001000
000000
000000
000100
000000
000000
010000
000000
000000
000010
000000
000000
100000
000000
010000
000000
001000
000000
000100
000000
000010
000000
000001
000000
,
111000
101000
000111
001000
000101
010000
001010
000100
,
100010
010000
000110
000001
010010
000100
001001
010100
,
101010
101000
000111
001000
000110
010000
001010
000100
,
001010
000000
010000
000000
000110
000000
001001
000000
100010
000100
001010
000000
010010
001000
000110
001000
,
110001
110000
000111
001000
000101
010000
001010
000100
,
100010
000000
010000
000000
000110
000000
000001
000000
010010
000000
000100
000000
001001
000000
010100
001000
,
110010
110000
000111
001000
000110
010000
001010
000100
,
001010
000000
000000
000000
000000
000000
010000
000000
000000
000000
000000
000000
000110
000000
000000
000000
000000
000000
100001
000000
000000
000000
000000
000000
001000
000000
000000
000100
000000
000000
010000
000000
000000
000010
000000
000000
100000
000000
010000
000000
001000
000000
000100
000000
000010
000000
000001
000000
,
100000
010000
001000
000100
,
000010
000000
000001
000000
000100
000000
001000
000100
,
100000
010000
001000
000100
,
000010
000000
000000
000000
000001
000000
000000
000000
000100
010000
000010
000000
000010
001000
000100
010000
,
000001
000010
000100
001000
,
010000
000000
000000
000000
100000
000000
000000
000000
001000
000000
000000
000000
000100
000000
001000
000100
,
000001
000010
000100
001000
,
010000
000000
000000
000000
000000
000000
000000
000000
000000
000000
000000
000000
100000
000000
000000
000000
000000
000000
000000
000000
000000
000000
000000
000000
000001
000000
000000
001000
000000
000000
000100
000000
000000
100000
000000
000000
000001
000000
000010
000000
000100
000000
001000
000000
010000
000000
100000
000000
;

//---------------dance-solo - Copied from----------------
#NOTES:
     dance-solo:
     Copied from:
     Challenge:
     15:
     1.000,1.000,1.000,0.043,0.660,729.000,254.000,3.000,0.000,18.000:
100000
100000
100000
100000
,
100000
000000
100000
000000
100000
000000
100000
100000
,
100000
100000
100000
100000
,
100000
000000
000000
000000
100000
000000
000000
000000
100000
000010
100000
000000
000010
001000
000010
001000
,
000001
000001
000001
000001
,
000001
000000
000000
000000
000001
000000
000000
000000
000001
000000
000000
000000
000001
000000
001000
000100
,
000001
000001
000001
000001
,
000001
000000
000000
000000
000000
000000
000000
000000
000000
000000
000000
000000
000001
000000
000000
000000
000000
000000
000000
000000
000000
000000
000000
000000
000001
000000
000000
100000
000000
000000
000001
000000
000000
100000
000000
000000
000001
000000
000010
000000
000100
000000
001000
000000
010000
000000
100000
000000
,
000101
001000
010010
001000
000110
100000
001001
000100
,
010010
001000
100001
000100
001010
100000
000110
011000
,
000101
100000
001010
010000
000101
010000
001010
000100
,
010001
000000
000100
000000
100001
000000
000100
000000
101000
000010
010100
000000
010001
000100
011000
000010
,
100100
000001
010100
000010
101000
000010
010100
001000
,
100010
000000
000100
000000
010001
000000
000010
000000
001100
000000
000001
000000
011000
000000
000101
010000
,
001100
000010
010100
000010
011000
000001
010100
001000
,
100010
000000
000000
000000
000000
000000
000100
000000
000000
000000
000000
000000
010001
000000
000000
000000
000000
000000
000010
000000
000000
000000
000000
000000
110000
000000
000000
000100
000000
000000
001010
000000
000000
000001
000000
000000
100000
000000
010000
000000
001000
000000
000100
000000
000010
000000
000001
000000
,
100000
100000
001000
100000
100000
000100
100000
100000
,
000010
100000
100000
000100
100000
100000
000100
001000
,
100000
100000
001000
100000
100000
000100
100000
100000
,
000010
100000
100000
000001
100000
100000
000200
000000
,
100300
100000
001000
100000
100000
000100
100000
100000
,
000010
100000
100000
000100
100000
100000
000100
001000
,
100000
100000
001000
100000
100000
000100
100000
100000
,
000010
100000
100000
000001
100000
100000
000200
000000
,
100301
100000
001001
100000
100001
000100
100001
100000
,
000011
100000
100001
000100
100001
100000
000101
001001
,
100001
100000
001001
100000
100001
000100
100001
100000
,
000011
000000
100000
000000
100100
000000
000001
000000
101000
000100
101000
000000
000101
001000
000100
001000
,
100001
100000
001001
100000
100001
000100
100001
100000
,
000011
000000
100000
000000
100001
000000
000100
000000
100001
000000
100000
000000
000101
000000
001001
000010
,
100100
100000
001001
100000
100001
000100
100001
100000
,
000011
000000
000000
000000
000000
000000
100000
000000
000000
000000
000000
000000
100100
000000
000000
000000
000000
000000
000001
000000
000000
000000
000000
000000
100100
000000
000000
001000
000000
000000
100010
000000
000000
000100
000000
000000
010000
000000
001000
000000
000100
000000
000010
000000
001000
000000
000100
000000
,
100001
100000
001001
100000
100001
000100
100001
100000
,
000011
100000
100001
000100
100001
100000
000101
001001
,
100001
100000
001001
100000
100001
000100
100001
100000
,
000011
000000
100000
000000
100100
000000
000001
000000
101000
000100
101000
000000
000101
001000
000100
001000
,
100001
100000
001001
100000
100001
000100
100001
100000
,
000011
000000
100000
000000
100001
000000
000100
000000
100001
000000
100000
000000
000101
000000
001001
000010
,
100100
100000
001001
100000
100001
000100
100001
100000
,
000011
000000
000000
000000
000000
000000
100000
000000
000000
000000
000000
000000
100100
000000
000000
000000
000000
000000
000001
000000
000000
000000
000000
000000
100100
000000
000000
001000
000000
000000
100010
000000
000000
000100
000000
000000
010000
000000
001000
000000
000100
000000
000010
000000
001000
000000
000100
000000
,
100000
100000
100000
100000
,
100000
000000
100000
000000
100000
000000
100000
100000
,
100000
100000
100000
100000
,
100000
000000
000000
000000
100000
000000
000000
000000
100000
000010
100000
000000
001000
000100
001000
000100
,
100000
100000
001000
100000
100000
000100
100000
100000
,
000010
100000
100000
000100
100000
100000
000100
001000
,
100000
100000
001000
100000
100000
000100
100000
100000
,
000010
100000
100000
000001
100000
100000
000200
000000
,
101300
100000
000110
001000
000101
010000
001010
000100
,
100010
010000
000110
000001
010010
000100
001001
010100
,
100010
100000
000101
001000
000110
010000
001010
000100
,
001010
000000
010000
000000
000110
000000
000001
000000
100010
000100
001010
000000
010010
001000
000110
001000
,
100001
100000
000110
001000
000101
010000
001010
000100
,
100010
000000
010000
000000
000110
000000
000001
000000
010010
000000
000100
000000
001001
000000
010100
001000
,
100010
100000
000101
001000
000110
010000
001010
000100
,
001010
000000
000000
000000
000000
000000
010000
000000
000000
000000
000000
000000
000110
000000
000000
000000
000000
000000
000001
000000
000000
000000
000000
000000
001000
000000
000000
000100
000000
000000
010000
000000
000000
000010
000000
000000
100000
000000
010000
000000
001000
000000
000100
000000
000010
000000
000001
000000
,
101000
100000
000110
001000
000101
010000
001010
000100
,
100010
010000
000110
000001
010010
000100
001001
010100
,
100010
100000
000101
001000
000110
010000
001010
000100
,
001010
000000
010000
000000
000110
000000
000001
000000
100010
000100
001010
000000
010010
001000
000110
001000
,
100001
100000
000110
001000
000101
010000
001010
000100
,
100010
000000
010000
000000
000110
000000
000001
000000
010010
000000
000100
000000
001001
000000
010100
001000
,
100010
100000
000101
001000
000110
010000
001010
000100
,
001010
000000
000000
000000
000000
000000
010000
000000
000000
000000
000000
000000
000110
000000
000000
000000
000000
000000
000001
000000
000000
000000
000000
000000
001000
000000
000000
000100
000000
000000
010000
000000
000000
000010
000000
000000
100000
000000
010000
000000
001000
000000
000100
000000
000010
000000
000001
000000
,
111000
101000
000111
001000
000101
010000
001010
000100
,
100010
010000
000110
000001
010010
000100
001001
010100
,
101010
101000
000111
001000
000110
010000
001010
000100
,
001010
000000
010000
000000
000110
000000
001001
000000
100010
000100
001010
000000
010010
001000
000110
001000
,
110001
110000
000111
001000
000101
010000
001010
000100
,
100010
000000
010000
000000
000110
000000
000001
000000
010010
000000
000100
000000
001001
000000
010100
001000
,
110010
110000
000111
001000
000110
010000
001010
000100
,
001010
000000
000000
000000
000000
000000
010000
000000
000000
000000
000000
000000
000110
000000
000000
000000
000000
000000
100001
000000
000000
000000
000000
000000
001000
000000
000000
000100
000000
000000
010000
000000
000000
000010
000000
000000
100000
000000
010000
000000
001000
000000
000100
000000
000010
000000
000001
000000
,
111000
101000
000111
001000
000101
010000
001010
000100
,
100010
010000
000110
000001
010010
000100
001001
010100
,
101010
101000
000111
001000
000110
010000
001010
000100
,
001010
000000
010000
000000
000110
000000
001001
000000
100010
000100
001010
000000
010010
001000
000110
001000
,
110001
110000
000111
001000
000101
010000
001010
000100
,
100010
000000
010000
000000
000110
000000
000001
000000
010010
000000
000100
000000
001001
000000
010100
001000
,
110010
110000
000111
001000
000110
010000
001010
000100
,
001010
000000
000000
000000
000000
000000
010000
000000
000000
000000
000000
000000
000110
000000
000000
000000
000000
000000
100001
000000
000000
000000
000000
000000
001000
000000
000000
000100
000000
000000
010000
000000
000000
000010
000000
000000
100000
000000
010000
000000
001000
000000
000100
000000
000010
000000
000001
000000
,
100000
100000
100000
100000
,
100000
000000
100000
000000
100000
000000
100000
100000
,
100000
100000
100000
100000
,
100000
000000
000000
000000
100000
000000
000000
000000
100000
000100
100000
000000
000100
001000
000100
001000
,
000001
000001
000001
000001
,
000001
000000
000000
000000
000001
000000
000000
000000
000001
000000
000000
000000
000001
000000
001000
000100
,
000001
000001
000001
000001
,
000001
000000
000000
000000
000000
000000
000000
000000
000000
000000
000000
000000
000001
000000
000000
000000
000000
000000
000000
000000
000000
000000
000000
000000
000001
000000
000000
100000
000000
000000
000001
000000
000000
100000
000000
000000
000001
000000
000010
000000
000100
000000
001000
000000
010000
000000
100000
000000
;

//---------------dance-single - ----------------
#NOTES:
     dance-single:
     :
     Hard:
     15:
     1.000,1.000,1.000,0.043,0.660,730.000,226.000,3.000,0.000,22.000:
1000
1000
1000
1000
,
1000
0000
1000
0000
1000
0000
1000
1000
,
1000
1000
1000
1000
,
1000
0000
0000
0000
1000
0000
0000
0000
1000
0010
0100
0000
0001
0100
0010
1000
,
0001
0001
0001
0001
,
0001
0000
0000
0000
0001
0000
0000
0000
0001
0000
0000
0000
0001
0000
0001
1000
,
0001
0001
0001
0001
,
0001
0000
0000
0000
0000
0000
0000
0000
0000
0000
0000
0000
0001
0000
0000
0000
0000
0000
0000
0000
0000
0000
0000
0000
0001
0000
0000
0100
0000
0000
0010
0000
0000
1000
0000
0000
0001
0000
0010
0000
0100
0000
1000
0000
0010
0000
0100
0000
,
0001
0100
0001
1000
0001
0010
0001
0100
,
0001
0010
0001
1000
0001
0010
0001
0101
,
0001
0010
0001
1000
0001
0010
0001
0100
,
0001
0000
0010
0000
0001
0000
1000
0000
0001
0100
0011
0000
1000
0100
0011
0100
,
1000
0010
1000
0001
1000
0100
1000
0010
,
1000
0000
0100
0000
1000
0000
0010
0000
1000
0000
0100
0000
1000
0000
1010
0001
,
1000
0100
1000
0001
1000
0100
1000
0010
,
1000
0000
0000
0000
0000
0000
0100
0000
0000
0000
0000
0000
1000
0000
0000
0000
0000
0000
0001
0000
0000
0000
0000
0000
1000
0000
0000
0010
0000
0000
1100
0000
0000
0001
0000
0000
1000
0000
0100
0000
0010
0000
1001
0000
0100
0000
0010
0000
,
0001
0001
1000
0001
0001
0010
0001
0001
,
0100
0001
0001
1000
0001
0001
0010
0100
,
1000
1000
0010
1000
1000
0001
1000
1000
,
0010
1000
1000
0001
1000
1000
0020
0000
,
0031
0001
1000
0001
0001
0100
0001
0001
,
0010
0001
0001
0100
0001
0001
0010
0100
,
1000
1000
0010
1000
1000
0001
1000
1000
,
0010
1000
1000
0001
1000
1000
0020
0000
,
0131
0001
1010
0001
1001
0010
0101
0001
,
1100
0001
0011
1000
0101
0001
1010
0101
,
1001
1000
0110
1000
1010
0001
1100
1000
,
0011
0000
1000
0000
1100
0000
0001
0000
1010
0100
1001
0000
0011
0100
0010
1000
,
0011
0001
1100
0001
0011
0100
1001
0001
,
0110
0000
0001
0000
1001
0000
0100
0000
0011
0000
0001
0000
1010
0000
0101
0010
,
1001
1000
0011
1000
1100
0001
1010
1000
,
0011
0000
0000
0000
0000
0000
1000
0000
0000
0000
0000
0000
1100
0000
0000
0000
0000
0000
0001
0000
0000
0000
0000
0000
1100
0000
0000
0010
0000
0000
0101
0000
0000
0010
0000
0000
1001
0000
0100
0000
0010
0000
0001
0000
0010
0000
0100
0000
,
1001
1000
0101
1000
1001
0100
1010
1000
,
0011
1000
1100
0001
1010
1000
0101
1010
,
1001
0001
0110
0001
0101
1000
0011
0001
,
1100
0000
0001
0000
0011
0000
1000
0000
0101
0010
1001
0000
1100
0010
0100
0001
,
1100
1000
0011
1000
1100
0010
1001
1000
,
0110
0000
1000
0000
1001
0000
0010
0000
1100
0000
1000
0000
0101
0000
1010
0100
,
1001
0001
1100
0001
0011
1000
0101
0001
,
1100
0000
0000
0000
0000
0000
0001
0000
0000
0000
0000
0000
1001
0000
0000
0000
0000
0000
0010
0000
0000
0000
0000
0000
1001
0000
0000
0010
0000
0000
1100
0000
0000
0010
0000
0000
1001
0000
0100
0000
0010
0000
0001
0000
0010
0000
0100
0000
,
1000
1000
1000
1000
,
1000
0000
1000
0000
1000
0000
1000
1000
,
1000
1000
1000
1000
,
1000
0000
0000
0000
1000
0000
0000
0000
1000
0010
0100
0000
0001
0100
0010
1000
,
0001
0001
1000
0001
0001
0010
0001
0001
,
0100
0001
0001
1000
0001
0001
0010
0100
,
1000
1000
0010
1000
1000
0001
1000
1000
,
0010
1000
1000
0001
1000
1000
0020
0000
,
1031
1000
0110
1000
0011
0100
0011
1000
,
0011
0100
1010
0001
1010
0100
1001
0110
,
1001
1000
0110
1000
0011
0100
0011
1000
,
0011
0000
0100
0000
1010
0000
0001
0000
1010
0001
0110
0000
1001
0100
0011
0100
,
1001
1000
0110
1000
0011
0100
0011
1000
,
0011
0000
0100
0000
1010
0000
0001
0000
1100
0000
0010
0000
1100
0000
0011
0100
,
0011
1000
0110
1000
0011
0100
0011
1000
,
0011
0000
0000
0000
0000
0000
0100
0000
0000
0000
0000
0000
1010
0000
0000
0000
0000
0000
0001
0000
0000
0000
0000
0000
1000
0000
0000
0100
0000
0000
0010
0000
0000
0001
0000
0000
1000
0000
0100
0000
0010
0000
0001
0000
0100
0000
0010
0000
,
1001
0001
0110
0001
1100
0010
1100
0001
,
1100
0010
0101
1000
0101
0010
1001
0110
,
1001
0001
0110
0001
1100
0010
1100
0001
,
1100
0000
0010
0000
0101
0000
1000
0000
0101
1000
0110
0000
1001
0010
1100
0010
,
1001
0001
0110
0001
1100
0010
1100
0001
,
1100
0000
0010
0000
0101
0000
1000
0000
0011
0000
0100
0000
0011
0000
1100
0010
,
1100
0001
0110
0001
1100
0010
1100
0001
,
1100
0000
0000
0000
0000
0000
0010
0000
0000
0000
0000
0000
0101
0000
0000
0000
0000
0000
1000
0000
0000
0000
0000
0000
0001
0000
0000
0010
0000
0000
0100
0000
0000
1000
0000
0000
0001
0000
0010
0000
0100
0000
1000
0000
0010
0000
0100
0000
,
1011
1010
0111
1000
0011
0100
0011
1000
,
0011
0100
1010
0001
1010
0100
1001
0110
,
1011
1010
0111
1000
0011
0100
0011
1000
,
0011
0000
0100
0000
1010
0000
0101
0000
1010
0001
0110
0000
1001
0100
0011
0100
,
1011
1010
0111
1000
0011
0100
0011
1000
,
0011
0000
0100
0000
1010
0000
0001
0000
1100
0000
0010
0000
1101
0000
0011
0100
,
1011
1011
0111
1000
0011
0100
0011
1000
,
0011
0000
0000
0000
0000
0000
0100
0000
0000
0000
0000
0000
1010
0000
0000
0000
0000
0000
0101
0000
0000
0000
0000
0000
1000
0000
0000
0100
0000
0000
0010
0000
0000
0001
0000
0000
1000
0000
0100
0000
0010
0000
0001
0000
0100
0000
0010
0000
,
1101
0101
1110
0001
1100
0010
1100
0001
,
1100
0010
0101
1000
0101
0010
1001
0110
,
1101
0101
1110
0001
1100
0010
1100
0001
,
1100
0000
0010
0000
0101
0000
1010
0000
0101
1000
0110
0000
1001
0010
1100
0010
,
1101
0101
1110
0001
1100
0010
1100
0001
,
1100
0000
0010
0000
0101
0000
1000
0000
0011
0000
0100
0000
1011
0000
1100
0010
,
1101
1101
1110
0001
1100
0010
1100
0001
,
1100
0000
0000
0000
0000
0000
0010
0000
0000
0000
0000
0000
0101
0000
0000
0000
0000
0000
1010
0000
0000
0000
0000
0000
0001
0000
0000
0010
0000
0000
0100
0000
0000
1000
0000
0000
0001
0000
0010
0000
0100
0000
1000
0000
0010
0000
0100
0000
,
0001
0001
0001
0001
,
0001
0000
0001
0000
0001
0000
0001
0001
,
0001
0001
0001
0001
,
0001
0000
0000
0000
0001
0000
0000
0000
0001
0100
0010
0000
1000
0010
0100
0001
,
1000
1000
1000
1000
,
1000
0000
0000
0000
1000
0000
0000
0000
1000
0000
0000
0000
1000
0000
1000
0001
,
1000
1000
1000
1000
,
1000
0000
0000
0000
0000
0000
0000
0000
0000
0000
0000
0000
1000
0000
0000
0000
0000
0000
0000
0000
0000
0000
0000
0000
1000
0000
0000
0010
0000
0000
0100
0000
0000
0001
0000
0000
1000
0000
0100
0000
0010
0000
0001
0000
0100
0000
0010
0000
,
1000
0000
0000
0000
;
