#TITLE:Tread The Floods;
#SUBTITLE:;
#ARTIST:Trivium;
#TITLETRANSLIT:;
#SUBTITLETRANSLIT:;
#ARTISTTRANSLIT:;
#CREDIT:MURDER.V01DKeng07;
#BANNER:Banner-bn.png;
#BACKGROUND:Floods-bg.png;
#LYRICSPATH:;
#CDTITLE:;
#MUSIC:Tread The Floods.ogg;
#OFFSET:-0.173;
#SAMPLESTART:117.859;
#SAMPLELENGTH:12.000;
#SELECTABLE:YES;
#BPMS:0.000=202.000,352.000=160.000,475.000=202.000;
#STOPS:;
#BGCHANGES:;
// cache tags:
#FIRSTBEAT:0.000;
#LASTBEAT:669.000;
#SONGFILENAME:Songs/SSSC PACK/[VO1D] - Tread The Floods/Tread The Floods.sm;
#HASMUSIC:1;
#HASBANNER:0;
#MUSICLENGTH:213.925;
// end cache tags

//---------------dance-single - V01DKeng07----------------
#NOTES:
     dance-single:
     V01DKeng07:
     Challenge:
     15:
     1.000,1.000,0.243,0.365,1.000,1782.000,52.000,78.000,82.000,0.000:

0002
1003
0100
0010
0100
1000
0MM2
0103
,
0010
0000
0100
0000
0001
0000
1000
0000
0100
0010
0001
0010
0100
1000
0001
1000
,
0001
0100
0010
0001
0010
0100
0001
1000
,
0MM2
0013
0100
1000
0MM2
1003
0100
0010
,
MM02
0103
0010
1000
0010
0100
2000
3100
,
0010
0000
0100
0000
0001
0000
1000
0000
0001
0010
0001
1000
0010
1000
0001
0100
,
M02M
0130
0001
2MM0
3001
1000
02MM
0310
,
0002
0013
0001
0010
0100
1000
0100
1000
0001
1000
0001
1000
0010
0100
0010
0100
,
0002
1003
0001
0010
0001
1000
0M2M
0130
,
1000
0000
0100
0000
0001
0000
1000
0000
0001
0100
0001
1000
0001
0010
0100
0010
,
0001
1000
0100
0010
0001
0100
0001
1000
,
0MM2
0013
0100
1000
0MM2
1003
0100
0010
,
MM02
0103
0010
1000
0010
0100
20MM
3100
,
0010
0000
0100
0000
0001
0000
1000
0000
0001
0010
0001
1000
0010
1000
0001
0100
,
M02M
0130
0001
2MM0
3001
1000
02MM
0310
,
0002
0013
0001
0100
0010
1000
0100
1000
0010
0100
0001
0100
0010
0100
0001
1000
,
020M
0310
0100
1000
0001
0010
0001
1000
0010
0100
0001
0100
0010
1000
0010
1000
,
0002
MMM0
0103
0001
0100
1000
0100
0001
,
0100
0010
1010
0000
0011
0000
1010
0100
,
0012
MMM0
1003
0100
0001
0100
1000
0100
,
0001
1000
0100
0010
0100
0001
1000
0100
,
0020
MM0M
0031
0010
0001
0100
0001
0010
,
0001
0100
0101
0000
0110
0000
1010
0100
,
0012
MMM0
1003
0100
0010
0100
1000
0001
,
0100
0010
0100
0010
1000
0001
1000
0001
0010
0001
0010
0001
0100
0010
0100
0010
,
1000
0100
1000
0100
0010
0100
0010
0100
1000
0100
0010
0001
0100
0010
1000
0001
,
2000
0MMM
3001
0010
0001
0100
0010
1000
,
0100
0010
0110
0000
0011
0000
0101
0100
,
0120
M00M
1030
0100
1000
0010
0100
0010
,
1000
0000
0100
0000
0010
0000
0001
0100
0001
0000
0010
0000
0100
0000
1000
0000
,
2001
0MM0
3010
0100
0010
1000
0001
1000
,
0100
0010
0011
0000
0101
0000
1010
1000
,
1002
0MM0
0013
0001
0100
0001
0010
0100
,
1000
0001
1000
0001
0100
0010
0100
0010
1000
0100
1000
0100
0010
0100
0010
0100
,
1000
0100
0010
0001
0010
0001
0100
0001
1000
0001
1000
0001
1000
0010
1000
0001
,
1000
0100
0010
0100
1000
0010
0100
0010
,
0001
0010
0100
1000
0100
0001
1000
0100
,
0010
0001
1000
0100
0001
0100
0010
1000
,
0010
0001
1000
0100
0010
0100
1000
0010
,
0001
0010
1000
0100
0010
0100
0001
0100
,
1000
0010
0001
0010
1000
0100
0010
0100
,
1000
0010
0001
0010
0100
0001
0010
0100
,
0001
1000
0010
0100
1000
0010
0001
1000
,
0100
0010
1000
0100
0010
0001
0100
1000
,
0001
0010
0100
0010
1000
0100
0001
1000
,
0010
0100
0010
0001
0100
0100
0010
1000
,
0001
0010
0100
1000
0100
0010
0001
0100
,
1010
1000
0100
0010
0011
0001
0100
0010
,
0100
0000
0010
0000
1000
0000
0100
0000
0010
0000
0001
0000
2000
0000
0000
0MMM
0000
0000
3010
0000
0000
0100
0000
0000
,
0001
0100
0010
1000
0100
0010
0110
0000
,
1100
0000
1010
0010
0210
M00M
0301
0010
,
0001
0000
0100
0000
0010
0000
0100
0000
0001
0000
0010
0000
0100
0000
1000
0010
,
1000
0100
0010
0001
1002
0MM0
0103
0010
,
0100
0001
1000
0001
0010
0100
1100
0000
,
1010
0000
0101
0001
2001
0MM0
3100
1000
,
0010
0000
1000
0000
0100
0000
0010
0000
0001
1000
0001
1000
0010
0100
0010
0100
,
0001
0010
0001
0010
0100
0010
0100
0010
0001
0010
0100
0010
0001
1000
0010
0100
,
0001
1000
0100
1000
0001
0010
0001
1000
0001
0000
0010
0000
0100
0000
0010
0000
,
0001
0100
0010
0100
1000
0100
0010
0001
,
0010
1000
0001
0010
0100
1000
0001
0010
,
1000
0010
0100
0001
0100
1000
0001
0010
,
0100
0010
0001
0100
1000
0100
0001
0010
,
0100
0010
1000
0010
0001
0100
1000
0100
,
0001
0010
0100
0010
0001
0100
1000
0100
,
0010
1000
0100
0010
1000
0001
0100
0010
,
0001
0100
1000
0001
0010
0100
0001
0010
,
0100
1000
0010
0001
1000
0100
0010
0100
,
0001
0010
1000
0001
0100
0010
0100
1000
,
0010
0010
0100
0001
1000
0100
0010
0001
,
0010
0100
1000
0010
0101
0001
0010
0100
,
1100
0000
0000
1000
0000
0000
0010
0000
0000
0100
0000
0000
0010
0000
0100
0000
0001
0000
1000
0000
0100
0000
0010
0000
,
0001
0100
0010
1000
0001
0100
0010
1000
0001
0010
0001
1000
0100
1000
0001
0010
,
0001
0100
0010
1000
0100
0010
0100
1000
0001
0010
0100
0010
0001
0100
0010
1000
,
0010
0100
0001
1000
0100
0010
0001
0010
0100
1000
0010
0100
0001
0100
0010
1000
,
0010
0100
0001
0010
0100
1000
0001
0100
0010
1000
0001
1000
0100
0010
0001
1000
,
0001
0010
0100
1000
0010
0100
0001
0100
0010
1000
0001
1000
0100
0010
0001
1000
,
0001
0010
0001
1000
0100
1000
0010
0100
0010
0100
0001
1000
0001
0010
0001
0100
,
0010
1000
0010
0100
0001
1000
0100
0010
0001
1000
0100
0010
0001
0100
0010
1000
,
0001
0010
0001
0010
0001
0100
0010
0100
0010
1000
0001
1000
0100
0010
0001
1000
,
0001
0100
0010
1000
0001
0010
0100
1000
0001
0100
0010
1000
0100
1000
0001
0010
,
0001
0100
0010
1000
0100
0010
0100
1000
0001
0010
0100
0010
0001
0100
0010
1000
,
0010
0100
0001
1000
0100
0010
0001
0010
0100
1000
0010
0100
0001
0100
0010
1000
,
0010
0100
0001
0010
0100
1000
0001
0100
0010
1000
0001
1000
0100
0010
0001
1000
,
0001
0010
0100
1000
0010
0100
0001
0100
0010
1000
0001
1000
0100
0010
0001
1000
,
0001
0010
0001
1000
0100
1000
0010
0100
0010
0100
0001
1000
0001
0010
0001
0100
,
0010
1000
0010
0100
0001
1000
0100
0010
0001
1000
0100
0010
0001
0100
0010
1000
,
0001
0010
0001
0010
0001
0100
0010
0100
0010
1000
0001
1000
0100
0010
0001
1000
,
0100
1000
0100
0010
0100
0010
0100
1000
0100
0010
0001
0010
0100
1000
0010
0100
,
0002
0000
0000
0000
0000
0000
0103
0000
0000
0010
0000
0000
0100
0000
0000
0001
0000
0000
1000
0000
0000
0100
0000
0000
0010
0000
0000
0001
0000
0000
0100
0000
0000
0010
0000
0000
0100
0000
0010
0000
0100
0000
0010
0000
0000
1000
0000
0000
,
0001
0000
0000
1000
0000
0000
0100
0000
0010
0000
0100
0000
0010
0000
0000
0001
0000
0000
0100
0000
0000
0010
0000
0000
0100
0000
0001
0000
0100
0000
0001
0000
0000
1000
0000
0000
0001
0000
0000
1000
0000
0000
0001
0000
0100
0000
0001
0000
,
0200
0000
0000
0000
0000
0000
0310
0000
0000
1000
0000
0000
0001
0000
0000
1000
0000
0000
0010
0000
0100
0000
0010
0000
0100
0000
0000
0001
0000
0000
1000
0000
0000
0100
0000
0000
0020
0000
0000
0000
0000
0000
0031
0000
0000
0010
0000
0000
,
0002
0000
0000
0000
0000
0103
0010
1000
0004
4000
0000
0000
0000
0000
0000
3003
,
0010
0100
0001
1000
0200
0000
0340
0004
0000
0000
0000
0000
0033
0000
0001
0100
,
0010
0100
0001
1000
0002
0000
0203
0000
0000
0000
0320
0000
0000
0000
2030
0000
,
3002
0000
0000
0023
0000
0000
0032
0000
,
0103
0010
1000
0010
0100
0010
1000
0001
1000
0100
0010
0001
1000
0100
0010
0100
,
1000
0001
0100
0010
0100
0001
1000
0100
1000
0100
0010
0100
0010
0100
1000
0010
,
0100
0000
0000
0001
0000
0000
0100
0000
0000
0010
0000
0000
1000
0000
0000
0100
0000
0000
0010
0000
0001
0000
0010
0000
0001
0000
0000
0100
0000
0000
0010
0000
0000
0100
0000
0000
0010
0000
0000
1000
0000
0000
0001
0000
0000
1000
0000
0000
,
0100
0000
0000
0010
0000
0000
0001
0000
0000
1000
0000
0000
0010
0000
0000
0100
0000
0000
0001
0000
0000
1000
0000
0000
0100
0000
0000
0010
0000
0000
0100
0000
0000
1000
0000
0000
0001
0000
0000
0010
0000
0000
0001
0000
0100
0000
0001
0000
,
0100
0000
0000
0010
0000
0000
1000
0000
0001
0000
1000
0000
0001
0000
0000
1000
0000
0000
0001
0000
0010
0000
0001
0000
0010
0000
0000
0001
0000
0000
0100
0000
0000
0010
0000
0000
1000
0000
0000
0001
0000
0000
1000
0000
0001
0000
1000
0000
,
0002
0103
0010
1000
0010
0100
0001
1000
0100
0010
0001
1000
0010
0100
0001
1000
,
0001
0000
0010
0000
0001
0000
0100
0000
0010
0000
0100
0000
0001
0100
0001
0000
0100
0000
0010
0000
1000
0000
0001
0000
1000
0000
0100
0000
0010
0000
0100
0000
,
1000
0100
0010
0001
0010
0100
1000
0001
0100
0010
0100
0001
1000
0001
0010
0001
,
0100
0000
0010
0000
0100
0000
0010
0000
0000
1000
0000
0000
0001
0000
1000
0000
0001
0000
1000
0000
0000
0001
0000
0000
0010
0000
0001
0000
0010
0000
0001
0000
0000
0100
0000
0000
0010
0000
0100
0000
0010
0000
0100
0000
0000
0001
0000
0000
,
2000
0000
0000
3002
0000
0000
0023
0000
,
0000
0032
0000
0000
0203
0000
0320
0000
,
2030
0000
0000
3002
0000
0000
0000
0000
,
0000
0000
0000
0000
,
2003
0000
0000
3020
0000
0000
0230
0000
,
0000
0302
0000
0000
2003
0000
3200
0000
,
0320
0000
0000
0032
0000
0000
0203
0000
,
0320
0000
0000
1030
0000
0000
0100
0000
0000
0001
0000
0000
0100
0000
0000
1000
0000
0000
0010
0000
0100
0000
0001
0000
,
1000
0100
0010
0001
0100
0001
1000
0010
1000
0001
1000
0100
,
0020
0031
0100
0010
1000
0001
2000
0000
,
3001
0100
0001
0100
0001
0100
0001
1000
0001
1000
0001
1000
0001
1000
0100
1000
0100
1000
0100
1000
0001
1000
0001
1000
,
0001
0100
0010
1000
0100
0010
0012
0000
,
0103
0000
0010
0000
0100
0000
0001
0000
1000
0000
0100
0000
0010
0000
0001
0000
1000
0001
1000
0000
0100
0000
0010
0000
0001
0000
0010
0000
0001
0000
0100
0000
,
0001
0000
0000
0010
0000
0000
0001
0000
0000
0100
0000
0000
0010
0000
0000
1000
0000
0000
0200
0000
0000
0310
0001
0010
,
0001
0000
0000
0100
0000
0000
0001
0000
0100
0000
0001
0000
0100
0000
0000
0010
0000
0000
1000
0000
0001
0000
1000
0000
0001
0000
0000
1000
0000
0000
0100
0000
0000
0010
0000
0000
0002
0000
0000
0000
0000
0000
MMM0
0000
0000
0000
0000
0000
,
0103
0001
1000
0010
1000
0100
0010
0001
,
0011
0000
1001
0000
1010
0100
0012
MMM0
,
1003
0100
0010
0100
1000
0100
0010
0001
,
0100
0010
0100
0001
1000
0100
0020
MM0M
,
0031
0010
0001
0100
0001
0010
0001
0100
,
0101
0000
0110
0000
1010
0100
0012
MMM0
,
1003
0000
0100
0000
0010
0000
0100
0000
1000
0000
0001
0000
0100
0010
0100
0010
,
1000
0001
1000
0001
0010
0001
0010
0001
0100
0010
0100
0010
1000
0100
1000
0100
,
0010
0100
0010
0100
1000
0100
0010
0001
0100
0010
1000
0001
2000
0000
0MMM
0000
,
3001
0100
0001
0010
0001
1000
0100
1000
,
0010
0100
0001
0010
0001
0100
0120
M00M
,
1030
0000
0100
0000
1000
0000
0010
0000
0100
0000
0010
0000
1000
0010
1000
0010
,
0100
0001
0100
0001
0010
0100
1000
0100
0010
0001
1000
0010
0200
0000
M01M
0000
,
0310
0100
0010
1000
0001
1000
0100
0010
,
0011
0001
0101
0100
1010
1000
1002
MM10
,
0013
0000
0001
0000
0100
0000
0001
0000
0010
0000
0100
0000
1000
0001
1000
0001
,
0100
0010
0100
0010
1000
0100
1000
0100
0010
0100
0010
0100
1000
0100
0010
0100
,
1000
0001
0100
0010
1000
0001
0010
0001
1000
0100
1000
0001
1000
0000
0010
0000
,
0100
0010
1000
0100
0010
0001
1000
0010
,
0001
0010
0100
0001
1000
0100
0010
0001
,
1000
0000
0001
0010
0001
1000
0100
1000
0010
0100
0010
0100
0010
0000
1000
0000
,
0001
0010
0001
0100
0010
0001
0010
1000
,
0100
0001
0100
1000
0010
0100
0010
0010
,
1000
0000
0010
1000
0001
1000
0001
0100
0010
1000
0001
1000
0001
0000
1000
0000
,
0001
0010
1000
0010
0001
0100
1000
0100
,
0001
1000
0100
0001
0100
1000
0010
0100
,
0001
0000
1000
0100
0010
0001
1000
0010
0100
0001
1000
0100
0010
0000
0001
0000
,
1000
0010
0100
0001
1000
0100
0001
0100
,
1000
0010
0001
0010
0100
0010
1000
0010
,
0100
1000
0100
0010
0100
0001
1010
1000
,
0100
0000
0000
0010
0000
0000
0011
0000
0000
0001
0000
0000
0100
0000
0000
0010
0000
0000
0100
0000
0010
0000
1000
0000
,
0001
0000
0000
0000
0010
0000
0000
0000
0100
0000
0000
0000
1000
0000
0000
0010
0000
0000
0100
0000
0000
0001
0000
0000
1000
0000
0000
0010
0000
0000
0100
0000
0000
0001
0000
0000
1000
0000
0000
0100
0000
0000
1000
0000
0000
0001
0000
0000
,
0010
0001
1000
0100
1000
0010
0100
0001
0010
0100
0010
0001
1000
0100
0010
0100
,
1000
0010
0100
0001
0100
0010
1000
0001
0010
0100
1000
0100
0010
0001
0100
0010
,
1000
0010
0100
0001
0100
0010
1000
0100
0010
0001
1000
0010
0100
0001
1000
0001
,
0010
0100
1000
0001
1000
0100
0010
0001
0100
0010
1000
0010
0100
0001
1000
0001
,
0010
0100
1000
0001
1000
0100
1000
0001
0010
0001
0100
0010
0100
0010
1000
0001
,
1000
0100
1000
0010
0100
0001
0100
0010
1000
0001
0010
0100
1000
0001
0010
0100
,
1000
0010
0100
0001
1000
0100
1000
0100
1000
0010
0100
0010
0100
0001
1000
0001
,
0010
0100
1000
0001
1000
0010
0100
0001
1000
0100
0010
0001
1000
0010
0100
0001
,
0010
0001
1000
0100
1000
0010
0100
0001
0010
0100
0010
0001
1000
0100
0010
0100
,
1000
0010
0100
0001
0100
0010
1000
0001
0010
0100
1000
0100
0010
0001
0100
0010
,
1000
0010
0100
0001
0100
0010
1000
0100
0010
0001
1000
0010
0100
0001
1000
0001
,
0010
0100
1000
0001
1000
0100
0010
0001
0100
0010
1000
0010
0100
0001
1000
0001
,
0010
0100
1000
0001
1000
0100
1000
0001
0010
0001
0100
0010
0100
0010
1000
0001
,
1000
0010
0100
0001
1000
0000
0000
0000
0000
0000
0000
0000
0000
0000
0000
0000
,
0000
0011
0000
0000
,
1001
1000
2002
0000
0000
0000
0000
0000
,
0000
0000
0000
3003
1001
0000
0000
0000
0000
0000
0000
0000
0000
0000
0000
0000
;
