#TITLE:Ripples;
#SUBTITLE:Ripples (2010);
#ARTIST:Aspera;
#TITLETRANSLIT:;
#SUBTITLETRANSLIT:;
#ARTISTTRANSLIT:;
#CREDIT:;
#BANNER:Ripples-banner.png;
#BACKGROUND:Ripples-bg.png;
#LYRICSPATH:;
#CDTITLE:omega_cdtitle.png;
#MUSIC:02- Ripples.mp3;
#OFFSET:1.483;
#SAMPLESTART:215.780;
#SAMPLELENGTH:12.000;
#SELECTABLE:YES;
#BPMS:0.000=135.000;
#STOPS:;
#BGCHANGES:;
// cache tags:
#FIRSTBEAT:4.000;
#LASTBEAT:882.250;
#SONGFILENAME:Songs/Astronomic Metal Collection 2/(OMEGAspike) Ripples/02- Ripples.sm;
#HASMUSIC:1;
#HASBANNER:1;
#MUSICLENGTH:392.834;
// end cache tags

//---------------dance-single - ----------------
#NOTES:
     dance-single:
     :
     Hard:
     10:
     1.000,1.000,1.000,1.000,1.000,2365.000,667.000,417.000,0.000,128.000:
0000
0000
0000
0000
,
0102
0003
0000
0000
1000
0000
0000
0000
0120
0030
0000
0000
0001
0000
0000
0000
2010
3000
0000
0000
0001
0000
0000
0000
0010
0000
0000
0000
0100
0000
0000
0000
,
1000
0000
0000
0000
0100
0000
0000
0000
1000
0000
0000
0000
0010
0000
0000
0000
0100
0000
0000
0000
1002
0003
0000
0000
0100
0000
0000
0000
1000
0000
0000
0000
,
0010
1000
0010
0001
0100
0001
0010
0100
,
0010
0000
0000
0000
2001
3000
0000
0000
0010
0000
0000
0000
0001
0000
0000
0000
0010
0000
0000
0000
1200
0300
0000
0000
0010
0000
0000
0000
0102
0003
0000
0000
,
1000
0100
0010
0001
0100
0001
0010
0100
,
1000
0000
0000
0100
0000
0000
1000
0000
0000
0010
0000
0000
0100
0000
0000
0001
0000
0000
1010
0000
1001
0100
1001
0000
,
0011
0000
0000
0000
0000
0000
0100
0000
0000
0000
0000
0000
2010
3000
0000
0000
0000
0000
0001
0000
0000
0000
0000
0000
0100
0000
0000
0000
0000
0000
0001
0000
0000
0000
0000
0000
2010
3000
0000
0000
0000
0000
0100
0000
0000
0000
0000
0000
,
1011
1100
1100
1100
1101
0020
0000
0000
,
1130
0001
1000
0010
0101
0010
1000
0001
0110
1000
0100
0010
1001
0100
0001
0100
,
0011
1000
0001
0100
1010
0100
0001
0010
1100
0010
0100
1000
0011
0100
0001
1000
,
0110
1000
0001
1000
0011
0100
0001
1000
0110
0001
1000
0100
0011
0100
0001
1000
,
0110
1000
0001
0100
0011
0100
0001
0010
1100
0010
0100
0010
1101
0010
0100
0010
,
1001
0100
0010
0001
0110
1000
0001
0100
0011
0100
0010
1000
0110
0001
1000
0001
,
1010
0100
0001
1000
0101
0010
0001
0100
1010
0100
0010
1000
0011
1000
0001
0100
,
0011
0100
0001
1000
0110
1000
0001
0100
1001
0010
0100
0010
0101
1000
0010
0100
,
0011
1000
0001
0100
1010
0100
0010
0100
1001
0000
0101
0000
0000
0000
0000
0000
,
1002
0103
0010
1100
0010
0001
1000
0100
,
1010
0000
0000
0000
0012
0000
0000
0000
0103
0000
0000
0000
0010
0000
0000
0000
1100
0000
0000
0000
0010
0000
0000
0000
0001
0000
0000
0000
1010
0001
0000
0000
,
0210
0300
0000
0000
0000
0000
0021
0030
0000
0000
0000
0000
2002
3000
0000
0000
0000
0000
0103
0000
0000
0000
0000
0000
0010
0000
0000
0000
0000
0000
1100
0000
0000
0000
0000
0000
0010
0000
0000
0000
0000
0000
0001
0000
0000
0000
0000
0000
,
1000
0100
1010
1002
0103
0010
1100
0010
,
0001
0000
0000
0000
0000
0000
0000
0000
0000
0000
0000
0000
0000
0000
0000
0000
0000
0000
0000
0000
0000
0000
0000
0000
0020
0000
0000
0000
0000
0000
0000
0000
0000
0000
0000
0000
0000
0000
0000
0000
0000
0000
0000
0000
0000
0000
0000
0000
1030
0000
0000
0000
0000
0000
0000
0000
0000
0000
0000
0000
0000
0000
0000
0000
0000
0000
0000
0000
0000
0000
0000
0000
0100
0000
0000
0000
0000
0000
0000
0000
0000
0000
0000
0000
0000
0000
0000
0000
0000
0000
0000
0000
0000
0000
0000
0000
1001
0000
0000
0000
0000
0000
0000
0000
0000
0000
0000
0000
0000
0000
0000
0000
0000
0000
0000
0000
0000
0000
0000
0000
0010
0000
0000
0000
0000
0000
0000
0000
0000
0000
0000
0000
0000
0000
0000
0000
0000
0000
0000
0000
0000
0000
0000
0000
0101
0000
0000
0000
0000
0000
1000
0000
0000
0000
0000
0000
0000
0000
0000
0000
0000
0000
0000
0000
0000
0000
0000
0000
0012
0000
0000
0000
0003
0000
0000
0000
0000
0000
0000
0000
0000
0000
0000
0000
0000
0000
0000
0000
0000
0000
0000
0000
,
0120
0030
0000
0000
0000
0000
1200
0300
0000
0000
0000
0000
2002
3000
0000
0000
0000
0000
0103
0000
0000
0000
0000
0000
0010
0000
0000
0000
0000
0000
1100
0000
0000
0000
0000
0000
0010
0000
0000
0000
0000
0000
0001
0000
0000
0000
0000
0000
,
1000
0100
1010
0102
0103
1010
0100
0010
,
0001
0000
0110
0000
0011
1100
0011
1100
0012
0000
0103
0000
0010
0000
1100
0000
,
0010
0001
1000
0100
1010
1002
0103
0010
,
1100
0000
0000
0000
0010
0000
0000
0000
0001
0000
0000
0000
1100
0001
0000
0000
0110
0000
0000
0000
1100
0001
0000
0000
0110
0000
0000
0000
1100
0001
0000
0000
,
0110
1010
0101
1010
1101
0000
0101
0000
,
1000
0000
0000
0000
0000
0000
0000
0000
0000
0000
0000
0000
0000
0000
0000
0000
0101
0000
0000
0000
0000
0000
0000
0000
0020
0030
0000
0000
0000
0000
0000
0000
1000
0000
0000
0000
0000
0000
0000
0000
0020
0030
0000
0000
0000
0000
0000
0000
0101
0000
0000
0000
0000
0000
0000
0000
0000
0000
0000
0000
0000
0000
0000
0000
,
1000
0000
0000
0000
0000
0000
0000
0000
0000
0000
0000
0000
0000
0000
0000
0000
0101
0000
0000
0000
0000
0000
0000
0000
1000
0000
0000
0000
0000
0000
0000
0000
1002
0003
0000
0000
0000
0000
0000
0000
0000
0000
0000
0000
0000
0000
0000
0000
0101
0000
0000
0000
0000
0000
0000
0000
0000
0000
0000
0000
0000
0000
0000
0000
,
1000
0000
0000
0000
0000
0000
0000
0000
0000
0000
0000
0000
0000
0000
0000
0000
0101
0000
0000
0000
0000
0000
0000
0000
0020
0030
0000
0000
0000
0000
0000
0000
1000
0000
0000
0000
0000
0000
0000
0000
0020
0030
0000
0000
0000
0000
0000
0000
0101
0000
0000
0000
0000
0000
0000
0000
0000
0000
0000
0000
0000
0000
0000
0000
,
1000
0000
0000
0000
0000
0000
0000
0000
0000
0000
0000
0000
0101
0000
0000
0000
0000
0000
1000
0000
0000
0000
0000
0000
2012
3003
0000
0000
0000
0000
0000
0000
0000
0000
0000
0000
0101
0000
0000
0000
0000
0000
0000
0000
0000
0000
0000
0000
,
1000
0000
0000
0000
0000
0000
0000
0000
0000
0000
0000
0000
0000
0000
0000
0000
0101
0000
0000
0000
0000
0000
0000
0000
0020
0030
0000
0000
0000
0000
0000
0000
1000
0000
0000
0000
0000
0000
0000
0000
0020
0030
0000
0000
0000
0000
0000
0000
0101
0000
0000
0000
0000
0000
0000
0000
0000
0000
0000
0000
0000
0000
0000
0000
,
1000
0000
0000
0000
0000
0000
0000
0000
0000
0000
0000
0000
0000
0000
0000
0000
0101
0000
0000
0000
0000
0000
0000
0000
0002
0003
0000
0000
0000
0000
0000
0000
1002
0003
0000
0000
0000
0000
0000
0000
0000
0000
0000
0000
0000
0000
0000
0000
0101
0000
0000
0000
0000
0000
0000
0000
0000
0000
0000
0000
0000
0000
0000
0000
,
1000
0000
0000
0000
0000
0000
0000
0000
0000
0000
0000
0000
0000
0000
0000
0000
0101
0000
0000
0000
0000
0000
0000
0000
0020
0030
0000
0000
0000
0000
0000
0000
1000
0000
0000
0000
0000
0000
0000
0000
0020
0030
0000
0000
0000
0000
0000
0000
0101
0000
0000
0000
0000
0000
0000
0000
0000
0000
0000
0000
0000
0000
0000
0000
,
1000
0000
0000
0000
0000
0000
0000
0000
0000
0000
0000
0000
0000
0000
0000
0000
0101
0000
0000
0000
0000
0000
0000
0000
1020
0030
0000
0000
0000
0000
0000
0000
2102
0000
0000
0000
0000
0000
0000
0000
0000
0000
0000
0000
0000
0000
0000
0000
0010
0000
0000
0000
0000
0000
0000
0000
0000
0000
0000
0000
0000
0000
0000
0000
,
0100
0000
0000
0000
0000
0000
0000
0000
3003
0000
0000
0000
0000
0000
0000
0000
0101
0000
0000
0000
0000
0000
0000
0000
0020
0030
0000
0000
0000
0000
0000
0000
1000
0000
0000
0000
0000
0000
0000
0000
0020
0030
0000
0000
0000
0000
0000
0000
0101
0000
0000
0000
0000
0000
0000
0000
0000
0000
0000
0000
0000
0000
0000
0000
,
1000
0000
0000
0000
0000
0000
0000
0000
0002
0003
0000
0000
0000
0000
0000
0000
0201
0300
0000
0000
0000
0000
0000
0000
1000
0000
0000
0000
0000
0000
0000
0000
2102
0000
0000
0000
0000
0000
0000
0000
0000
0000
0000
0000
0000
0000
0000
0000
0010
0000
0000
0000
0000
0000
0000
0000
0100
0000
0000
0000
0000
0000
0000
0000
,
0100
0000
0000
0000
0000
0000
0000
0000
3003
0000
0000
0000
0000
0000
0000
0000
0101
0000
0000
0000
0000
0000
0000
0000
0020
0030
0000
0000
0000
0000
0000
0000
1000
0000
0000
0000
0000
0000
0000
0000
0020
0030
0000
0000
0000
0000
0000
0000
0101
0000
0000
0000
0000
0000
0000
0000
0000
0000
0000
0000
0000
0000
0000
0000
,
1000
1000
0101
1000
2012
0000
0010
0000
,
0100
0000
0000
0000
0000
0000
0000
0000
3003
0000
0000
0000
0000
0000
0000
0000
0101
0000
0000
0000
0000
0000
0000
0000
0020
0030
0000
0000
0000
0000
0000
0000
1000
0000
0000
0000
0000
0000
0000
0000
0020
0030
0000
0000
0000
0000
0000
0000
0101
0000
0000
0000
0000
0000
0000
0000
0000
0000
0000
0000
0000
0000
0000
0000
,
1000
1000
0101
1000
2012
0000
0010
0000
,
0100
0000
0000
0000
0000
0000
0000
0000
0000
0000
0000
0000
0000
0000
0000
0000
0000
0000
0000
0000
0000
0000
0000
0000
3003
0000
0000
0000
0000
0000
0000
0000
0000
0000
0000
0000
0000
0000
0000
0000
0000
0000
0000
0000
0000
0000
0000
0000
0101
0000
0000
0000
0000
0000
0000
0000
0000
0000
0000
0000
0000
0000
0000
0000
0000
0000
0000
0000
0000
0000
0000
0000
0020
0000
0000
0030
0000
0000
0000
0000
0000
0000
0000
0000
0000
0000
0000
0000
0000
0000
0000
0000
0000
0000
0000
0000
2202
0000
0000
0000
0000
0000
0000
0000
0000
0000
0000
0000
0000
0000
0000
0000
0000
0000
0000
0000
0000
0000
0000
0000
0000
0000
0000
0000
0000
0000
0000
0000
0000
0000
0000
0000
3303
0000
0000
0000
0000
0000
0000
0000
0000
0000
0000
0000
2012
0000
0000
0000
3003
0000
0000
0000
0000
0000
0000
0000
0000
0000
0000
0000
0000
0000
0000
0000
0000
0000
0000
0000
0000
0000
0000
0000
0000
0000
0000
0000
0000
0000
0000
0000
0000
0000
0000
0000
0000
0000
0000
0000
0000
0000
0000
0000
,
1001
0010
0100
1010
0100
1000
0022
0000
1033
0010
1000
0010
,
0101
1000
0010
1000
0010
1000
0010
1000
0010
1000
0010
1000
,
0101
0000
0000
0000
0010
0000
0000
0000
0001
0000
0000
0000
1000
0000
0000
0000
0100
0000
0000
0000
0010
0000
0000
0000
0202
0303
0000
0000
1000
0000
0000
0000
0010
0000
0000
0000
1000
0000
0000
0000
0010
0000
0000
0000
1000
0000
0000
0000
,
0101
1000
0010
1000
0010
1000
0010
1000
0010
1000
0010
1000
,
0101
0000
0000
0000
0000
0000
0000
0000
0000
0000
0000
0000
0000
0000
0000
0000
1000
0000
0000
0000
0000
0000
0000
0000
0100
0000
0000
0000
0000
0000
0000
0000
0010
0000
0000
0000
0000
0000
0000
0000
0000
0000
0000
0000
0000
0000
0000
0000
0001
0000
0000
0000
0000
0000
0000
0000
0000
0000
0000
0000
0000
0000
0000
0000
0010
0000
0000
0000
0000
0000
0000
0000
0000
0000
0000
0000
0000
0000
0000
0000
0100
0000
0000
0000
0000
0000
0000
0000
0000
0000
0000
0000
0000
0000
0000
0000
1002
0000
0000
0003
0000
0000
0000
0000
0000
0000
0000
0000
0000
0000
0000
0000
0100
0000
0000
0000
0000
0000
0000
0000
0000
0000
0000
0000
0000
0000
0000
0000
0001
0000
0000
0000
0000
0000
0000
0000
0000
0000
0000
0000
0000
0000
0000
0000
0100
0000
0000
0000
0000
0000
0000
0000
0000
0000
0000
0000
0000
0000
0000
0000
0001
0000
0000
0000
0000
0000
0000
0000
0000
0000
0000
0000
0000
0000
0000
0000
0100
0000
0000
0000
0000
0000
0000
0000
0000
0000
0000
0000
0000
0000
0000
0000
,
1010
0100
0001
0100
0001
0100
0001
0100
0001
0100
0001
0100
,
1010
0000
0000
0000
0000
0000
0000
0000
0000
0000
0000
0000
0000
0000
0000
0000
0100
0000
0000
0000
0000
0000
0000
0000
0000
0000
0000
0000
0000
0000
0000
0000
0001
0000
0000
0000
0000
0000
0000
0000
0000
0000
0000
0000
0000
0000
0000
0000
0100
0000
0000
0000
0000
0000
0000
0000
0000
0000
0000
0000
0000
0000
0000
0000
0001
0000
0000
0000
0000
0000
0000
0000
0000
0000
0000
0000
0000
0000
0000
0000
0100
0000
0000
0000
0000
0000
0000
0000
0000
0000
0000
0000
0000
0000
0000
0000
2010
0000
0000
3000
0000
0000
0000
0000
0000
0000
0000
0000
0000
0000
0000
0000
0100
0000
0000
0000
0000
0000
0000
0000
0000
0000
0000
0000
0000
0000
0000
0000
0010
0000
0000
0000
0000
0000
0000
0000
0000
0000
0000
0000
0000
0000
0000
0000
0001
0000
0000
0000
0000
0000
0000
0000
0000
0000
0000
0000
0000
0000
0000
0000
1000
0000
0000
0000
0000
0000
0000
0000
0000
0000
0000
0000
0000
0000
0000
0000
0100
0000
0000
0000
0000
0000
0000
0000
0000
0000
0000
0000
0000
0000
0000
0000
,
1001
0100
0010
0001
0100
0001
1010
0100
0010
0101
0010
0100
,
1001
0000
0000
0000
0010
0000
0100
0000
1000
0000
0000
0000
0101
0000
0000
0000
0010
0000
0000
0000
0100
0000
0000
0000
1002
0003
0000
0000
0010
0000
0000
0000
0100
0000
0000
0000
1002
0003
0000
0000
0010
0000
0000
0000
0100
0000
0000
0000
,
1012
0003
0000
0000
0100
0000
0000
0000
0010
0000
0000
0000
1002
0003
0000
0000
0010
0000
0000
0000
0100
0000
0000
0000
1002
0003
0000
0000
0010
0000
0000
0000
1000
0000
0000
0000
0102
0003
0000
0000
0010
0000
0000
0000
0100
0000
0000
0000
,
1012
0003
0000
0000
0100
0000
0000
0000
0010
0000
0000
0000
1002
0003
0000
0000
0010
0000
0000
0000
0100
0000
0000
0000
0012
0003
0000
0000
1000
0000
0000
0000
0100
0000
0000
0000
1002
0003
0000
0000
0010
0000
0000
0000
0100
0000
0000
0000
,
1012
0003
0000
0000
0100
0000
0000
0000
0010
0000
0000
0000
1002
0003
0000
0000
0100
0000
0000
0000
1000
0000
0000
0000
0012
0003
0000
0000
0100
0000
0000
0000
0010
0000
0000
0000
1002
0003
0000
0000
0010
0000
0000
0000
0100
0000
0000
0000
,
1012
0003
0000
0000
0100
0000
0000
0000
0010
0000
0000
0000
1002
0003
0000
0000
0100
0000
0000
0000
1000
0000
0000
0000
0012
0003
0000
0000
1000
0000
0000
0000
0100
0000
0000
0000
0012
0003
0000
0000
0100
0000
0000
0000
0010
0000
0000
0000
,
1102
0003
0000
0000
0010
0000
0000
0000
1000
0000
0000
0000
0012
0003
0000
0000
0100
0000
0000
0000
0010
0000
0000
0000
1002
0003
0000
0000
0100
0000
0000
0000
0010
0000
0000
0000
0102
0003
0000
0000
1000
0000
0000
0000
0010
0000
0000
0000
,
1002
0003
0000
0000
0100
0000
0000
0000
0010
0000
0000
0000
1002
0003
0000
0000
0010
0000
0000
0000
0100
0000
0000
0000
0012
0003
0000
0000
1000
0000
0000
0000
0100
0000
0000
0000
1002
0003
0000
0000
0100
0000
0000
0000
0010
0000
0000
0000
,
1102
0003
0000
0000
0010
0000
0000
0000
1000
0000
0000
0000
0012
0003
0000
0000
0100
0000
0000
0000
0010
0000
0000
0000
1002
0003
0000
0000
0100
0000
0000
0000
1000
0000
0000
0000
0102
0003
0000
0000
0010
0000
0000
0000
0100
0000
0000
0000
,
1002
0003
0000
0000
0100
0000
0000
0000
1000
0000
0000
0000
0022
0033
0000
0000
0100
0000
0000
0000
1000
0000
0000
0000
0012
0003
0000
0000
0100
0000
0000
0000
0010
0000
0000
0000
1002
0003
0000
0000
0010
0000
0000
0000
0100
0000
0000
0000
,
1012
0003
0000
0000
0100
0000
0000
0000
0010
0000
0000
0000
1002
0003
0000
0000
0010
0000
0000
0000
1000
0000
0000
0000
0102
0003
0000
0000
1000
0000
0000
0000
0010
0000
0000
0000
0102
0003
0000
0000
0010
0000
0000
0000
0100
0000
0000
0000
,
1012
0003
0000
0000
0100
0000
0000
0000
1000
0000
0000
0000
0012
0003
0000
0000
1000
0000
0000
0000
0010
0000
0000
0000
0102
0003
0000
0000
0010
0000
0000
0000
1000
0000
0000
0000
0102
0003
0000
0000
1000
0000
0000
0000
0010
0000
0000
0000
,
1102
0003
0000
0000
0010
0000
0000
0000
1000
0000
0000
0000
0012
0003
0000
0000
0100
0000
0000
0000
1000
0000
0000
0000
0102
0003
0000
0000
1000
0000
0000
0000
0010
0000
0000
0000
0102
0003
0000
0000
1000
0000
0000
0000
0100
0000
0000
0000
,
1012
0003
0000
0000
0100
0000
0000
0000
1000
0000
0000
0000
0012
0003
0000
0000
0100
0000
0000
0000
0010
0000
0000
0000
1002
0003
0000
0000
0010
0000
0000
0000
0100
0000
0000
0000
1002
0003
0000
0000
0100
0000
0000
0000
0010
0000
0000
0000
,
1102
0003
0000
0000
0010
0000
0000
0000
1000
0000
0000
0000
0012
0003
0000
0000
0100
0000
0000
0000
0010
0000
0000
0000
1002
0003
0000
0000
0100
0000
0000
0000
1000
0000
0000
0000
0102
0003
0000
0000
0010
0000
0000
0000
0100
0000
0000
0000
,
1002
0003
0000
0000
0010
0000
0000
0000
1000
0000
0000
0000
0012
0003
0000
0000
0100
0000
0000
0000
0010
0000
0000
0000
1002
0003
0000
0000
0100
0000
0000
0000
0010
0000
0000
0000
0102
0003
0000
0000
1000
0000
0000
0000
0010
0000
0000
0000
,
1102
0000
0000
0000
0003
0000
0000
0000
0000
0000
0000
0000
0000
0000
0000
0000
0010
0000
0000
0000
0000
0000
0000
0000
0000
0000
0000
0000
0000
0000
0000
0000
1000
0000
0000
0000
0000
0000
0000
0000
0000
0000
0000
0000
0000
0000
0000
0000
0102
0000
0000
0000
0003
0000
0000
0000
0000
0000
0000
0000
0000
0000
0000
0000
0010
0000
0000
0000
0000
0000
0000
0000
0000
0000
0000
0000
0000
0000
0000
0000
0100
0000
0000
0000
0000
0000
0000
0000
0000
0000
0000
0000
0000
0000
0000
0000
1001
0000
0000
0000
0000
0000
0000
0000
0000
0000
0000
0000
0000
0000
0000
0000
0000
0000
0100
0000
0000
0000
0000
0000
0001
0000
0000
0000
0000
0000
0010
0000
0000
0000
0000
0000
0000
0000
0000
0000
0000
0000
0000
0000
0000
0000
0000
0000
0001
0000
0000
0000
0000
0000
0000
0000
0000
0000
0000
0000
0000
0000
0000
0000
0010
0000
0000
0000
0000
0000
0000
0000
0000
0000
0000
0000
0000
0000
0000
0000
0100
0000
0000
0000
0000
0000
0000
0000
0000
0000
0000
0000
0000
0000
0000
0000
,
0011
0000
0100
0000
1010
0000
0000
0000
1100
0000
0000
0000
2001
0000
0000
0000
0000
0000
3002
0000
0000
0023
0000
0000
,
1130
0000
0000
0000
0000
0000
0000
0000
1000
0000
0000
0000
0000
0000
0000
0000
0100
0000
0000
0000
0000
0000
0000
0000
0010
0000
0000
0000
0000
0000
0000
0000
0002
0000
0000
0000
0000
0000
0000
0000
0013
0000
0000
0000
0101
0000
0000
0000
2000
0000
0000
0000
0000
0000
0000
0000
0200
0300
0000
0000
0000
0000
0000
0000
,
3200
0300
0000
0000
0000
0000
0000
0000
2000
0000
0000
0000
0000
0000
0000
0000
3100
0000
0000
0000
1000
0000
0000
0000
0010
0000
0000
0000
0000
0000
0000
0000
0002
0000
0000
0000
0000
0000
0000
0000
1003
0000
0000
0000
0100
0000
0000
0000
1000
0000
0000
0000
0000
0000
0000
0000
1000
0000
0000
0000
0000
0000
0000
0000
,
0110
0000
1000
0000
0100
0000
0010
0000
0200
0000
0000
1010
0302
0000
0023
0000
,
0100
0000
2030
0000
3200
1000
0320
0100
2031
0000
0000
0000
3001
0000
0010
0000
,
1100
0000
0000
0000
0000
0000
0000
0000
1000
0000
0000
0000
0000
0000
0000
0000
0010
0000
0000
0000
0000
0000
0000
0000
0100
0000
0000
0000
0000
0000
0000
0000
0002
0000
0000
0000
0000
0000
0000
0000
0013
0000
0000
0000
0101
0000
0000
0000
0020
0000
0000
0000
0000
0000
0000
0000
0200
0300
0000
0000
0000
0000
0000
0000
,
0230
0000
0000
0300
0000
0000
0000
0000
0000
0000
0000
0000
0000
0000
0000
0000
0000
0000
0000
0000
0000
0000
0000
0000
2000
0000
0000
0000
0000
0000
0000
0000
0000
0000
0000
0000
0000
0000
0000
0000
0000
0000
0000
0000
0000
0000
0000
0000
3200
0000
0000
0000
0000
0000
0000
0000
0000
0000
0000
0000
1000
0000
0000
0000
0000
0000
0000
0000
0000
0000
0000
0000
0320
0000
0000
0000
0000
0000
0000
0000
0000
0000
0000
0000
1000
0000
0000
0000
0000
0000
0000
0000
0000
0000
0000
0000
0132
0000
0000
0000
0000
0000
0000
0000
0000
0000
0000
0000
0000
0000
0000
0000
0000
0000
0000
0000
0000
0000
0000
0000
1003
0000
0000
0000
0000
0000
0000
0000
0010
0000
0000
0000
0000
0000
0000
0000
1000
0000
0000
0000
0000
0000
0000
0000
0011
0000
0000
0000
0000
0000
0000
0000
0000
0000
0000
0000
0000
0000
0000
0000
0000
0000
0000
0000
0000
0000
0000
0000
0110
0000
0000
0000
0000
0000
0000
0000
0000
0000
0000
0000
0000
0000
0000
0000
0000
0000
0000
0000
0000
0000
0000
0000
,
0000
0000
0000
0000
0000
0000
0000
0000
0000
0000
0000
0000
0000
0000
0000
0000
0000
0000
0000
0000
0000
0000
0000
0000
0002
0000
0000
0000
0000
0000
0000
0000
0000
0000
0000
0000
0000
0000
0000
0000
0000
0000
0000
0000
0000
0000
0000
0000
0013
0000
0000
0000
0000
0000
0000
0000
0100
0000
0000
0000
0000
0000
0000
0000
0010
0000
0000
0000
0000
0000
0000
0000
1100
0000
0000
0000
0000
0000
0000
0000
0000
0000
0000
0000
0000
0000
0000
0000
0000
0000
0000
0000
0000
0000
0000
0000
1100
0000
0000
0000
0000
0000
0000
0000
0000
0000
0000
0000
0000
0000
0000
0000
0000
0000
0000
0000
0000
0000
0000
0000
1000
0000
0000
0000
0000
0000
0000
0000
0000
0000
0000
0000
0000
0000
0000
0000
0000
0000
0000
0000
0000
0000
0000
0000
0200
0000
0000
0300
0000
0000
0000
0000
0000
0000
0000
0000
0020
0000
0000
0030
0000
0000
0000
0000
0000
0000
0000
0000
0002
0000
0000
0003
0000
0000
0000
0000
0000
0000
0000
0000
0000
0000
0000
0000
0000
0000
0000
0000
0000
0000
0000
0000
,
0011
0000
0000
0000
0100
0000
0000
0000
1010
0000
0000
0000
0000
0000
0000
0000
0001
0000
0000
0000
0000
0000
0000
0000
0101
0000
0000
0000
0000
0000
0000
0000
0020
0030
0000
0000
0000
0000
0000
0000
1000
0000
0000
0000
0000
0000
0000
0000
0020
0030
0000
0000
0000
0000
0000
0000
0101
0000
0000
0000
0000
0000
0000
0000
,
0020
0030
0000
0000
0000
0000
0000
0000
1000
0000
0000
0000
0000
0000
0000
0000
0000
0000
0000
0000
0000
0000
0000
0000
0101
0000
0000
0000
0000
0000
0000
0000
0000
0000
0000
0000
0000
0000
0000
0000
1000
0000
0000
0000
0000
0000
0000
0000
0000
0000
0000
0000
0000
0000
0000
0000
0101
0000
0000
0000
0000
0000
0000
0000
,
0020
0000
0000
0030
0000
0000
0000
0000
0000
0000
0000
0000
0000
0000
0000
0000
0000
0000
0000
0000
0000
0000
0000
0000
1020
0000
0000
0030
0000
0000
0000
0000
0000
0000
0000
0000
0000
0000
0000
0000
0000
0000
0000
0000
0000
0000
0000
0000
0000
0000
0000
0000
0000
0000
0000
0000
0000
0000
0000
0000
0000
0000
0000
0000
0000
0000
0000
0000
0000
0000
0000
0000
0101
0000
0000
0000
0000
0000
0000
0000
0000
0000
0000
0000
0000
0000
0000
0000
0000
0000
0000
0000
0000
0000
0000
0000
0020
0000
0000
0000
0030
0000
0000
0000
0000
0000
0000
0000
0000
0000
0000
0000
0000
0000
0000
0000
0000
0000
0000
0000
1000
0000
0000
0000
0000
0000
0000
0000
0000
0000
0000
0000
0000
0000
0000
0000
0000
0000
0000
0000
0000
0000
0000
0000
0020
0000
0000
0030
0000
0000
0000
0000
0000
0000
0000
0000
0000
0000
0000
0000
0000
0000
0000
0000
0000
0000
0000
0000
0101
0000
0000
0000
0000
0000
0000
0000
0000
0000
0000
0000
0000
0000
0000
0000
0000
0000
0000
0000
0000
0000
0000
0000
,
0020
0000
0000
0030
0000
0000
0000
0000
0000
0000
0000
0000
0000
0000
0000
0000
0000
0000
0000
0000
0000
0000
0000
0000
1000
0000
0000
0000
0000
0000
0000
0000
0000
0000
0000
0000
0000
0000
0000
0000
0000
0000
0000
0000
0000
0000
0000
0000
0000
0000
0000
0000
0000
0000
0000
0000
0000
0000
0000
0000
0000
0000
0000
0000
0000
0000
0000
0000
0000
0000
0000
0000
0101
0000
0000
0000
0000
0000
0000
0000
0000
0000
0000
0000
0000
0000
0000
0000
0000
0000
0000
0000
0000
0000
0000
0000
0020
0000
0000
0000
0030
0000
0000
0000
0000
0000
0000
0000
0200
0000
0000
0000
0300
0000
0000
0000
0000
0000
0000
0000
1020
0000
0000
0000
0030
0000
0000
0000
0000
0000
0000
0000
0000
0000
0000
0000
0000
0000
0000
0000
0000
0000
0000
0000
0020
0000
0000
0000
0030
0000
0000
0000
0000
0000
0000
0000
0000
0000
0000
0000
0000
0000
0000
0000
0000
0000
0000
0000
0101
0000
0000
0000
0000
0000
0000
0000
0000
0000
0000
0000
0000
0000
0000
0000
0000
0000
0000
0000
0000
0000
0000
0000
,
0012
0000
0000
0000
0003
0000
0000
0000
0000
0000
0000
0000
0000
0000
0000
0000
0000
0000
0000
0000
0000
0000
0000
0000
0201
0000
0000
0000
0300
0000
0000
0000
0000
0000
0000
0000
0000
0000
0000
0000
0000
0000
0000
0000
0000
0000
0000
0000
0000
0000
0000
0000
0000
0000
0000
0000
0000
0000
0000
0000
0000
0000
0000
0000
0000
0000
0000
0000
0000
0000
0000
0000
0101
0000
0000
0000
0000
0000
0000
0000
0000
0000
0000
0000
0000
0000
0000
0000
0000
0000
0000
0000
0000
0000
0000
0000
0020
0000
0000
0000
0030
0000
0000
0000
0000
0000
0000
0000
0000
0000
0000
0000
0000
0000
0000
0000
0000
0000
0000
0000
1000
0000
0000
0000
0000
0000
0000
0000
0000
0000
0000
0000
0000
0000
0000
0000
0000
0000
0000
0000
0000
0000
0000
0000
0020
0000
0000
0030
0000
0000
0000
0000
0000
0000
0000
0000
0000
0000
0000
0000
0000
0000
0000
0000
0000
0000
0000
0000
0101
0000
0000
0000
0000
0000
0000
0000
0000
0000
0000
0000
0000
0000
0000
0000
0000
0000
0000
0000
0000
0000
0000
0000
,
0020
0030
0000
0000
0000
0000
0000
0000
1000
0000
0000
0000
0000
0000
0000
0000
0000
0000
0000
0000
0000
0000
0000
0000
0101
0000
0000
0000
0000
0000
0000
0000
0000
0000
0000
0000
0000
0000
0000
0000
1000
0000
0000
0000
0000
0000
0000
0000
0000
0000
0000
0000
0000
0000
0000
0000
0101
0000
0000
0000
0000
0000
0000
0000
,
0020
0000
0000
0030
0000
0000
0000
0000
0000
0000
0000
0000
0000
0000
0000
0000
0000
0000
0000
0000
0000
0000
0000
0000
1020
0000
0000
0030
0000
0000
0000
0000
0000
0000
0000
0000
0000
0000
0000
0000
0000
0000
0000
0000
0000
0000
0000
0000
0000
0000
0000
0000
0000
0000
0000
0000
0000
0000
0000
0000
0000
0000
0000
0000
0000
0000
0000
0000
0000
0000
0000
0000
0101
0000
0000
0000
0000
0000
0000
0000
0000
0000
0000
0000
0000
0000
0000
0000
0000
0000
0000
0000
0000
0000
0000
0000
0020
0000
0000
0000
0030
0000
0000
0000
0000
0000
0000
0000
0000
0000
0000
0000
0000
0000
0000
0000
0000
0000
0000
0000
1000
0000
0000
0000
0000
0000
0000
0000
0000
0000
0000
0000
0000
0000
0000
0000
0000
0000
0000
0000
0000
0000
0000
0000
0020
0000
0000
0030
0000
0000
0000
0000
0000
0000
0000
0000
0000
0000
0000
0000
0000
0000
0000
0000
0000
0000
0000
0000
0101
0000
0000
0000
0000
0000
0000
0000
0000
0000
0000
0000
0000
0000
0000
0000
0000
0000
0000
0000
0000
0000
0000
0000
,
0000
0000
0000
1011
0000
0100
0000
0010
0000
0100
0000
1000
0000
0100
0000
0001
0000
0010
0000
0100
0000
0010
0000
0100
,
0000
0000
1000
0000
0000
0000
2022
0000
0000
0000
0000
0000
0000
0000
0000
0000
0000
0000
0000
0000
0000
0000
0000
0000
0000
0000
0000
3033
0000
0000
0102
0003
0000
0000
0000
0000
1000
0000
0000
0000
0000
0000
1002
0003
0000
0000
0000
0000
,
1000
0000
0000
0000
0000
0000
0002
0003
0000
0000
0000
0000
0000
0000
0000
0000
0000
0000
0002
0003
0000
0000
0000
0000
1000
0000
0000
1000
0000
0000
0102
0003
0000
0000
0000
0000
0000
0000
0000
0000
0000
0000
0002
0003
0000
0000
0000
0000
,
0000
0000
0000
0000
0000
0000
0012
0003
0000
0000
0000
0000
2120
0000
0000
0000
0000
0000
0002
0003
0000
0000
0000
0000
0000
0000
0000
0000
0000
0000
0102
0003
0000
3030
0000
0000
1000
0000
0000
0000
0000
0000
1002
0003
0000
0000
0000
0000
,
1000
0000
0000
0000
0000
0000
0002
0003
0000
0000
0000
0000
0000
0000
0000
0000
0000
0000
0002
0003
0000
0000
0000
0000
0000
0000
0000
0000
0000
0000
0102
0003
0000
0000
0000
0000
1000
0000
0000
0100
0000
0000
1002
0003
0000
0100
0000
0000
,
1000
0000
0000
0100
0000
0000
2022
0003
0000
0000
0000
0000
0000
0000
0000
0000
0000
0000
0002
0003
0000
0000
0000
0000
0000
0000
0000
0000
0000
0000
3132
0003
0000
0000
0000
0000
1000
0000
0000
0000
0000
0000
1002
0003
0000
0000
0000
0000
,
1000
0000
0000
0000
0000
0000
0002
0003
0000
0000
0000
0000
0000
0000
0000
0000
0000
0000
0002
0003
0000
0000
0000
0000
1000
0000
0000
1000
0000
0000
0102
0003
0000
0000
0000
0000
0000
0000
0000
0000
0000
0000
0002
0003
0000
0000
0000
0000
,
0000
0000
0000
0000
0000
0000
0012
0003
0000
0000
0000
0000
2120
0000
0000
0000
0000
0000
0002
0003
0000
0000
0000
0000
0000
0000
0000
0000
0000
0000
3132
0003
0000
0000
0000
0000
1000
0000
0000
0100
0000
0000
1002
0003
0000
0100
0000
0000
,
1000
0000
0000
0000
0000
0000
0000
0000
0000
0000
0000
0000
0100
0000
0000
0000
0000
0000
0000
0000
0000
0000
0000
0000
0012
0000
0000
0000
0003
0000
0000
0000
0000
0000
0000
0000
0000
0000
0000
0000
0000
0000
0000
0000
0000
0000
0000
0000
0010
0000
0000
0000
0000
0000
0000
0000
0000
0000
0000
0000
0000
0000
0000
0000
0000
0000
0000
0000
0000
0000
0000
0000
0012
0000
0000
0000
0003
0000
0000
0000
0000
0000
0000
0000
0000
0000
0000
0000
0000
0000
0000
0000
0000
0000
0000
0000
0010
0000
0000
0000
0000
0000
0000
0000
0000
0000
0000
0000
0000
0000
0000
0000
0000
0000
0000
0000
0000
0000
0000
0000
0101
0000
0000
0000
0000
0000
0010
0000
0000
0000
0000
0000
0000
0000
0000
0000
0000
0000
0000
0000
0000
0000
0000
0000
1001
0000
0000
0000
0000
0000
0000
0000
0000
0000
0000
0000
0000
0000
0000
0000
0000
0000
0000
0000
0000
0000
0000
0000
1010
0000
0000
0000
0000
0000
0000
0000
0000
0000
0000
0000
0000
0000
0000
0000
0000
0000
0000
0000
0000
0000
0000
0000
,
2202
0000
0000
0000
0000
0010
0010
3313
,
2022
0000
0000
0000
0000
0000
3133
2220
,
0000
0000
0000
0001
0001
3331
0222
0000
,
0000
0000
0000
0000
1333
1100
1100
1100
,
1100
1100
1100
1100
1010
1010
1010
1010
,
1010
1010
1010
0101
0101
0101
0101
0101
,
0101
0000
0000
0000
0000
0000
0101
0000
0000
0000
0000
0000
0011
0000
0000
0000
0000
0000
0011
0000
0000
0000
0000
0000
0011
0000
0000
0000
0000
0000
0011
0000
0000
0000
0000
0000
2001
3000
0000
0000
0000
0000
0201
0300
0000
0000
0000
0000
,
0021
0030
0000
0000
0000
0000
0000
0000
0000
0000
0000
0000
0000
0000
0000
0000
0000
0000
0000
0000
0000
0000
0000
0000
0000
0000
0000
0000
0000
0000
0000
0000
0000
0000
0000
0000
1101
0000
0000
0000
0000
0000
0010
0000
0000
0000
0000
0000
,
1000
0000
0200
0000
0011
0300
1100
0010
1100
0001
0110
0000
0001
0000
0010
0000
,
0100
0000
0000
1010
0000
0001
0000
0010
0000
0100
0000
0010
0000
1000
0000
0100
0000
0010
0000
0001
0000
1010
0000
0100
,
0000
0010
0000
0100
0000
0010
0000
0001
0000
0010
0000
0100
0000
1000
0000
0010
0000
0100
1001
0010
0001
0010
0100
1000
,
0001
0100
0001
0100
0010
1000
0101
1000
0010
0100
0010
0100
0001
0100
0010
1000
0100
0010
0101
1000
0100
0010
0100
0010
,
0001
0010
0100
1000
0100
0010
0100
1000
0100
0010
0100
0010
0001
0010
1000
0011
0100
0010
1000
0100
0010
0002
0000
0000
,
0000
0000
0000
0000
0000
0000
0000
0000
0000
1100
0000
0000
0013
0001
0010
0200
0000
0000
0320
0000
0000
0230
0000
0000
,
0302
0000
0023
0000
1230
0000
0320
0000
0230
0000
2300
0000
0000
3010
0100
0001
,
0100
0010
0100
1000
1001
0001
0100
0010
1000
0100
2000
0000
3000
1000
0010
0100
,
0001
0010
1001
0100
0020
0000
0032
0000
0000
0000
0000
0000
0103
0010
1001
0010
,
0100
0001
0010
0100
0010
1000
0010
0100
0001
0010
0001
0100
0011
1000
0200
0000
,
0301
0000
0000
0010
0000
0000
0100
0000
0000
0020
0000
0000
2030
0000
0000
0000
0000
0000
0000
0000
0100
3000
1000
0000
0100
0000
0010
0000
0100
0000
1000
0000
0001
0000
0010
0000
1100
0000
0000
0001
0000
0000
0010
0000
0000
0100
0000
0000
,
1000
0000
0000
0001
0000
0000
0010
0000
0000
0100
0000
0000
1000
0000
0000
0100
0000
0000
0001
0000
0000
0010
0000
0000
0100
0000
0000
1000
0000
0000
0101
0000
0000
0010
0000
0000
0100
0000
0000
1000
0000
0000
0100
0000
0010
0000
0001
0000
,
0010
0100
1000
0100
0010
0100
0010
0001
0010
0101
1000
0100
0010
0001
1000
0100
0010
0001
1000
0100
0010
0100
0010
0001
,
0010
0000
1000
0000
0100
0000
0010
0000
0100
0000
0010
0000
1001
0000
0100
0000
0010
0000
0100
0000
0010
0000
0001
0000
0010
0000
1000
0000
0100
0000
0010
0000
0100
0000
0010
0000
1001
0000
0000
0100
0000
0000
0010
0000
0000
1000
0000
0000
,
0101
0000
0000
1000
0000
0000
0010
0000
0000
0100
0000
0000
1001
0000
0100
0000
0010
0000
0001
0000
0010
0000
0100
0000
1001
0000
0010
0000
0100
0000
0001
0000
0100
0000
0010
0000
0001
0000
0000
1100
0000
0000
0010
0000
0000
1000
0000
0000
,
0101
0000
0000
0010
0000
0000
0100
0000
0000
1000
0000
0000
0100
0000
0000
0011
0000
0000
0100
0000
0000
0010
0000
0000
1002
0003
0000
0000
0000
0000
0000
0000
0000
0000
0000
0000
1010
0000
0000
0000
0000
0000
0000
0000
0000
0000
0000
0000
,
0011
0000
0000
0101
0000
0000
0000
0000
0000
0000
0000
0000
1000
0000
0100
0000
0010
0000
0100
0000
0010
0000
0001
0000
1010
0000
0100
0000
0010
0000
0100
0000
0010
0000
0001
0000
1000
0000
0100
0000
0010
0000
0100
0000
0010
0000
0001
0000
,
0110
1000
0100
0010
0100
0010
0001
0010
0100
1000
0100
0010
1001
0100
0010
1000
0010
0100
0001
0010
0100
1000
0100
0010
,
1001
0100
0010
1000
0010
0100
0001
0010
0100
1000
0100
0010
1001
0100
0010
1000
0010
0100
0001
0010
0100
1000
0100
0010
,
1001
0000
0100
0000
0010
0000
1000
0000
0010
0000
0100
0000
0001
0000
0000
0010
0000
0000
0100
0000
0000
0001
0000
0000
1010
0000
0000
0100
0000
0000
0010
0000
0000
0100
0000
0000
1000
0000
0000
0001
0000
0000
0010
0000
0000
0100
0000
0000
,
1010
0100
1000
0001
2010
0000
0000
0000
3011
1000
0100
0010
0002
0000
0000
0000
,
0110
1003
0010
0100
0020
0000
0000
0031
1010
0001
0100
0001
1000
0001
0100
0001
,
1010
0001
0100
0001
0020
0000
0000
0031
1010
0100
0020
0000
0000
0031
0100
0010
,
1100
0000
0000
0001
0000
0000
0010
0000
0000
0100
0000
0000
1000
0000
0100
0000
0010
0000
0001
0000
1000
0000
0100
0000
0011
0000
0100
0000
1000
0000
0001
0000
0010
0000
0100
0000
1001
0000
0100
0000
0010
0000
0001
0000
0100
0000
0010
0000
,
0101
0000
0010
0000
0100
0000
0001
0000
0010
0000
0100
0000
1002
0000
0000
0100
0000
0000
1000
0000
0000
0000
0000
0000
0110
0000
0000
0000
0000
0000
1000
0000
0000
0100
0000
0000
1000
0000
0000
0100
0000
0000
1000
0000
0000
0000
0000
0000
,
0110
0000
0000
0000
0010
1000
0100
1000
0110
0000
1000
0100
0000
1000
0100
0000
,
1013
0000
0000
0000
1000
0100
1000
0000
0101
0010
0000
1000
0100
1000
0100
0000
,
0101
0000
0000
0000
0010
1000
0100
1000
0101
0000
1000
0100
0000
1000
0100
0000
,
1002
0000
0000
0000
1103
0011
1100
0000
0011
1100
0000
0011
1100
0011
1100
0000
,
1001
0000
0000
0000
0000
0101
1010
0101
1010
0000
0011
1100
0000
0011
1100
0000
,
1001
0000
0000
0000
1011
0110
1001
0000
0110
1001
0000
0110
1011
0110
1001
0000
,
1101
0000
0000
0000
0011
1100
0011
0000
1100
0011
0000
1100
0011
1100
0011
0000
,
1001
0010
0100
0001
0010
0100
0010
0001
0010
0100
1000
0100
0010
0100
1000
0100
,
1001
0010
0100
0001
0010
0100
0010
0001
1010
0100
1000
0100
0010
0100
1000
0100
,
1001
0010
0100
0001
0010
0100
0010
0001
1010
0100
1000
0101
1010
0100
1000
0110
,
1001
1000
0100
0010
0001
1000
0010
0100
0011
1000
0100
0010
0001
0010
0100
1000
,
0101
0010
0100
0001
0010
0100
0010
0001
1010
0100
1000
0100
0010
0100
1000
0100
,
1001
0010
0100
0001
0010
0100
0010
0001
1010
0100
1000
0100
0010
0100
1000
0100
,
1001
0000
0000
0010
0000
0000
0100
0000
0000
0001
0000
0000
0010
0000
0000
0100
0000
0000
0010
0000
0000
0001
0000
0000
1010
0000
0000
0000
0100
0000
0000
0000
1010
0000
0000
0000
1001
0000
0000
0000
0010
0000
0000
0000
1100
0000
0000
0000
,
1002
0000
0000
1000
0000
0000
1000
0000
0110
1000
0000
0000
1000
0000
1000
1003
,
0001
0010
0100
1000
0100
0010
0001
0100
0010
1000
0010
0100
1001
0010
0100
0010
0100
1000
0001
0010
0100
1000
0100
1000
,
0020
0000
0000
1030
0100
1000
0021
0000
0000
1030
0100
1000
0020
0000
0000
1030
0100
1000
0021
0000
0000
1030
0100
1000
,
0002
0000
0000
0000
0000
0000
0013
0000
0100
0000
1000
0000
0101
0000
0010
0000
0100
0000
1000
0000
0100
0000
0010
0000
0002
0000
0000
0000
0000
0000
0000
0000
0000
0000
0000
0000
1010
0000
0000
0000
0000
0000
0100
0000
0000
1003
0000
0000
,
0010
0100
1000
0100
0011
0100
1000
0001
0100
1000
0010
1000
0110
0001
0010
1000
,
0001
0010
0100
1000
0100
0010
1001
0010
0100
1000
0100
1000
0100
0010
0001
0010
0100
1000
0101
0010
0100
1000
0100
0010
,
1001
0000
0100
0000
0010
0000
0101
0000
1000
0011
0100
0000
1000
0000
0100
0000
0010
0000
1001
0000
0010
0000
0001
0000
,
0010
0000
0001
0000
0010
0000
0100
0000
0000
1000
0000
0000
0011
0000
0000
0000
0100
0000
0000
0000
0001
0000
0000
0000
0010
0000
0000
0000
0100
0000
0000
0000
1000
0000
0000
0000
0101
0000
0000
0000
0010
0000
0000
0000
0100
0000
0000
0000
,
0002
0000
1100
0023
0000
0000
1131
2000
,
3011
0000
0000
0000
1100
0000
0000
0000
0002
0003
0000
0000
1000
0000
0000
0000
0002
0003
0000
0000
1000
0000
0000
0000
0011
0000
0000
0000
1100
0000
0000
0000
0020
0030
0000
0000
0100
0000
0000
0000
0020
0030
0000
0000
0100
0000
0000
0000
0002
0000
0000
0000
0023
0000
0000
0000
0230
0000
0000
0000
2300
0000
0000
0000
,
3100
1000
0100
1000
0100
0010
1001
0010
0100
1000
0100
0010
0100
0010
0001
0020
0000
0000
0131
1000
0100
0010
0100
0010
,
0002
0000
0000
0000
0000
0000
0113
0000
0000
2000
0000
0000
0001
0000
0000
0000
0000
0000
3011
0000
0100
0000
0010
0000
,
0001
1000
0010
1001
0100
0001
0010
1000
0010
1100
0001
0000
,
0010
0001
0010
0000
0100
0000
1001
0000
0100
0000
0010
0000
0001
0000
0100
0000
1000
0000
0101
0000
0010
0000
0100
0000
,
2022
0000
0000
0000
3133
0000
2022
0000
0000
0000
3133
0000
1011
0000
1000
0100
,
0010
0001
0100
0001
1010
0100
0010
0100
0001
1000
0100
0010
1001
0010
0100
1000
,
0002
0000
0000
0000
1023
0000
0230
0000
2300
0000
3002
0000
1010
0000
0103
1000
,
0001
0010
0100
1000
0101
0010
0100
0010
2000
0000
0000
0000
0101
0000
3000
0000
,
1001
1010
1100
0101
0110
1010
0011
0110
1100
1001
1010
1100
,
0110
0000
1000
0000
0110
0000
0001
0000
1000
0000
0100
0000
1010
0000
0100
1000
,
1000
0000
0000
0000
0000
0000
0010
0000
0000
0000
0000
0000
1100
0000
0000
0000
0000
0000
0001
0000
0000
0000
0000
0000
1000
0000
0000
0000
0000
0000
0100
0000
0000
0000
0000
0000
0011
0000
0000
0000
0000
0000
1020
0030
0000
0000
0000
0000
,
0102
0003
0000
0000
0000
0000
1000
0000
0000
0000
0000
0000
0110
0000
0000
0000
0000
0000
0001
0000
0000
0000
0000
0000
1000
0000
0000
0000
0000
0000
0100
0000
0000
0000
0000
0000
1010
0000
0000
0000
0000
0000
0100
0000
0000
0100
0000
0000
,
0010
0000
0000
1000
0000
0000
0110
0000
0000
0001
0000
0000
1001
0000
0000
0000
1010
0000
0000
0000
0021
0000
0000
0000
,
1032
0003
0000
0000
0000
0000
1000
0000
0000
0000
0000
0000
0110
0000
0000
0000
0000
0000
0001
0000
0000
0000
0000
0000
1000
0000
0000
0000
0000
0000
0100
0000
0000
0000
0000
0000
1010
0000
0000
0000
0000
0000
0100
0000
0000
0100
0000
0000
,
0100
0001
0110
0001
0100
0010
1001
0100
,
0011
0000
0000
0100
0000
0000
1001
0000
0000
0010
0000
0000
1000
0000
0000
0100
0000
0000
1010
0000
0000
0100
1000
0010
,
0100
0000
0012
0000
0100
0000
0010
0003
1101
0000
1001
0000
1010
0000
1100
0000
,
1011
0001
1001
0100
0100
0100
0110
1000
,
1000
0000
1000
0000
1010
0000
0100
0000
0100
0000
0100
0000
0101
0101
0010
0000
,
0110
0010
0011
0100
0100
0100
1100
0001
,
0001
0001
1001
0100
0100
0100
0110
1000
,
1100
0010
0010
0010
1010
0100
0100
0100
,
0101
0000
1000
0000
1000
0000
1000
0000
1100
1100
0001
0000
0101
0000
0001
0000
,
0011
0100
0100
0100
1100
0010
0010
0010
,
0110
0001
0001
0001
1001
1000
1010
0100
,
0100
0100
0110
0001
0001
0001
1001
0010
,
0010
0000
0010
0000
1010
1010
0100
0000
0101
0000
0100
0000
0110
0000
1000
0000
,
1000
1000
1100
0010
0010
0010
0110
0001
,
0001
0001
1010
0010
0110
1000
1000
1000
,
1100
0001
0001
0001
1001
0010
0010
0010
,
0110
0110
1000
0000
1010
0000
1000
0000
1001
0000
0010
0000
0010
0000
0010
0000
,
0110
0000
0000
1101
0000
0000
0000
0000
0000
0100
0000
0000
1110
0000
0000
0000
0000
0000
0001
1000
0010
0000
0100
0000
,
0010
0000
0000
0000
0000
0000
0000
0000
1000
0000
0000
0000
0000
0000
0000
0000
0100
0000
0000
0000
0000
0000
0000
0000
0000
0000
0000
0000
0000
0000
0000
0000
1000
0000
0000
0000
0000
0000
0000
0000
0000
0000
0000
0000
0000
0000
0000
0000
0012
0000
0000
0003
0000
0000
0000
0000
0000
0000
0000
0000
0000
0000
0000
0000
0100
0000
0000
0000
0000
0000
0000
0000
0000
0000
0000
0000
0000
0000
0000
0000
0001
0000
0000
0000
0000
0000
0000
0000
0000
0000
0000
0000
0000
0000
0000
0000
0100
0000
0000
0000
0000
0000
0000
0000
0000
0000
0000
0000
0000
0000
0000
0000
0001
0000
0000
0000
0000
0000
0000
0000
0000
0000
0000
0000
0000
0000
0000
0000
0100
0000
0000
0000
0000
0000
0000
0000
0000
0000
0000
0000
0000
0000
0000
0000
1010
0000
0000
0000
0000
0000
0000
0000
0000
0000
0000
0000
0000
0000
0000
0000
0100
0000
0000
0000
0000
0000
0000
0000
0000
0000
0000
0000
0000
0000
0000
0000
0001
0000
0000
0000
0000
0000
0000
0000
0000
0000
0000
0000
0000
0000
0000
0000
,
0100
0001
0100
0001
0100
0001
0100
0001
0100
1010
0100
1000
,
0001
0000
0000
0000
0010
0000
0000
0000
0100
0000
0000
0000
0021
0030
0000
0000
0100
0000
0000
0000
0010
0000
0000
0000
0100
0000
0000
0000
0010
0000
0000
0000
0100
0000
0000
0000
1001
0000
0000
0000
0100
0000
0000
0000
0010
0000
0000
0000
,
0100
0000
0010
0000
0100
0000
0010
0000
0100
0000
0010
0000
0100
0000
0010
0000
0100
0000
1001
0000
0100
0010
0001
0000
,
0010
0000
0000
0000
0100
0000
0000
0000
1000
0000
0000
0000
0012
0003
0000
0000
1000
0000
0000
0000
0001
0000
0000
0000
1000
0000
0000
0000
0001
0000
0000
0000
1000
0000
0000
0000
0101
0000
0000
0000
1000
0000
0000
0000
0001
0000
0000
0000
,
1000
0001
1000
0001
1000
0001
1000
0001
1000
0101
1000
0001
,
0100
0000
0000
0000
0001
0000
0000
0000
0010
0000
0000
0000
0201
0300
0000
0000
1000
0000
0000
0000
0100
0000
0000
0000
0010
0000
0000
0000
0100
0000
0000
0000
0010
0000
0000
0000
1001
0000
0000
0000
0010
0000
0000
0000
0100
0000
0000
0000
,
0010
0000
0100
0000
1000
0000
0001
0000
0100
0000
0010
0000
0001
0000
1000
0000
0010
0000
0101
0000
1000
0100
0010
0000
,
0001
0000
0000
0000
1000
0000
0000
0000
0100
0000
0000
0000
1002
0003
0000
0000
0010
0000
0000
0000
1000
0000
0000
0000
0012
0003
0000
0000
0100
0000
0000
0000
0010
0000
0000
0000
1102
0003
0000
0000
0010
0000
0000
0000
1000
0000
0000
0000
,
0102
0003
0000
0000
0010
0000
0000
0000
1000
0000
0000
0000
0012
0003
0000
0000
0100
0000
0000
0000
0010
0000
0000
0000
1002
0003
0000
0000
0100
0000
0000
0000
0010
0000
0000
0000
1102
0003
0000
0000
0010
0000
0000
0000
1000
0000
0000
0000
,
0102
0003
0000
0000
0010
0000
0000
0000
0100
0000
0000
0000
1002
0003
0000
0000
0010
0000
0000
0000
1000
0000
0000
0000
0012
0003
0000
0000
0100
0000
0000
0000
0010
0000
0000
0000
1102
0003
0000
0000
0010
0000
0000
0000
1000
0000
0000
0000
,
0102
0003
0000
0000
0010
0000
0000
0000
0100
0000
0000
0000
1002
0003
0000
0000
0010
0000
0000
0000
0100
0000
0000
0000
0012
0003
0000
0000
1000
0000
0000
0000
0100
0000
0000
0000
1012
0003
0000
0000
0100
0000
0000
0000
0010
0000
0000
0000
,
0102
0003
0000
0000
1000
0000
0000
0000
0100
0000
0000
0000
0022
0033
0000
0000
0100
0000
0000
0000
0010
0000
0000
0000
1002
0003
0000
0000
0010
0000
0000
0000
0100
0000
0000
0000
1012
0003
0000
0000
0100
0000
0000
0000
0010
0000
0000
0000
,
1002
0003
0000
0000
0100
0000
0000
0000
1000
0000
0000
0000
0012
0003
0000
0000
0100
0000
0000
0000
1000
0000
0000
0000
0012
0003
0000
0000
0100
0000
0000
0000
0010
0000
0000
0000
1102
0003
0000
0000
0010
0000
0000
0000
1000
0000
0000
0000
,
0102
0003
0000
0000
0010
0000
0000
0000
0100
0000
0000
0000
0012
0003
0000
0000
1000
0000
0000
0000
0100
0000
0000
0000
1002
0003
0000
0000
0010
0000
0000
0000
0100
0000
0000
0000
1012
0003
0000
0000
0100
0000
0000
0000
1000
0000
0000
0000
,
0102
0003
0000
0000
1000
0000
0000
0000
0010
0000
0000
0000
0102
0003
0000
0000
0010
0000
0000
0000
1000
0000
0000
0000
0102
0003
0000
0000
0010
0000
0000
0000
0100
0000
0000
0000
1012
0003
0000
0000
0100
0000
0000
0000
0010
0000
0000
0000
,
1202
0303
0000
0000
0010
0000
0000
0000
0100
0000
0000
0000
2002
3003
0000
0000
0010
0000
0000
0000
1000
0000
0000
0000
0012
0003
0000
0000
0100
0000
0000
0000
0010
0000
0000
0000
1102
0003
0000
0000
0010
0000
0000
0000
1000
0000
0000
0000
,
0102
0003
0000
0000
0010
0000
0000
0000
1000
0000
0000
0000
0102
0003
0000
0000
1000
0000
0000
0000
0010
0000
0000
0000
0102
0003
0000
0000
0010
0000
0000
0000
0100
0000
0000
0000
1012
0003
0000
0000
0100
0000
0000
0000
0010
0000
0000
0000
,
1002
0003
0000
0000
0100
0000
0000
0000
1000
0000
0000
0000
0012
0003
0000
0000
0100
0000
0000
0000
0010
0000
0000
0000
1002
0003
0000
0000
0100
0000
0000
0000
0010
0000
0000
0000
1102
0003
0000
0000
0010
0000
0000
0000
1000
0000
0000
0000
,
0012
0003
0000
0000
0100
0000
0000
0000
0010
0000
0000
0000
1002
0003
0000
0000
0100
0000
0000
0000
1000
0000
0000
0000
0102
0003
0000
0000
0010
0000
0000
0000
0100
0000
0000
0000
1012
0003
0000
0000
0100
0000
0000
0000
1000
0000
0000
0000
,
0012
0003
0000
0000
0100
0000
0000
0000
0010
0000
0000
0000
1202
0303
0000
0000
0010
0000
0000
0000
1000
0000
0000
0000
0102
0003
0000
0000
1000
0000
0000
0000
0010
0000
0000
0000
1102
0003
0000
0000
0010
0000
0000
0000
1000
0000
0000
0000
,
0102
0003
0000
0000
0010
0000
0000
0000
1000
0000
0000
0000
0012
0003
0000
0000
0100
0000
0000
0000
0010
0000
0000
0000
1002
0003
0000
0000
0100
0000
0000
0000
0010
0000
0000
0000
1102
0003
0000
0000
0010
0000
0000
0000
1000
0000
0000
0000
,
0102
0003
0000
0000
1000
0000
0000
0000
0010
0000
0000
0000
0102
0003
0000
0000
0010
0000
0000
0000
1000
0000
0000
0000
0102
0003
0000
0000
0010
0000
0000
0000
0100
0000
0000
0000
1012
0003
0000
0000
0100
0000
0000
0000
0010
0000
0000
0000
,
1002
0003
0000
0000
0010
0000
0000
0000
0100
0000
0000
0000
0012
0003
0000
0000
0100
0000
0000
0000
0010
0000
0000
0000
1002
0003
0000
0000
0010
0000
0000
0000
0100
0000
0000
0000
1010
0000
0000
0000
0000
0000
0000
0000
0101
0000
0000
0000
,
0001
0110
0000
1002
0000
1003
0011
0100
1000
0001
0100
0010
,
2000
3200
2300
3022
0033
0202
1303
0022
0033
2020
3030
2200
,
3301
2020
3030
0200
0000
0310
0101
0010
0100
0001
0100
0010
,
2000
3200
2300
3202
0303
0022
1033
0202
0303
2020
3030
2200
,
3301
2020
3030
0101
0000
0010
1001
0010
0100
0010
0000
0010
,
1001
0010
0100
0010
0000
0010
1001
0010
0100
0010
0100
0010
,
1002
0000
0000
0000
1023
0000
0000
0000
1230
0000
0000
0000
1302
0003
0000
0000
0100
0000
0000
0000
1000
0000
0000
0000
0011
0000
0000
0000
0100
0000
0000
0000
1000
0000
0000
0000
0001
0000
0000
0000
0010
0000
0000
0000
0100
0000
0000
0000
,
1001
0000
0100
0000
1000
0100
0022
0000
0000
0000
0133
0000
1001
0000
0010
0000
0100
0000
2002
0000
3003
0000
2002
0000
,
0000
3013
0100
1000
0000
0000
2001
0000
0000
0000
3010
0000
0101
0000
0010
0000
1000
0000
0001
0000
0010
0000
0100
0000
,
1010
0100
1000
0010
0001
0010
1100
0010
0100
0001
1000
0010
,
0101
0010
0100
2022
3033
1100
0000
1100
0000
1101
0000
1100
,
0000
1100
0000
2022
3033
1100
0000
1100
0000
1101
0000
1100
,
0000
1100
0000
2010
0000
3100
0000
0100
0000
0101
0010
0000
,
0100
0010
0100
2010
0000
3100
0000
0100
0000
1100
0010
0001
,
0100
0010
0001
2010
0000
3100
0000
0100
0000
0101
0010
0000
,
0100
0010
0100
2010
0000
3100
0000
0100
0000
1010
0100
0010
,
1000
0000
0000
0000
0100
0000
0000
0000
0021
0000
0000
0000
0000
0000
0000
0000
0000
0000
0000
0000
0000
0000
0000
0000
0000
0000
0000
0030
0000
0000
0000
0000
0000
0000
0000
0000
0000
0000
0000
0000
0000
0000
0000
0000
0000
0000
0000
0000
;

//---------------dance-single - ----------------
#NOTES:
     dance-single:
     :
     Challenge:
     11:
     1.000,1.000,1.000,1.000,1.000,2365.000,682.000,417.000,0.000,146.000:
0000
0000
0000
0000
,
0102
0003
0000
0000
1000
0000
0000
0000
0120
0030
0000
0000
0001
0000
0000
0000
2010
3000
0000
0000
0001
0000
0000
0000
0010
0000
0000
0000
0100
0000
0000
0000
,
1000
0000
0000
0000
0100
0000
0000
0000
1000
0000
0000
0000
0010
0000
0000
0000
0100
0000
0000
0000
1002
0003
0000
0000
0100
0000
0000
0000
1000
0000
0000
0000
,
0010
1000
0010
0001
0100
0001
0010
0100
,
0010
0000
0000
0000
2001
3000
0000
0000
0010
0000
0000
0000
0001
0000
0000
0000
0010
0000
0000
0000
1200
0300
0000
0000
0010
0000
0000
0000
0102
0003
0000
0000
,
1000
0100
0010
0001
0100
0001
0010
0100
,
1000
0000
0000
0100
0000
0000
1000
0000
0000
0010
0000
0000
0100
0000
0000
0001
0000
0000
1010
0000
1001
0100
1001
0000
,
0011
0000
0000
0000
0000
0000
0100
0000
0000
0000
0000
0000
2010
3000
0000
0000
0000
0000
0001
0000
0000
0000
0000
0000
0100
0000
0000
0000
0000
0000
0001
0000
0000
0000
0000
0000
2010
3000
0000
0000
0000
0000
0100
0000
0000
0000
0000
0000
,
1011
1100
1100
1100
1101
0020
0000
0000
,
1130
0001
1000
0010
0101
0010
1000
0001
0110
1000
0100
0010
1001
0100
0001
0100
,
0011
1000
0001
0100
1010
0100
0001
0010
1100
0010
0100
1000
0011
0100
0001
1000
,
0110
1000
0001
1000
0011
0100
0001
1000
0110
0001
1000
0100
0011
0100
0001
1000
,
0110
1000
0001
0100
0011
0100
0001
0010
1100
0010
0100
0010
1101
0010
0100
0010
,
1001
0100
0010
0001
0110
1000
0001
0100
0011
0100
0010
1000
0110
0001
1000
0001
,
1010
0100
0001
1000
0101
0010
0001
0100
1010
0100
0010
1000
0011
1000
0001
0100
,
0011
0100
0001
1000
0110
1000
0001
0100
1001
0010
0100
0010
0101
1000
0010
0100
,
0011
1000
0001
0100
1010
0100
0010
0100
1001
0000
0101
0000
0000
0000
0000
0000
,
1002
0103
0010
1100
0010
0001
1000
0100
,
1010
0000
0000
0000
0012
0000
0000
0000
0103
0000
0000
0000
0010
0000
0000
0000
1100
0000
0000
0000
0010
0000
0000
0000
0001
0000
0000
0000
1010
0001
0000
0000
,
0210
0300
0000
0000
0000
0000
0021
0030
0000
0000
0000
0000
2002
3000
0000
0000
0000
0000
0103
0000
0000
0000
0000
0000
0010
0000
0000
0000
0000
0000
1100
0000
0000
0000
0000
0000
0010
0000
0000
0000
0000
0000
0001
0000
0000
0000
0000
0000
,
1000
0100
1010
1002
0103
0010
1100
0010
,
0001
0000
0000
0000
0000
0000
0000
0000
0000
0000
0000
0000
0000
0000
0000
0000
0000
0000
0000
0000
0000
0000
0000
0000
0020
0000
0000
0000
0000
0000
0000
0000
0000
0000
0000
0000
0000
0000
0000
0000
0000
0000
0000
0000
0000
0000
0000
0000
1030
0000
0000
0000
0000
0000
0000
0000
0000
0000
0000
0000
0000
0000
0000
0000
0000
0000
0000
0000
0000
0000
0000
0000
0100
0000
0000
0000
0000
0000
0000
0000
0000
0000
0000
0000
0000
0000
0000
0000
0000
0000
0000
0000
0000
0000
0000
0000
1001
0000
0000
0000
0000
0000
0000
0000
0000
0000
0000
0000
0000
0000
0000
0000
0000
0000
0000
0000
0000
0000
0000
0000
0010
0000
0000
0000
0000
0000
0000
0000
0000
0000
0000
0000
0000
0000
0000
0000
0000
0000
0000
0000
0000
0000
0000
0000
0101
0000
0000
0000
0000
0000
1000
0000
0000
0000
0000
0000
0000
0000
0000
0000
0000
0000
0000
0000
0000
0000
0000
0000
0012
0000
0000
0000
0003
0000
0000
0000
0000
0000
0000
0000
0000
0000
0000
0000
0000
0000
0000
0000
0000
0000
0000
0000
,
0120
0030
0000
0000
0000
0000
1200
0300
0000
0000
0000
0000
2002
3000
0000
0000
0000
0000
0103
0000
0000
0000
0000
0000
0010
0000
0000
0000
0000
0000
1100
0000
0000
0000
0000
0000
0010
0000
0000
0000
0000
0000
0001
0000
0000
0000
0000
0000
,
1000
0100
1010
0102
0103
1010
0100
0010
,
0001
0000
0110
0000
0011
1100
0011
1100
0012
0000
0103
0000
0010
0000
1100
0000
,
0010
0001
1000
0100
1010
1002
0103
0010
,
1100
0000
0000
0000
0010
0000
0000
0000
0001
0000
0000
0000
1100
0001
0000
0000
0110
0000
0000
0000
1100
0001
0000
0000
0110
0000
0000
0000
1100
0001
0000
0000
,
0110
1010
0101
1010
1101
0000
0101
0000
,
1000
0000
0000
0000
0000
0000
0000
0000
0000
0000
0000
0000
0000
0000
0000
0000
0101
0000
0000
0000
0000
0000
0000
0000
0020
0030
0000
0000
0000
0000
0000
0000
1000
0000
0000
0000
0000
0000
0000
0000
0020
0030
0000
0000
0000
0000
0000
0000
0101
0000
0000
0000
0000
0000
0000
0000
0000
0000
0000
0000
0000
0000
0000
0000
,
1000
0000
0000
0000
0000
0000
0000
0000
0000
0000
0000
0000
0000
0000
0000
0000
0101
0000
0000
0000
0000
0000
0000
0000
1000
0000
0000
0000
0000
0000
0000
0000
1002
0003
0000
0000
0000
0000
0000
0000
0000
0000
0000
0000
0000
0000
0000
0000
0101
0000
0000
0000
0000
0000
0000
0000
0000
0000
0000
0000
0000
0000
0000
0000
,
1000
0000
0000
0000
0000
0000
0000
0000
0000
0000
0000
0000
0000
0000
0000
0000
0101
0000
0000
0000
0000
0000
0000
0000
0020
0030
0000
0000
0000
0000
0000
0000
1000
0000
0000
0000
0000
0000
0000
0000
0020
0030
0000
0000
0000
0000
0000
0000
0101
0000
0000
0000
0000
0000
0000
0000
0000
0000
0000
0000
0000
0000
0000
0000
,
1000
0000
0000
0000
0000
0000
0000
0000
0000
0000
0000
0000
0101
0000
0000
0000
0000
0000
1000
0000
0000
0000
0000
0000
2012
3003
0000
0000
0000
0000
0000
0000
0000
0000
0000
0000
0101
0000
0000
0000
0000
0000
0000
0000
0000
0000
0000
0000
,
1000
0000
0000
0000
0000
0000
0000
0000
0000
0000
0000
0000
0000
0000
0000
0000
0101
0000
0000
0000
0000
0000
0000
0000
0020
0030
0000
0000
0000
0000
0000
0000
1000
0000
0000
0000
0000
0000
0000
0000
0020
0030
0000
0000
0000
0000
0000
0000
0101
0000
0000
0000
0000
0000
0000
0000
0000
0000
0000
0000
0000
0000
0000
0000
,
1000
0000
0000
0000
0000
0000
0000
0000
0000
0000
0000
0000
0000
0000
0000
0000
0101
0000
0000
0000
0000
0000
0000
0000
0002
0003
0000
0000
0000
0000
0000
0000
1002
0003
0000
0000
0000
0000
0000
0000
0000
0000
0000
0000
0000
0000
0000
0000
0101
0000
0000
0000
0000
0000
0000
0000
0000
0000
0000
0000
0000
0000
0000
0000
,
1000
0000
0000
0000
0000
0000
0000
0000
0000
0000
0000
0000
0000
0000
0000
0000
0101
0000
0000
0000
0000
0000
0000
0000
0020
0030
0000
0000
0000
0000
0000
0000
1000
0000
0000
0000
0000
0000
0000
0000
0020
0030
0000
0000
0000
0000
0000
0000
0101
0000
0000
0000
0000
0000
0000
0000
0000
0000
0000
0000
0000
0000
0000
0000
,
1000
0000
0000
0000
0000
0000
0000
0000
0000
0000
0000
0000
0000
0000
0000
0000
0101
0000
0000
0000
0000
0000
0000
0000
1020
0030
0000
0000
0000
0000
0000
0000
2102
0000
0000
0000
0000
0000
0000
0000
0000
0000
0000
0000
0000
0000
0000
0000
0010
0000
0000
0000
0000
0000
0000
0000
0000
0000
0000
0000
0000
0000
0000
0000
,
0100
0000
0000
0000
0000
0000
0000
0000
3003
0000
0000
0000
0000
0000
0000
0000
0101
0000
0000
0000
0000
0000
0000
0000
0020
0030
0000
0000
0000
0000
0000
0000
1000
0000
0000
0000
0000
0000
0000
0000
0020
0030
0000
0000
0000
0000
0000
0000
0101
0000
0000
0000
0000
0000
0000
0000
0000
0000
0000
0000
0000
0000
0000
0000
,
1000
0000
0000
0000
0000
0000
0000
0000
0002
0003
0000
0000
0000
0000
0000
0000
0201
0300
0000
0000
0000
0000
0000
0000
1000
0000
0000
0000
0000
0000
0000
0000
2102
0000
0000
0000
0000
0000
0000
0000
0000
0000
0000
0000
0000
0000
0000
0000
0010
0000
0000
0000
0000
0000
0000
0000
0100
0000
0000
0000
0000
0000
0000
0000
,
0100
0000
0000
0000
0000
0000
0000
0000
3003
0000
0000
0000
0000
0000
0000
0000
0101
0000
0000
0000
0000
0000
0000
0000
0020
0030
0000
0000
0000
0000
0000
0000
1000
0000
0000
0000
0000
0000
0000
0000
0020
0030
0000
0000
0000
0000
0000
0000
0101
0000
0000
0000
0000
0000
0000
0000
0000
0000
0000
0000
0000
0000
0000
0000
,
1000
1000
0101
1000
2012
0000
0010
0000
,
0100
0000
0000
0000
0000
0000
0000
0000
3003
0000
0000
0000
0000
0000
0000
0000
0101
0000
0000
0000
0000
0000
0000
0000
0020
0030
0000
0000
0000
0000
0000
0000
1000
0000
0000
0000
0000
0000
0000
0000
0020
0030
0000
0000
0000
0000
0000
0000
0101
0000
0000
0000
0000
0000
0000
0000
0000
0000
0000
0000
0000
0000
0000
0000
,
1000
1000
0101
1000
2012
0000
0010
0000
,
0100
0000
0000
0000
0000
0000
0000
0000
0000
0000
0000
0000
0000
0000
0000
0000
0000
0000
0000
0000
0000
0000
0000
0000
3003
0000
0000
0000
0000
0000
0000
0000
0000
0000
0000
0000
0000
0000
0000
0000
0000
0000
0000
0000
0000
0000
0000
0000
0101
0000
0000
0000
0000
0000
0000
0000
0000
0000
0000
0000
0000
0000
0000
0000
0000
0000
0000
0000
0000
0000
0000
0000
0020
0000
0000
0030
0000
0000
0000
0000
0000
0000
0000
0000
0000
0000
0000
0000
0000
0000
0000
0000
0000
0000
0000
0000
2202
0000
0000
0000
0000
0000
0000
0000
0000
0000
0000
0000
0000
0000
0000
0000
0000
0000
0000
0000
0000
0000
0000
0000
0000
0000
0000
0000
0000
0000
0000
0000
0000
0000
0000
0000
3303
0000
0000
0000
0000
0000
0000
0000
0000
0000
0000
0000
2012
0000
0000
0000
3003
0000
0000
0000
0000
0000
0000
0000
0000
0000
0000
0000
0000
0000
0000
0000
0000
0000
0000
0000
0000
0000
0000
0000
0000
0000
0000
0000
0000
0000
0000
0000
0000
0000
0000
0000
0000
0000
0000
0000
0000
0000
0000
0000
,
1001
0010
0100
1010
0100
1000
0022
0000
1033
1000
1000
1000
,
1001
1000
1000
1000
1000
1000
1000
1000
1000
1000
1000
1000
,
0101
0000
0000
0000
0010
0000
0000
0000
0001
0000
0000
0000
1000
0000
0000
0000
0100
0000
0000
0000
0010
0000
0000
0000
0202
0303
0000
0000
0010
0000
0000
0000
0010
0000
0000
0000
0010
0000
0000
0000
0010
0000
0000
0000
0010
0000
0000
0000
,
0110
0010
0010
0010
0010
0010
0010
0010
0010
0010
0010
0010
,
0101
0000
0000
0000
0000
0000
0000
0000
0000
0000
0000
0000
0000
0000
0000
0000
1000
0000
0000
0000
0000
0000
0000
0000
0100
0000
0000
0000
0000
0000
0000
0000
0010
0000
0000
0000
0000
0000
0000
0000
0000
0000
0000
0000
0000
0000
0000
0000
0001
0000
0000
0000
0000
0000
0000
0000
0000
0000
0000
0000
0000
0000
0000
0000
0010
0000
0000
0000
0000
0000
0000
0000
0000
0000
0000
0000
0000
0000
0000
0000
0100
0000
0000
0000
0000
0000
0000
0000
0000
0000
0000
0000
0000
0000
0000
0000
1002
0000
0000
0003
0000
0000
0000
0000
0000
0000
0000
0000
0000
0000
0000
0000
0100
0000
0000
0000
0000
0000
0000
0000
0000
0000
0000
0000
0000
0000
0000
0000
0100
0000
0000
0000
0000
0000
0000
0000
0000
0000
0000
0000
0000
0000
0000
0000
0100
0000
0000
0000
0000
0000
0000
0000
0000
0000
0000
0000
0000
0000
0000
0000
0100
0000
0000
0000
0000
0000
0000
0000
0000
0000
0000
0000
0000
0000
0000
0000
0100
0000
0000
0000
0000
0000
0000
0000
0000
0000
0000
0000
0000
0000
0000
0000
,
1100
0100
0100
0100
0100
0100
0100
0100
0100
0100
0100
0100
,
1010
0000
0000
0000
0000
0000
0000
0000
0000
0000
0000
0000
0000
0000
0000
0000
0001
0000
0000
0000
0000
0000
0000
0000
0000
0000
0000
0000
0000
0000
0000
0000
0001
0000
0000
0000
0000
0000
0000
0000
0000
0000
0000
0000
0000
0000
0000
0000
0001
0000
0000
0000
0000
0000
0000
0000
0000
0000
0000
0000
0000
0000
0000
0000
0001
0000
0000
0000
0000
0000
0000
0000
0000
0000
0000
0000
0000
0000
0000
0000
0001
0000
0000
0000
0000
0000
0000
0000
0000
0000
0000
0000
0000
0000
0000
0000
2010
0000
0000
3000
0000
0000
0000
0000
0000
0000
0000
0000
0000
0000
0000
0000
0100
0000
0000
0000
0000
0000
0000
0000
0000
0000
0000
0000
0000
0000
0000
0000
0010
0000
0000
0000
0000
0000
0000
0000
0000
0000
0000
0000
0000
0000
0000
0000
0001
0000
0000
0000
0000
0000
0000
0000
0000
0000
0000
0000
0000
0000
0000
0000
1000
0000
0000
0000
0000
0000
0000
0000
0000
0000
0000
0000
0000
0000
0000
0000
0100
0000
0000
0000
0000
0000
0000
0000
0000
0000
0000
0000
0000
0000
0000
0000
,
1001
0100
0010
0001
0100
0001
1010
0100
0010
0101
0010
0100
,
1001
0000
0000
0000
0010
0000
0100
0000
1000
0000
0000
0000
0101
0000
0000
0000
0010
0000
0000
0000
0100
0000
0000
0000
1002
0003
0000
0000
1000
0000
0000
0000
1000
0000
0000
0000
1002
0003
0000
0000
1000
0000
0000
0000
1000
0000
0000
0000
,
1012
0003
0000
0000
1000
0000
0000
0000
1000
0000
0000
0000
1002
0003
0000
0000
1000
0000
0000
0000
1000
0000
0000
0000
1002
0003
0000
0000
1000
0000
0000
0000
1000
0000
0000
0000
1002
0003
0000
0000
1000
0000
0000
0000
1000
0000
0000
0000
,
1012
0003
0000
0000
1000
0000
0000
0000
1000
0000
0000
0000
1002
0003
0000
0000
1000
0000
0000
0000
1000
0000
0000
0000
1002
0003
0000
0000
1000
0000
0000
0000
1000
0000
0000
0000
1002
0003
0000
0000
1000
0000
0000
0000
1000
0000
0000
0000
,
1012
0003
0000
0000
1000
0000
0000
0000
1000
0000
0000
0000
1002
0003
0000
0000
1000
0000
0000
0000
1000
0000
0000
0000
1002
0003
0000
0000
1000
0000
0000
0000
1000
0000
0000
0000
1002
0003
0000
0000
1000
0000
0000
0000
1000
0000
0000
0000
,
1012
0003
0000
0000
1000
0000
0000
0000
1000
0000
0000
0000
1002
0003
0000
0000
1000
0000
0000
0000
1000
0000
0000
0000
1002
0003
0000
0000
1000
0000
0000
0000
1000
0000
0000
0000
1002
0003
0000
0000
1000
0000
0000
0000
1000
0000
0000
0000
,
1012
0003
0000
0000
1000
0000
0000
0000
1000
0000
0000
0000
1002
0003
0000
0000
1000
0000
0000
0000
1000
0000
0000
0000
1002
0003
0000
0000
1000
0000
0000
0000
1000
0000
0000
0000
1002
0003
0000
0000
1000
0000
0000
0000
1000
0000
0000
0000
,
1012
0003
0000
0000
1000
0000
0000
0000
1000
0000
0000
0000
1002
0003
0000
0000
1000
0000
0000
0000
1000
0000
0000
0000
1002
0003
0000
0000
1000
0000
0000
0000
1000
0000
0000
0000
1002
0003
0000
0000
1000
0000
0000
0000
1000
0000
0000
0000
,
1012
0003
0000
0000
1000
0000
0000
0000
1000
0000
0000
0000
1002
0003
0000
0000
1000
0000
0000
0000
1000
0000
0000
0000
1002
0003
0000
0000
1000
0000
0000
0000
1000
0000
0000
0000
1002
0003
0000
0000
1000
0000
0000
0000
1000
0000
0000
0000
,
1012
0003
0000
0000
1000
0000
0000
0000
1000
0000
0000
0000
1202
0303
0000
0000
1000
0000
0000
0000
1000
0000
0000
0000
1002
0003
0000
0000
1000
0000
0000
0000
1000
0000
0000
0000
1002
0003
0000
0000
1000
0000
0000
0000
1000
0000
0000
0000
,
1012
0003
0000
0000
1000
0000
0000
0000
1000
0000
0000
0000
1002
0003
0000
0000
1000
0000
0000
0000
1000
0000
0000
0000
1002
0003
0000
0000
1000
0000
0000
0000
1000
0000
0000
0000
1002
0003
0000
0000
1000
0000
0000
0000
1000
0000
0000
0000
,
1012
0003
0000
0000
1000
0000
0000
0000
1000
0000
0000
0000
1002
0003
0000
0000
1000
0000
0000
0000
1000
0000
0000
0000
1002
0003
0000
0000
1000
0000
0000
0000
1000
0000
0000
0000
1002
0003
0000
0000
1000
0000
0000
0000
1000
0000
0000
0000
,
1012
0003
0000
0000
1000
0000
0000
0000
1000
0000
0000
0000
1002
0003
0000
0000
1000
0000
0000
0000
1000
0000
0000
0000
1002
0003
0000
0000
1000
0000
0000
0000
1000
0000
0000
0000
1002
0003
0000
0000
1000
0000
0000
0000
1000
0000
0000
0000
,
1012
0003
0000
0000
1000
0000
0000
0000
1000
0000
0000
0000
1002
0003
0000
0000
1000
0000
0000
0000
1000
0000
0000
0000
1002
0003
0000
0000
1000
0000
0000
0000
1000
0000
0000
0000
1002
0003
0000
0000
1000
0000
0000
0000
1000
0000
0000
0000
,
1012
0003
0000
0000
1000
0000
0000
0000
1000
0000
0000
0000
1002
0003
0000
0000
1000
0000
0000
0000
1000
0000
0000
0000
1002
0003
0000
0000
1000
0000
0000
0000
1000
0000
0000
0000
1002
0003
0000
0000
1000
0000
0000
0000
1000
0000
0000
0000
,
1012
0003
0000
0000
1000
0000
0000
0000
1000
0000
0000
0000
1002
0003
0000
0000
1000
0000
0000
0000
1000
0000
0000
0000
1002
0003
0000
0000
1000
0000
0000
0000
1000
0000
0000
0000
1002
0003
0000
0000
1000
0000
0000
0000
1000
0000
0000
0000
,
1012
0000
0000
0000
0003
0000
0000
0000
0000
0000
0000
0000
0000
0000
0000
0000
1000
0000
0000
0000
0000
0000
0000
0000
0000
0000
0000
0000
0000
0000
0000
0000
1000
0000
0000
0000
0000
0000
0000
0000
0000
0000
0000
0000
0000
0000
0000
0000
1002
0000
0000
0000
0003
0000
0000
0000
0000
0000
0000
0000
0000
0000
0000
0000
1000
0000
0000
0000
0000
0000
0000
0000
0000
0000
0000
0000
0000
0000
0000
0000
1000
0000
0000
0000
0000
0000
0000
0000
0000
0000
0000
0000
0000
0000
0000
0000
1001
0000
0000
0000
0000
0000
0000
0000
0000
0000
0000
0000
0000
0000
0000
0000
0000
0000
0100
0000
0000
0000
0000
0000
0001
0000
0000
0000
0000
0000
0010
0000
0000
0000
0000
0000
0000
0000
0000
0000
0000
0000
0000
0000
0000
0000
0000
0000
0001
0000
0000
0000
0000
0000
0000
0000
0000
0000
0000
0000
0000
0000
0000
0000
0010
0000
0000
0000
0000
0000
0000
0000
0000
0000
0000
0000
0000
0000
0000
0000
0100
0000
0000
0000
0000
0000
0000
0000
0000
0000
0000
0000
0000
0000
0000
0000
,
0011
0000
0100
0000
1010
0000
0000
0000
1100
0000
0000
0000
2001
0000
0000
0000
0000
0000
3002
0000
0000
0023
0000
0000
,
1130
0000
0000
0000
0000
0000
0000
0000
1000
0000
0000
0000
0000
0000
0000
0000
0100
0000
0000
0000
0000
0000
0000
0000
0010
0000
0000
0000
0000
0000
0000
0000
0002
0000
0000
0000
0000
0000
0000
0000
0013
0000
0000
0000
0101
0000
0000
0000
2000
0000
0000
0000
0000
0000
0000
0000
0200
0300
0000
0000
0000
0000
0000
0000
,
3200
0300
0000
0000
0000
0000
0000
0000
2000
0000
0000
0000
0000
0000
0000
0000
3101
0000
0000
0000
1100
0000
0000
0000
0010
0000
0000
0000
0000
0000
0000
0000
0002
0000
0000
0000
0000
0000
0000
0000
1003
0000
0000
0000
1000
0000
0000
0000
1000
0000
0000
0000
0000
0000
0000
0000
1000
0000
0000
0000
0000
0000
0000
0000
,
0110
0000
1000
0000
0100
0000
0010
0000
0200
0000
0000
1010
0302
0000
0023
0000
,
0100
0000
2030
0000
3201
1010
0321
1100
2031
0000
0000
0000
3001
0000
0010
0000
,
1100
0000
0000
0000
0000
0000
0000
0000
1000
0000
0000
0000
0000
0000
0000
0000
0010
0000
0000
0000
0000
0000
0000
0000
0100
0000
0000
0000
0000
0000
0000
0000
0002
0000
0000
0000
0000
0000
0000
0000
0013
0000
0000
0000
0101
0000
0000
0000
0020
0000
0000
0000
0000
0000
0000
0000
0200
0300
0000
0000
0000
0000
0000
0000
,
0230
0000
0000
0300
0000
0000
0000
0000
0000
0000
0000
0000
0000
0000
0000
0000
0000
0000
0000
0000
0000
0000
0000
0000
2000
0000
0000
0000
0000
0000
0000
0000
0000
0000
0000
0000
0000
0000
0000
0000
0000
0000
0000
0000
0000
0000
0000
0000
3201
0000
0000
0000
0000
0000
0000
0000
0000
0000
0000
0000
1010
0000
0000
0000
0000
0000
0000
0000
0000
0000
0000
0000
0321
0000
0000
0000
0000
0000
0000
0000
0000
0000
0000
0000
1100
0000
0000
0000
0000
0000
0000
0000
0000
0000
0000
0000
0132
0000
0000
0000
0000
0000
0000
0000
0000
0000
0000
0000
0000
0000
0000
0000
0000
0000
0000
0000
0000
0000
0000
0000
1003
0000
0000
0000
0000
0000
0000
0000
0010
0000
0000
0000
0000
0000
0000
0000
1000
0000
0000
0000
0000
0000
0000
0000
0011
0000
0000
0000
0000
0000
0000
0000
0000
0000
0000
0000
0000
0000
0000
0000
0000
0000
0000
0000
0000
0000
0000
0000
0110
0000
0000
0000
0000
0000
0000
0000
0000
0000
0000
0000
0000
0000
0000
0000
0000
0000
0000
0000
0000
0000
0000
0000
,
0000
0000
0000
0000
0000
0000
0000
0000
0000
0000
0000
0000
0000
0000
0000
0000
0000
0000
0000
0000
0000
0000
0000
0000
0002
0000
0000
0000
0000
0000
0000
0000
0000
0000
0000
0000
0000
0000
0000
0000
0000
0000
0000
0000
0000
0000
0000
0000
0013
0000
0000
0000
0000
0000
0000
0000
0100
0000
0000
0000
0000
0000
0000
0000
0010
0000
0000
0000
0000
0000
0000
0000
1100
0000
0000
0000
0000
0000
0000
0000
0000
0000
0000
0000
0000
0000
0000
0000
0000
0000
0000
0000
0000
0000
0000
0000
1100
0000
0000
0000
0000
0000
0000
0000
0000
0000
0000
0000
0000
0000
0000
0000
0000
0000
0000
0000
0000
0000
0000
0000
1000
0000
0000
0000
0000
0000
0000
0000
0000
0000
0000
0000
0000
0000
0000
0000
0000
0000
0000
0000
0000
0000
0000
0000
0200
0000
0000
0300
0000
0000
0000
0000
0000
0000
0000
0000
0020
0000
0000
0030
0000
0000
0000
0000
0000
0000
0000
0000
0002
0000
0000
0003
0000
0000
0000
0000
0000
0000
0000
0000
0000
0000
0000
0000
0000
0000
0000
0000
0000
0000
0000
0000
,
0011
0000
0000
0000
0100
0000
0000
0000
1010
0000
0000
0000
0000
0000
0000
0000
0001
0000
0000
0000
0000
0000
0000
0000
0101
0000
0000
0000
0000
0000
0000
0000
0020
0030
0000
0000
0000
0000
0000
0000
1000
0000
0000
0000
0000
0000
0000
0000
0020
0030
0000
0000
0000
0000
0000
0000
0101
0000
0000
0000
0000
0000
0000
0000
,
0020
0030
0000
0000
0000
0000
0000
0000
1000
0000
0000
0000
0000
0000
0000
0000
0000
0000
0000
0000
0000
0000
0000
0000
0101
0000
0000
0000
0000
0000
0000
0000
0000
0000
0000
0000
0000
0000
0000
0000
1000
0000
0000
0000
0000
0000
0000
0000
0000
0000
0000
0000
0000
0000
0000
0000
0101
0000
0000
0000
0000
0000
0000
0000
,
0020
0000
0000
0030
0000
0000
0000
0000
0000
0000
0000
0000
0000
0000
0000
0000
0000
0000
0000
0000
0000
0000
0000
0000
1020
0000
0000
0030
0000
0000
0000
0000
0000
0000
0000
0000
0000
0000
0000
0000
0000
0000
0000
0000
0000
0000
0000
0000
0000
0000
0000
0000
0000
0000
0000
0000
0000
0000
0000
0000
0000
0000
0000
0000
0000
0000
0000
0000
0000
0000
0000
0000
0101
0000
0000
0000
0000
0000
0000
0000
0000
0000
0000
0000
0000
0000
0000
0000
0000
0000
0000
0000
0000
0000
0000
0000
0020
0000
0000
0000
0030
0000
0000
0000
0000
0000
0000
0000
0000
0000
0000
0000
0000
0000
0000
0000
0000
0000
0000
0000
1000
0000
0000
0000
0000
0000
0000
0000
0000
0000
0000
0000
0000
0000
0000
0000
0000
0000
0000
0000
0000
0000
0000
0000
0020
0000
0000
0030
0000
0000
0000
0000
0000
0000
0000
0000
0000
0000
0000
0000
0000
0000
0000
0000
0000
0000
0000
0000
0101
0000
0000
0000
0000
0000
0000
0000
0000
0000
0000
0000
0000
0000
0000
0000
0000
0000
0000
0000
0000
0000
0000
0000
,
0020
0000
0000
0030
0000
0000
0000
0000
0000
0000
0000
0000
0000
0000
0000
0000
0000
0000
0000
0000
0000
0000
0000
0000
1000
0000
0000
0000
0000
0000
0000
0000
0000
0000
0000
0000
0000
0000
0000
0000
0000
0000
0000
0000
0000
0000
0000
0000
0000
0000
0000
0000
0000
0000
0000
0000
0000
0000
0000
0000
0000
0000
0000
0000
0000
0000
0000
0000
0000
0000
0000
0000
0101
0000
0000
0000
0000
0000
0000
0000
0000
0000
0000
0000
0000
0000
0000
0000
0000
0000
0000
0000
0000
0000
0000
0000
0020
0000
0000
0000
0030
0000
0000
0000
0000
0000
0000
0000
0020
0000
0000
0030
0000
0000
0000
0000
0000
0000
0000
0000
1020
0000
0000
0000
0030
0000
0000
0000
0000
0000
0000
0000
0000
0000
0000
0000
0000
0000
0000
0000
0000
0000
0000
0000
0020
0000
0000
0000
0030
0000
0000
0000
0000
0000
0000
0000
0000
0000
0000
0000
0000
0000
0000
0000
0000
0000
0000
0000
0101
0000
0000
0000
0000
0000
0000
0000
0000
0000
0000
0000
0000
0000
0000
0000
0000
0000
0000
0000
0000
0000
0000
0000
,
0012
0000
0000
0000
0003
0000
0000
0000
0000
0000
0000
0000
0000
0000
0000
0000
0000
0000
0000
0000
0000
0000
0000
0000
0201
0000
0000
0000
0300
0000
0000
0000
0000
0000
0000
0000
0000
0000
0000
0000
0000
0000
0000
0000
0000
0000
0000
0000
0000
0000
0000
0000
0000
0000
0000
0000
0000
0000
0000
0000
0000
0000
0000
0000
0000
0000
0000
0000
0000
0000
0000
0000
0101
0000
0000
0000
0000
0000
0000
0000
0000
0000
0000
0000
0000
0000
0000
0000
0000
0000
0000
0000
0000
0000
0000
0000
0020
0000
0000
0000
0030
0000
0000
0000
0000
0000
0000
0000
0000
0000
0000
0000
0000
0000
0000
0000
0000
0000
0000
0000
1000
0000
0000
0000
0000
0000
0000
0000
0000
0000
0000
0000
0000
0000
0000
0000
0000
0000
0000
0000
0000
0000
0000
0000
0020
0000
0000
0030
0000
0000
0000
0000
0000
0000
0000
0000
0000
0000
0000
0000
0000
0000
0000
0000
0000
0000
0000
0000
0101
0000
0000
0000
0000
0000
0000
0000
0000
0000
0000
0000
0000
0000
0000
0000
0000
0000
0000
0000
0000
0000
0000
0000
,
0020
0030
0000
0000
0000
0000
0000
0000
1000
0000
0000
0000
0000
0000
0000
0000
0000
0000
0000
0000
0000
0000
0000
0000
0101
0000
0000
0000
0000
0000
0000
0000
0000
0000
0000
0000
0000
0000
0000
0000
1000
0000
0000
0000
0000
0000
0000
0000
0000
0000
0000
0000
0000
0000
0000
0000
0101
0000
0000
0000
0000
0000
0000
0000
,
0020
0000
0000
0030
0000
0000
0000
0000
0000
0000
0000
0000
0000
0000
0000
0000
0000
0000
0000
0000
0000
0000
0000
0000
1020
0000
0000
0030
0000
0000
0000
0000
0000
0000
0000
0000
0000
0000
0000
0000
0000
0000
0000
0000
0000
0000
0000
0000
0000
0000
0000
0000
0000
0000
0000
0000
0000
0000
0000
0000
0000
0000
0000
0000
0000
0000
0000
0000
0000
0000
0000
0000
0101
0000
0000
0000
0000
0000
0000
0000
0000
0000
0000
0000
0000
0000
0000
0000
0000
0000
0000
0000
0000
0000
0000
0000
0020
0000
0000
0000
0030
0000
0000
0000
0000
0000
0000
0000
0000
0000
0000
0000
0000
0000
0000
0000
0000
0000
0000
0000
1000
0000
0000
0000
0000
0000
0000
0000
0000
0000
0000
0000
0000
0000
0000
0000
0000
0000
0000
0000
0000
0000
0000
0000
0020
0000
0000
0030
0000
0000
0000
0000
0000
0000
0000
0000
0000
0000
0000
0000
0000
0000
0000
0000
0000
0000
0000
0000
0101
0000
0000
0000
0000
0000
0000
0000
0000
0000
0000
0000
0000
0000
0000
0000
0000
0000
0000
0000
0000
0000
0000
0000
,
0000
0000
0000
1011
0000
0100
0000
0010
0000
0100
0000
1000
0000
0100
0000
0001
0000
0010
0000
0100
0000
0010
0000
0100
,
0000
0000
1000
0000
0000
0000
2022
0000
0000
0000
0000
0000
0000
0000
0000
0000
0000
0000
0000
0000
0000
0000
0000
0000
0000
0000
0000
3033
0000
0000
0102
0003
0000
0000
0000
0000
1000
0000
0000
0000
0000
0000
1002
0003
0000
0000
0000
0000
,
1000
0000
0000
0000
0000
0000
0002
0003
0000
0000
0000
0000
0000
0000
0000
0000
0000
0000
0002
0003
0000
0000
0000
0000
1000
0000
0000
1000
0000
0000
0102
0003
0000
0000
0000
0000
0000
0000
0000
0000
0000
0000
0002
0003
0000
0000
0000
0000
,
0000
0000
0000
0000
0000
0000
0012
0003
0000
0000
0000
0000
2120
0000
0000
0000
0000
0000
0002
0003
0000
0000
0000
0000
0000
0000
0000
0000
0000
0000
0102
0003
0000
3030
0000
0000
1000
0000
0000
0000
0000
0000
1002
0003
0000
0000
0000
0000
,
1000
0000
0000
0000
0000
0000
0002
0003
0000
0000
0000
0000
0000
0000
0000
0000
0000
0000
0002
0003
0000
0000
0000
0000
0000
0000
0000
0000
0000
0000
0102
0003
0000
0000
0000
0000
1000
0000
0000
1000
0000
0000
1002
0003
0000
1000
0000
0000
,
1000
0000
0000
1000
0000
0000
2022
0003
0000
0000
0000
0000
0000
0000
0000
0000
0000
0000
0002
0003
0000
0000
0000
0000
0000
0000
0000
0000
0000
0000
3132
0003
0000
0000
0000
0000
1000
0000
0000
0000
0000
0000
1002
0003
0000
0000
0000
0000
,
1000
0000
0000
0000
0000
0000
0002
0003
0000
0000
0000
0000
0000
0000
0000
0000
0000
0000
0002
0003
0000
0000
0000
0000
1000
0000
0000
1000
0000
0000
0102
0003
0000
0000
0000
0000
0000
0000
0000
0000
0000
0000
0002
0003
0000
0000
0000
0000
,
0000
0000
0000
0000
0000
0000
0012
0003
0000
0000
0000
0000
2120
0000
0000
0000
0000
0000
0002
0003
0000
0000
0000
0000
0000
0000
0000
0000
0000
0000
3132
0003
0000
0000
0000
0000
1000
0000
0000
1000
0000
0000
1002
0003
0000
1000
0000
0000
,
1000
0000
0000
0000
0000
0000
0000
0000
0000
0000
0000
0000
1000
0000
0000
0000
0000
0000
0000
0000
0000
0000
0000
0000
0012
0000
0000
0000
0003
0000
0000
0000
0000
0000
0000
0000
0000
0000
0000
0000
0000
0000
0000
0000
0000
0000
0000
0000
0010
0000
0000
0000
0000
0000
0000
0000
0000
0000
0000
0000
0000
0000
0000
0000
0000
0000
0000
0000
0000
0000
0000
0000
0012
0000
0000
0000
0003
0000
0000
0000
0000
0000
0000
0000
0000
0000
0000
0000
0000
0000
0000
0000
0000
0000
0000
0000
0010
0000
0000
0000
0000
0000
0000
0000
0000
0000
0000
0000
0000
0000
0000
0000
0000
0000
0000
0000
0000
0000
0000
0000
0101
0000
0000
0000
0000
0000
0010
0000
0000
0000
0000
0000
0000
0000
0000
0000
0000
0000
0000
0000
0000
0000
0000
0000
1001
0000
0000
0000
0000
0000
0000
0000
0000
0000
0000
0000
0000
0000
0000
0000
0000
0000
0000
0000
0000
0000
0000
0000
1010
0000
0000
0000
0000
0000
0000
0000
0000
0000
0000
0000
0000
0000
0000
0000
0000
0000
0000
0000
0000
0000
0000
0000
,
2202
0000
0000
0000
0000
0010
0010
3313
,
2022
0000
0000
0000
0000
0000
3133
2220
,
0000
0000
0000
0001
0001
3331
0222
0000
,
0000
0000
0000
0000
1333
1100
1100
1100
,
1100
1100
1100
1100
1010
1010
1010
1010
,
1010
1010
1010
0101
0101
0101
0101
0101
,
0101
0000
0000
0000
0000
0000
0101
0000
0000
0000
0000
0000
0011
0000
0000
0000
0000
0000
0011
0000
0000
0000
0000
0000
0011
0000
0000
0000
0000
0000
0011
0000
0000
0000
0000
0000
2001
3000
0000
0000
0000
0000
0201
0300
0000
0000
0000
0000
,
0021
0030
0000
0000
0000
0000
0000
0000
0000
0000
0000
0000
0000
0000
0000
0000
0000
0000
0000
0000
0000
0000
0000
0000
0000
0000
0000
0000
0000
0000
0000
0000
0000
0000
0000
0000
1101
0000
0000
0000
0000
0000
0010
0000
0000
0000
0000
0000
,
1000
0000
0200
0000
0011
0300
1100
1100
1100
1100
0110
0000
0001
0000
0010
0000
,
0100
0000
0000
1010
0000
0001
0000
0010
0000
0100
0000
0010
0000
1000
0000
0100
0000
0010
0000
0001
0000
1010
0000
0100
,
0000
0010
0000
0100
0000
0010
0000
0001
0000
0010
0000
0100
0000
1000
0000
0010
0000
0100
1001
0010
0001
0010
0100
1000
,
0001
0100
0001
0100
0010
1000
0101
1000
0010
0100
0010
0100
0001
0100
0010
1000
0100
0010
0101
1000
0100
0010
0100
0010
,
0001
0010
0100
1000
0100
0010
0100
1000
0100
0010
0100
0010
0001
0010
1000
0011
0100
0010
1000
0100
0010
0002
0000
0000
,
0000
0000
0000
0000
0000
0000
0000
0000
0000
1100
0000
0000
0013
0001
0010
0200
0000
0000
0320
0000
0000
0230
0000
0000
,
0302
0000
0023
0000
1230
0000
0320
0000
0230
0000
2300
0000
0000
3010
0100
0001
,
0100
0010
0100
1000
1001
0001
0100
0010
1000
0100
2000
0000
3000
1000
0010
0100
,
0001
0010
1001
0100
0020
0000
0032
0000
0000
0000
0000
0000
0103
0010
1001
0010
,
0100
0001
0010
0100
0010
1000
0010
0100
0001
0010
0001
0100
0011
1000
0200
0000
,
0301
0000
0000
0010
0000
0000
0100
0000
0000
0020
0000
0000
2030
0000
0000
0000
0000
0000
0000
0000
0100
3000
1000
0000
0100
0000
0010
0000
0100
0000
1000
0000
0001
0000
0010
0000
1100
0000
0000
0001
0000
0000
0010
0000
0000
0100
0000
0000
,
1000
0000
0000
0001
0000
0000
0010
0000
0000
0100
0000
0000
1000
0000
0000
0100
0000
0000
0001
0000
0000
0010
0000
0000
0100
0000
0000
1000
0000
0000
0101
0000
0000
0010
0000
0000
0100
0000
0000
1000
0000
0000
0100
0000
0010
0000
0001
0000
,
0010
0100
1000
0100
0010
0100
0010
0001
0010
0101
1000
0100
0010
0001
1000
0100
0010
0001
1000
0100
0010
0100
0010
0001
,
0010
0000
1000
0000
0100
0000
0010
0000
0100
0000
0010
0000
1001
0000
0100
0000
0010
0000
0100
0000
0010
0000
0001
0000
0010
0000
1000
0000
0100
0000
0010
0000
0100
0000
0010
0000
1001
0000
0000
0100
0000
0000
0010
0000
0000
1000
0000
0000
,
0101
0000
0000
1000
0000
0000
0010
0000
0000
0100
0000
0000
1001
0000
0100
0000
0010
0000
0001
0000
0010
0000
0100
0000
1001
0000
0010
0000
0100
0000
0001
0000
0100
0000
0010
0000
0001
0000
0000
1100
0000
0000
0010
0000
0000
1000
0000
0000
,
0101
0000
0000
0010
0000
0000
0100
0000
0000
1000
0000
0000
0100
0000
0000
0011
0000
0000
0100
0000
0000
0010
0000
0000
1002
0003
0000
0000
0000
0000
0000
0000
0000
0000
0000
0000
1010
0000
0000
0000
0000
0000
0000
0000
0000
0000
0000
0000
,
0011
0000
0000
0101
0000
0000
0000
0000
0000
0000
0000
0000
1000
0000
0100
0000
0010
0000
0100
0000
0010
0000
0001
0000
1010
0000
0100
0000
0010
0000
0100
0000
0010
0000
0001
0000
1000
0000
0100
0000
0010
0000
0100
0000
0010
0000
0001
0000
,
0110
1000
0100
0010
0100
0010
0001
0010
0100
1000
0100
0010
1001
0100
0010
1000
0010
0100
0001
0010
0100
1000
0100
0010
,
1001
0100
0010
1000
0010
0100
0001
0010
0100
1000
0100
0010
1001
0100
0010
1000
0010
0100
0001
0010
0100
1000
0100
0010
,
1001
0000
0100
0000
0010
0000
1000
0000
0010
0000
0100
0000
0001
0000
0000
0010
0000
0000
0100
0000
0000
0001
0000
0000
1010
0000
0000
0100
0000
0000
0010
0000
0000
0100
0000
0000
1000
0000
0000
0001
0000
0000
0010
0000
0000
0100
0000
0000
,
1010
0100
1000
0001
2010
0000
0000
0000
3011
1000
0100
0010
0002
0000
0000
0000
,
0110
1003
0010
0100
0020
0000
0000
0031
1010
0001
0100
0001
1000
0001
0100
0001
,
1010
0001
0100
0001
0020
0000
0000
0031
1010
0100
0020
0000
0000
0031
0100
0010
,
1100
0000
0000
0001
0000
0000
0010
0000
0000
0100
0000
0000
1000
0000
0100
0000
0010
0000
0001
0000
1000
0000
0100
0000
0011
0000
0100
0000
1000
0000
0001
0000
0010
0000
0100
0000
1001
0000
0100
0000
0010
0000
0001
0000
0100
0000
0010
0000
,
0101
0000
0010
0000
0100
0000
0001
0000
0010
0000
0100
0000
1002
0000
0000
1000
0000
0000
1000
0000
0000
0000
0000
0000
0110
0000
0000
0000
0000
0000
1000
0000
0000
1000
0000
0000
1000
0000
0000
1000
0000
0000
1000
0000
0000
0000
0000
0000
,
0110
0000
0000
0000
0010
1000
1000
1000
0110
0000
1000
1000
0000
1000
1000
0000
,
1013
0000
0000
0000
1000
1000
1000
0000
0101
1000
0000
1000
1000
1000
1000
0000
,
0101
0000
0000
0000
0010
1000
1000
1000
0101
0000
1000
1000
0000
1000
1000
0000
,
1002
0000
0000
0000
1103
1100
1100
0000
1011
1100
0000
1100
1100
1100
1100
0000
,
1011
0000
0000
0000
0000
1100
1100
1100
1011
0000
1100
1100
0000
1100
1100
0000
,
1011
0000
0000
0000
1011
1100
1100
0000
1100
1100
0000
1100
1011
1100
1100
0000
,
1011
0000
0000
0000
1001
1001
1001
0000
1001
1001
0000
1001
1001
1001
1001
0000
,
1001
0010
0100
0001
0010
0100
0010
0001
0010
0100
1000
0100
0010
0100
1000
0100
,
1001
0010
0100
0001
0010
0100
0010
0001
1010
0100
1000
0100
0010
0100
1000
0100
,
1001
0010
0100
0001
0010
0100
0010
0001
1010
0100
1000
0101
1010
0100
1000
0110
,
1001
1000
0100
0010
0001
1000
0010
0100
0011
1000
0100
0010
0001
0010
0100
1000
,
0101
0010
0100
0001
0010
0100
0010
0001
1010
0100
1000
0100
0010
0100
1000
0100
,
1001
0010
0100
0001
0010
0100
0010
0001
1010
0100
1000
0100
0010
0100
1000
0100
,
1001
0000
0000
0010
0000
0000
0100
0000
0000
0001
0000
0000
0010
0000
0000
0100
0000
0000
0010
0000
0000
0001
0000
0000
1010
0000
0000
0000
0100
0000
0000
0000
1010
0000
0000
0000
1001
0000
0000
0000
0010
0000
0000
0000
1100
0000
0000
0000
,
1002
0000
0000
1000
0000
0000
1000
0000
0110
1000
0000
0000
1000
0000
1000
1003
,
0001
0010
0100
1000
0100
0010
0001
0100
0010
1000
0010
0100
1001
0010
0100
0010
0100
1000
0001
0010
0100
1000
0100
1000
,
0020
0000
0000
1030
0100
1000
0021
0000
0000
1030
0100
1000
0020
0000
0000
1030
0100
1000
0021
0000
0000
1030
0100
1000
,
0002
0000
0000
0000
0000
0000
0013
0000
0100
0000
1000
0000
0101
0000
0010
0000
0100
0000
1000
0000
0100
0000
0010
0000
0002
0000
0000
0000
0000
0000
0000
0000
0000
0000
0000
0000
1010
0000
0000
0000
0000
0000
0100
0000
0000
1003
0000
0000
,
0010
0100
1000
0100
0011
0100
1000
0001
0100
1000
0010
1000
0110
0001
0010
1000
,
0001
0010
0100
1000
0100
0010
1001
0010
0100
1000
0100
1000
0100
0010
0001
0010
0100
1000
0101
0010
0100
1000
0100
0010
,
1001
0000
0100
0000
0010
0000
0101
0000
1000
0011
0100
0000
1000
0000
0100
0000
0010
0000
1001
0000
0010
0000
0001
0000
,
0010
0000
0001
0000
0010
0000
0100
0000
0000
1000
0000
0000
0011
0000
0000
0000
0100
0000
0000
0000
0001
0000
0000
0000
0010
0000
0000
0000
0100
0000
0000
0000
1000
0000
0000
0000
0101
0000
0000
0000
0010
0000
0000
0000
0100
0000
0000
0000
,
0002
0000
1100
0023
0000
0000
1131
2000
,
3110
0000
0000
0110
0000
0000
0002
0003
0000
0001
0000
0000
0002
0003
0000
0001
0000
0000
1100
0000
0000
1100
0000
0000
0020
0030
0000
0010
0000
0000
0020
0030
0000
0010
0000
0000
0002
0000
0000
0023
0000
0000
0230
0000
0000
2300
0000
0000
,
3100
1000
0100
1000
0100
0010
1001
0010
0100
1000
0100
0010
0100
0010
0001
0020
0000
0000
0131
1000
0100
0010
0100
0010
,
0002
0000
0000
0000
0000
0000
0113
0000
0000
2000
0000
0000
0001
0000
0000
0000
0000
0000
3011
0000
0100
0000
0010
0000
,
0001
1000
0010
1001
0100
0001
0010
1000
0010
1100
0001
0000
,
0010
0001
0010
0000
0100
0000
1001
0000
0100
0000
0010
0000
0001
0000
0100
0000
1000
0000
0101
0000
0010
0000
0100
0000
,
2022
0000
0000
0000
3133
0000
2022
0000
0000
0000
3133
0000
1011
0000
1000
0100
,
0010
0001
0100
0001
1010
0100
0010
0100
0001
1000
0100
0010
1001
0010
0100
1000
,
0002
0000
0000
0000
1023
0000
0230
0000
2300
0000
3002
0000
1010
0000
0103
1000
,
0001
0010
0100
1000
0101
0010
0100
0010
2000
0000
0000
0000
0101
0000
3000
0000
,
1001
1010
1100
0101
0110
1010
0011
0110
1100
1001
1010
1100
,
0110
0000
1000
0000
0110
0000
0001
0000
1000
0000
0100
0000
1010
0000
0100
1000
,
1000
0000
0000
0000
0000
0000
0010
0000
0000
0000
0000
0000
1100
0000
0000
0000
0000
0000
0001
0000
0000
0000
0000
0000
1000
0000
0000
0000
0000
0000
0100
0000
0000
0000
0000
0000
0011
0000
0000
0000
0000
0000
1020
0030
0000
0000
0000
0000
,
0102
0003
0000
0000
0000
0000
1000
0000
0000
0000
0000
0000
0110
0000
0000
0000
0000
0000
0001
0000
0000
0000
0000
0000
1000
0000
0000
0000
0000
0000
0100
0000
0000
0000
0000
0000
1010
0000
0000
0000
0000
0000
0100
0000
0000
0100
0000
0000
,
0010
0000
0000
1000
0000
0000
0110
0000
0000
0001
0000
0000
1001
0000
0000
0000
1010
0000
0000
0000
0021
0000
0000
0000
,
1032
0003
0000
0000
0000
0000
1000
0000
0000
0000
0000
0000
0110
0000
0000
0000
0000
0000
0001
0000
0000
0000
0000
0000
1000
0000
0000
0000
0000
0000
0100
0000
0000
0000
0000
0000
1010
0000
0000
0000
0000
0000
0100
0000
0000
0100
0000
0000
,
0100
0001
0110
0001
0100
0010
1001
0100
,
0011
0000
0000
0100
0000
0000
1001
0000
0000
0010
0000
0000
1000
0000
0000
0100
0000
0000
1010
0000
0000
1000
1000
1000
,
0100
0000
0012
0000
0100
0000
0010
0003
1101
0000
1001
0000
1010
0000
1100
0000
,
1011
0001
1001
0100
0100
0100
0110
1000
,
1000
0000
1000
0000
1010
0000
0100
0000
0100
0000
0100
0000
0101
0101
0010
0000
,
0110
0010
0011
0100
0100
0100
1100
0001
,
0001
0001
1001
0100
0100
0100
0110
1000
,
1100
0010
0010
0010
1010
0100
0100
0100
,
0101
0000
1000
0000
1000
0000
1000
0000
1100
1100
0001
0000
0101
0000
0001
0000
,
0011
0100
0100
0100
1100
0010
0010
0010
,
0110
0001
0001
0001
1001
1000
1010
0100
,
0100
0100
0110
0001
0001
0001
1001
0010
,
0010
0000
0010
0000
1010
1010
0100
0000
0101
0000
0100
0000
0110
0000
1000
0000
,
1000
1000
1100
0010
0010
0010
0110
0001
,
0001
0001
1010
0010
0110
1000
1000
1000
,
1100
0001
0001
0001
1001
0010
0010
0010
,
0110
0110
1000
0000
1010
0000
1000
0000
1001
0000
0010
0000
0010
0000
0010
0000
,
0110
0000
0000
1101
0000
0000
0000
0000
0000
0100
0000
0000
1110
0000
0000
0000
0000
0000
0001
1000
0010
0000
0100
0000
,
0010
0000
0000
0000
0000
0000
0000
0000
1000
0000
0000
0000
0000
0000
0000
0000
0100
0000
0000
0000
0000
0000
0000
0000
0000
0000
0000
0000
0000
0000
0000
0000
1000
0000
0000
0000
0000
0000
0000
0000
0000
0000
0000
0000
0000
0000
0000
0000
0012
0000
0000
0003
0000
0000
0000
0000
0000
0000
0000
0000
0000
0000
0000
0000
1000
0000
0000
0000
0000
0000
0000
0000
0000
0000
0000
0000
0000
0000
0000
0000
1000
0000
0000
0000
0000
0000
0000
0000
0000
0000
0000
0000
0000
0000
0000
0000
1000
0000
0000
0000
0000
0000
0000
0000
0000
0000
0000
0000
0000
0000
0000
0000
1000
0000
0000
0000
0000
0000
0000
0000
0000
0000
0000
0000
0000
0000
0000
0000
1000
0000
0000
0000
0000
0000
0000
0000
0000
0000
0000
0000
0000
0000
0000
0000
1001
0000
0000
0000
0000
0000
0000
0000
0000
0000
0000
0000
0000
0000
0000
0000
1000
0000
0000
0000
0000
0000
0000
0000
0000
0000
0000
0000
0000
0000
0000
0000
1000
0000
0000
0000
0000
0000
0000
0000
0000
0000
0000
0000
0000
0000
0000
0000
,
1000
1000
1000
1000
1000
1000
1000
1000
1000
0101
0010
0001
,
1000
0000
0000
0000
0100
0000
0000
0000
0010
0000
0000
0000
0202
0303
0000
0000
0010
0000
0000
0000
0010
0000
0000
0000
0010
0000
0000
0000
0010
0000
0000
0000
0010
0000
0000
0000
0110
0000
0000
0000
0010
0000
0000
0000
0010
0000
0000
0000
,
0010
0000
0010
0000
0010
0000
0010
0000
0010
0000
0010
0000
0010
0000
0010
0000
0010
0000
0101
0000
1000
0100
0010
0000
,
0001
0000
0000
0000
0000
0000
0000
0000
0000
0000
0000
0000
0000
0000
0000
0000
0010
0000
0000
0000
0000
0000
0000
0000
0000
0000
0000
0000
0000
0000
0000
0000
0100
0000
0000
0000
0000
0000
0000
0000
0000
0000
0000
0000
0000
0000
0000
0000
1002
0000
0000
0003
0000
0000
0000
0000
0000
0000
0000
0000
0000
0000
0000
0000
0100
0000
0000
0000
0000
0000
0000
0000
0000
0000
0000
0000
0000
0000
0000
0000
0100
0000
0000
0000
0000
0000
0000
0000
0000
0000
0000
0000
0000
0000
0000
0000
0100
0000
0000
0000
0000
0000
0000
0000
0000
0000
0000
0000
0000
0000
0000
0000
0100
0000
0000
0000
0000
0000
0000
0000
0000
0000
0000
0000
0000
0000
0000
0000
0100
0000
0000
0000
0000
0000
0000
0000
0000
0000
0000
0000
0000
0000
0000
0000
1100
0000
0000
0000
0000
0000
0000
0000
0000
0000
0000
0000
0000
0000
0000
0000
0100
0000
0000
0000
0000
0000
0000
0000
0000
0000
0000
0000
0000
0000
0000
0000
0100
0000
0000
0000
0000
0000
0000
0000
0000
0000
0000
0000
0000
0000
0000
0000
,
0100
0100
0100
0100
0100
0100
0100
0100
0100
1010
0001
0001
,
0001
0000
0000
0000
0000
0000
0000
0000
0000
0000
0000
0000
0000
0000
0000
0000
0001
0000
0000
0000
0000
0000
0000
0000
0000
0000
0000
0000
0000
0000
0000
0000
0001
0000
0000
0000
0000
0000
0000
0000
0000
0000
0000
0000
0000
0000
0000
0000
2010
0000
0000
3000
0000
0000
0000
0000
0000
0000
0000
0000
0000
0000
0000
0000
0100
0000
0000
0000
0000
0000
0000
0000
0000
0000
0000
0000
0000
0000
0000
0000
0010
0000
0000
0000
0000
0000
0000
0000
0000
0000
0000
0000
0000
0000
0000
0000
0001
0000
0000
0000
0000
0000
0000
0000
0000
0000
0000
0000
0000
0000
0000
0000
1000
0000
0000
0000
0000
0000
0000
0000
0000
0000
0000
0000
0000
0000
0000
0000
0100
0000
0000
0000
0000
0000
0000
0000
0000
0000
0000
0000
0000
0000
0000
0000
1001
0000
0000
0000
0000
0000
0000
0000
0000
0000
0000
0000
0000
0000
0000
0000
0100
0000
0000
0000
0000
0000
0000
0000
0000
0000
0000
0000
0000
0000
0000
0000
0010
0000
0000
0000
0000
0000
0000
0000
0000
0000
0000
0000
0000
0000
0000
0000
,
0001
0000
0100
0000
0001
0000
1010
0000
0100
0000
0010
0000
0101
0000
0010
0000
0100
0000
1001
0000
0010
0100
1000
0000
,
0101
0000
0000
0000
0010
0000
0000
0000
0100
0000
0000
0000
1002
0003
0000
0000
1000
0000
0000
0000
1000
0000
0000
0000
1002
0003
0000
0000
1000
0000
0000
0000
1000
0000
0000
0000
1012
0003
0000
0000
1000
0000
0000
0000
1000
0000
0000
0000
,
1002
0003
0000
0000
1000
0000
0000
0000
1000
0000
0000
0000
1002
0003
0000
0000
1000
0000
0000
0000
1000
0000
0000
0000
1002
0003
0000
0000
1000
0000
0000
0000
1000
0000
0000
0000
1012
0003
0000
0000
1000
0000
0000
0000
1000
0000
0000
0000
,
1002
0003
0000
0000
1000
0000
0000
0000
1000
0000
0000
0000
1002
0003
0000
0000
1000
0000
0000
0000
1000
0000
0000
0000
1002
0003
0000
0000
1000
0000
0000
0000
1000
0000
0000
0000
1012
0003
0000
0000
1000
0000
0000
0000
1000
0000
0000
0000
,
1002
0003
0000
0000
1000
0000
0000
0000
1000
0000
0000
0000
1002
0003
0000
0000
1000
0000
0000
0000
1000
0000
0000
0000
1002
0003
0000
0000
1000
0000
0000
0000
1000
0000
0000
0000
1012
0003
0000
0000
1000
0000
0000
0000
1000
0000
0000
0000
,
1002
0003
0000
0000
1000
0000
0000
0000
1000
0000
0000
0000
1202
0303
0000
0000
1000
0000
0000
0000
1000
0000
0000
0000
1002
0003
0000
0000
1000
0000
0000
0000
1000
0000
0000
0000
1012
0003
0000
0000
1000
0000
0000
0000
1000
0000
0000
0000
,
1002
0003
0000
0000
1000
0000
0000
0000
1000
0000
0000
0000
1002
0003
0000
0000
1000
0000
0000
0000
1000
0000
0000
0000
1002
0003
0000
0000
1000
0000
0000
0000
1000
0000
0000
0000
1012
0003
0000
0000
1000
0000
0000
0000
1000
0000
0000
0000
,
1002
0003
0000
0000
1000
0000
0000
0000
1000
0000
0000
0000
1002
0003
0000
0000
1000
0000
0000
0000
1000
0000
0000
0000
1002
0003
0000
0000
1000
0000
0000
0000
1000
0000
0000
0000
1012
0003
0000
0000
1000
0000
0000
0000
1000
0000
0000
0000
,
1002
0003
0000
0000
1000
0000
0000
0000
1000
0000
0000
0000
1002
0003
0000
0000
1000
0000
0000
0000
1000
0000
0000
0000
1002
0003
0000
0000
1000
0000
0000
0000
1000
0000
0000
0000
1012
0003
0000
0000
1000
0000
0000
0000
1000
0000
0000
0000
,
1202
0303
0000
0000
1000
0000
0000
0000
1000
0000
0000
0000
1002
0003
0000
0000
1000
0000
0000
0000
1000
0000
0000
0000
1002
0003
0000
0000
1000
0000
0000
0000
1000
0000
0000
0000
1012
0003
0000
0000
1000
0000
0000
0000
1000
0000
0000
0000
,
1002
0003
0000
0000
1000
0000
0000
0000
1000
0000
0000
0000
1002
0003
0000
0000
1000
0000
0000
0000
1000
0000
0000
0000
1002
0003
0000
0000
1000
0000
0000
0000
1000
0000
0000
0000
1012
0003
0000
0000
1000
0000
0000
0000
1000
0000
0000
0000
,
1002
0003
0000
0000
1000
0000
0000
0000
1000
0000
0000
0000
1002
0003
0000
0000
1000
0000
0000
0000
1000
0000
0000
0000
1002
0003
0000
0000
1000
0000
0000
0000
1000
0000
0000
0000
1012
0003
0000
0000
1000
0000
0000
0000
1000
0000
0000
0000
,
1002
0003
0000
0000
1000
0000
0000
0000
1000
0000
0000
0000
1002
0003
0000
0000
1000
0000
0000
0000
1000
0000
0000
0000
1002
0003
0000
0000
1000
0000
0000
0000
1000
0000
0000
0000
1012
0003
0000
0000
1000
0000
0000
0000
1000
0000
0000
0000
,
1002
0003
0000
0000
1000
0000
0000
0000
1000
0000
0000
0000
1202
0303
0000
0000
1000
0000
0000
0000
1000
0000
0000
0000
1002
0003
0000
0000
1000
0000
0000
0000
1000
0000
0000
0000
1012
0003
0000
0000
1000
0000
0000
0000
1000
0000
0000
0000
,
1002
0003
0000
0000
1000
0000
0000
0000
1000
0000
0000
0000
1002
0003
0000
0000
1000
0000
0000
0000
1000
0000
0000
0000
1002
0003
0000
0000
1000
0000
0000
0000
1000
0000
0000
0000
1012
0003
0000
0000
1000
0000
0000
0000
1000
0000
0000
0000
,
1002
0003
0000
0000
1000
0000
0000
0000
1000
0000
0000
0000
1002
0003
0000
0000
1000
0000
0000
0000
1000
0000
0000
0000
1002
0003
0000
0000
1000
0000
0000
0000
1000
0000
0000
0000
1012
0003
0000
0000
1000
0000
0000
0000
1000
0000
0000
0000
,
1002
0003
0000
0000
1000
0000
0000
0000
1000
0000
0000
0000
1002
0003
0000
0000
0010
0000
0000
0000
0010
0000
0000
0000
0012
0003
0000
0000
0010
0000
0000
0000
0010
0000
0000
0000
1010
0000
0000
0000
0000
0000
0000
0000
0101
0000
0000
0000
,
0001
0110
0000
1002
0000
1003
0011
0100
1000
0001
0100
0010
,
2000
3200
2300
3022
0033
0202
1303
0022
0033
2020
3030
2200
,
3301
2020
3030
0200
0000
0310
0101
0010
0100
0001
0100
0010
,
2000
3200
2300
3202
0303
0022
1033
0202
0303
2020
3030
2200
,
3301
2020
3030
0101
0000
0010
1001
0010
0100
0010
0000
0010
,
1001
0010
0100
0010
0000
0010
1001
0010
0100
0010
0100
0010
,
1002
0000
0000
0000
1023
0000
0000
0000
1230
0000
0000
0000
1302
0003
0000
0000
0100
0000
0000
0000
1000
0000
0000
0000
0011
0000
0000
0000
0100
0000
0000
0000
1000
0000
0000
0000
0001
0000
0000
0000
0010
0000
0000
0000
0100
0000
0000
0000
,
1001
0000
0100
0000
1000
0100
0022
0000
0000
0000
0133
0000
1001
0000
0010
0000
0100
0000
2002
0000
3003
0000
2002
0000
,
0000
3013
0100
1000
0000
0000
2001
0000
0000
0000
3010
0000
0101
0000
0010
0000
1000
0000
0001
0000
0010
0000
0100
0000
,
1010
0100
1000
0010
0001
0010
1100
0010
0100
0001
1000
0010
,
0101
0010
0100
2022
3033
1100
0000
1100
0000
1101
0000
1100
,
0000
1100
0000
2022
3033
1100
0000
1100
0000
1101
0000
1100
,
0000
1100
0000
2010
0000
3100
0000
0100
0000
0101
0010
0000
,
0100
0100
0100
2010
0000
3100
0000
0100
0000
1100
0010
0001
,
0100
0010
0001
2010
0000
3100
0000
0100
0000
0101
0010
0000
,
0100
0100
0100
2010
0000
3100
0000
0100
0000
1010
0100
0010
,
1000
0000
0000
0000
0100
0000
0000
0000
0021
0000
0000
0000
0000
0000
0000
0000
0000
0000
0000
0000
0000
0000
0000
0000
0000
0000
0000
0030
0000
0000
0000
0000
0000
0000
0000
0000
0000
0000
0000
0000
0000
0000
0000
0000
0000
0000
0000
0000
;
