#TITLE:Remotely Combat;
#SUBTITLE:;
#ARTIST:IRON ATTACK!;
#TITLETRANSLIT:;
#SUBTITLETRANSLIT:;
#ARTISTTRANSLIT:;
#CREDIT:;
#BANNER:remote-bn.png;
#BACKGROUND:../fallback-bg.png;
#LYRICSPATH:;
#CDTITLE:;
#MUSIC:Remotely Combat.ogg;
#OFFSET:-0.129;
#SAMPLESTART:99.577;
#SAMPLELENGTH:12.000;
#SELECTABLE:YES;
#BPMS:0.000=200.000,30.500=400.000,33.500=200.000,138.000=100.000,170.000=200.000,486.500=400.000,489.500=200.000;
#STOPS:30.500=0.150
,31.500=0.150
,32.500=0.150
,486.500=0.150
,487.500=0.150
,488.500=0.150
;
#BGCHANGES:;
// cache tags:
#FIRSTBEAT:14.500;
#LASTBEAT:838.750;
#SONGFILENAME:Songs/SSSC PACK/[Zarkonis] - Remotely Combat/Remotely Combat.sm;
#HASMUSIC:1;
#HASBANNER:1;
#MUSICLENGTH:265.920;
// end cache tags

//---------------dance-single - Blank----------------
#NOTES:
     dance-single:
     Blank:
     Challenge:
     14:
     1.000,1.000,0.786,0.478,0.839,1894.000,209.000,127.000,58.000,2.000:

0000
0000
0000
0000
,
0000
0000
0000
0000
,
0000
0000
0000
0000
,
0000
0000
0000
0000
0000
1000
0001
0010
,
0001
0000
1000
0000
0100
1000
0100
1000
1001
0000
0001
0000
0100
0000
0110
0000
,
0010
1000
1100
0200
0000
0310
0001
0010
,
0100
0000
1000
0000
0100
0000
1000
0000
1010
0000
0010
0000
1000
0010
1000
0010
,
0100
0001
0100
0001
0010
0001
0010
0001
1000
0000
4MM4
0000
0000
0000
00M0
0000
,
0000
0M00
0000
3013
1010
0010
0100
0001
,
0011
0010
0100
1000
1100
1000
0010
0100
,
0110
0010
1010
1010
0101
0001
0010
0100
,
1100
1000
0010
0100
0110
0010
1000
0001
,
0011
0010
0110
0110
1100
1000
0001
0100
,
0101
0001
0010
0100
0110
0010
0001
1000
,
1100
0100
0110
0110
0011
0001
0100
0010
,
0110
0000
0100
0000
0010
0000
1000
0000
1010
0000
0010
0000
1000
0010
1000
0000
,
0001
0010
0001
1000
0100
0000
0010
0000
1001
0000
0001
0000
0010
0000
0100
0000
,
0110
0010
0001
1000
1010
0010
0100
0001
,
1001
1000
1100
1100
0110
0010
0001
0100
,
0110
0010
1000
0001
0011
0010
0100
0010
,
0110
0100
1100
1100
1001
0001
0100
0010
,
0110
0010
1000
0100
1100
1000
0001
1000
,
1001
0001
0101
0101
0110
0010
1000
0100
,
1100
1000
0010
0100
0110
0010
1000
0001
,
1000
0100
1000
0100
0010
0001
0010
0001
2002
0000
0000
0000
3003
0000
0022
0000
,
0000
0033
2020
0000
3030
0000
1000
0000
,
0010
1000
0010
0100
0202
0000
0303
2002
,
0000
0000
3003
0000
2200
0000
0000
0000
3300
0000
0001
0000
1000
0100
1000
0000
,
0010
1000
0010
1000
0001
0100
0001
0100
0220
0000
0000
0000
0330
0000
2020
0000
,
0000
3030
0022
0000
0033
0000
0001
0000
,
1000
0100
1000
0001
0202
0000
0303
2200
,
0000
0000
3300
0000
2002
0000
0000
0000
3003
0000
1000
0000
0001
0100
0001
0000
,
1000
0100
1000
0100
0010
0001
0010
0001
2000
0000
0000
0000
0001
0000
0000
0000
,
0001
0000
0000
0000
0001
0000
3000
0000
2002
0000
0000
0000
0020
3033
0000
0000
,
1001
0000
1001
0000
M00M
0000
0000
0000
1MM1
0000
0000
000M
1000
0100
00M0
0000
,
0110
0000
000M
0000
M000
0000
0000
0000
0M00
0000
0000
0000
0010
0000
0001
0000
M101
0000
0000
0000
00M0
0000
0000
0000
0100
000M
0000
0010
0000
0M00
1000
0000
,
0001
0000
00M0
0000
M000
0000
0000
0000
0000
0000
000M
0000
M010
0000
0001
0000
1100
0000
00M0
0000
0000
0000
000M
1000
0000
0000
0M00
0000
0010
0000
0000
0000
,
010M
M000
0010
0000
1000
0M00
0001
00M0
2000
0M00
0000
000M
0000
0M00
3000
00M0
,
0001
0010
0001
1000
0100
1000
0010
0100
0101
0000
0001
1000
0001
0000
1000
0000
,
1100
0000
0010
0100
0000
0010
0000
0001
0000
1000
0100
1000
0010
0100
0010
1000
,
0001
0000
1000
0000
0001
0000
1000
0100
0010
0001
1000
0001
0100
0000
0000
0001
,
0000
0100
0010
1000
0001
1000
0100
0010
0002
0000
1000
0000
0000
0000
1003
0000
,
0010
0000
0100
0000
0001
0000
0010
0000
0001
0000
1000
0100
1000
0000
0010
0000
1001
0000
0000
0000
0000
0000
0000
0000
0001
0000
0000
0000
0010
0000
0000
0000
,
0001
1000
0100
1000
1200
M000
1300
0001
,
0100
0010
1000
0010
0210
00M0
0310
1000
,
0002
0000
0000
2003
0000
0000
3200
0000
2300
0000
0000
0000
3010
0000
1000
0000
,
0001
0010
0001
1000
0102
0M00
0103
0010
,
1000
0001
0010
0001
0021
0000
0032
0000
,
2003
0000
0000
0000
3020
0000
0000
0030
1200
0000
M000
0000
1300
0000
0010
0000
,
1000
0000
0001
0000
0010
0000
0001
0000
1001
0000
1000
0000
0100
1000
0100
0000
,
1000
0010
1000
0010
0100
0001
0100
0001
1000
0000
0000
0000
0100
0000
1000
0000
,
1100
0100
0010
0001
0021
000M
0031
0100
,
0001
1000
0100
2001
0000
3002
0023
0032
,
0203
0320
2030
3200
2300
0000
3020
0000
,
0230
0000
0301
1000
0100
0010
0001
1000
,
0002
0000
0000
0203
0000
0301
0100
0010
,
1000
0001
0010
0100
0020
0000
0100
0M00
,
0000
0000
0000
0000
0100
0000
0M00
0000
0130
0000
0010
0000
0001
0000
0010
0001
,
0010
0001
1000
0010
1000
0010
0100
0001
0100
0000
0010
0000
1000
0000
0100
0000
,
1100
1000
0001
0100
0110
0010
1000
0100
,
1100
1000
1001
1001
0101
0100
0010
0100
,
0110
0010
1000
0100
1100
1000
0001
0100
,
0101
0001
0011
0011
0110
0100
0010
0001
,
1001
1000
0010
1000
1010
0010
0100
0001
,
0011
0010
0110
0110
0011
0001
1000
0010
,
1010
0000
1000
0000
0001
0000
1000
0000
1001
0000
0001
0000
0100
0001
0100
0000
,
0010
1000
0010
1000
0001
0010
0001
0010
0100
0000
1000
0000
0100
0000
0010
0000
,
0110
0100
1000
0001
0101
0100
0001
1000
,
1010
0010
1100
1100
0011
0010
0001
0010
,
0110
0010
0001
0100
0101
0001
1000
0010
,
1010
1000
1001
1001
0101
0100
0001
0010
,
0011
0001
1000
0100
1100
1000
0010
0100
,
0110
0010
1010
1010
0101
0001
0010
0001
,
1100
0000
1000
0000
0001
0000
1000
0000
1001
0000
0001
0000
0100
0000
0010
1000
,
0010
1000
0001
0010
0001
0010
0100
1000
0100
0000
0000
0000
0010
0000
0001
0000
,
1000
0100
1000
0010
0120
0M00
0130
0010
,
1000
0001
1000
0100
0021
000M
0031
0010
,
0210
0000
0000
2300
0000
0000
3020
0000
0230
0000
0000
0000
0310
0000
1000
0000
,
0010
0100
0001
0010
0021
000M
0031
1000
,
0100
1000
0001
0100
0102
0000
2003
0000
,
3200
0000
2300
0000
3002
0000
0103
0010
,
1000
0000
0001
0000
0100
0000
0001
0000
1100
0000
1000
0000
0100
1000
0100
0000
,
0010
0001
0010
0001
1000
0000
1000
0000
2010
0000
00M0
0000
3010
0000
0100
0000
,
0001
1000
0100
1000
2100
0M00
3100
1000
,
0001
0100
0001
2001
0000
3020
0230
0302
,
2003
3200
2300
3002
0023
0000
0230
0000
,
0320
0000
0130
0010
0001
1000
0001
0100
,
0020
0000
0000
0230
0000
0310
1000
0010
,
0100
0001
1000
0001
2000
0000
0001
0000
,
3001
0000
0100
0001
0100
0000
0010
0000
1000
0000
0001
0000
0010
0000
0001
0010
,
0001
0010
0100
1000
0100
1000
0001
0100
0001
0000
1000
0000
1000
0000
0011
0000
,
0100
0000
0100
0000
1010
0000
0001
0000
0001
0000
0100
0001
0100
0000
0010
0000
,
1100
0000
0001
0100
0001
0100
0010
1000
0010
0000
1000
0100
1000
0000
0011
0000
,
0010
0001
0010
0000
1001
0000
1000
0010
1000
0000
0011
0000
0100
0000
0100
0000
,
1010
0000
0001
0000
0100
0001
0100
0001
1000
0000
0100
0000
0100
0000
0011
0000
,
1000
0000
1000
0000
0101
0000
0010
0000
0010
0000
1000
0100
1000
0000
0011
0000
,
0100
0000
1000
0010
1000
0010
0100
0000
0110
0000
0001
0100
0001
0000
1100
0000
,
0001
0010
0001
0000
1010
0000
0100
0010
0100
0000
0110
0000
0010
1000
0010
1000
,
0001
0100
0001
0000
0010
0001
0010
0001
1000
0000
0100
0000
1000
0100
1000
0000
,
0001
0000
0100
0000
0001
0100
0001
0000
0010
0000
0100
0000
0010
0100
0010
0000
,
0100
0000
1000
0000
0010
1000
0010
0000
0100
0000
0001
0000
1000
0100
1000
0000
,
0001
0000
0010
0000
0100
0010
0100
0000
1000
0000
0010
0000
0100
0001
0100
0000
,
0001
0000
1000
0000
0100
1000
0100
0000
0010
0000
0001
0000
0100
0001
0100
0000
,
0010
0000
1000
0000
0100
1000
0100
0000
0010
0000
0001
0000
1000
0010
1000
0000
,
0010
0000
0100
0000
0001
0010
0001
0000
1000
0000
0100
0000
1000
0001
1000
0000
,
0001
0000
0010
0000
0100
0010
0100
0000
0010
0000
0001
0000
1000
0010
1000
0000
,
0001
0100
0001
0000
1000
0100
1000
0000
0001
0000
0100
0000
0010
1000
0001
0000
,
0010
0000
0100
0000
1000
0001
0100
0000
0010
0000
1000
0000
0010
0100
0001
0000
,
0010
0000
0001
0000
1000
0100
0010
0000
0001
0000
1000
0000
0100
1000
0001
0000
,
0010
0000
0001
0000
0010
0001
1000
0000
0001
0000
1000
0000
0010
0100
0001
0000
,
1000
0100
1000
0001
0010
0001
0100
0010
1000
0100
1000
0100
0010
0001
0010
0001
,
1000
0010
1000
0010
0100
0001
0100
0001
1000
0001
1000
0001
0100
0010
0100
0010
,
1000
0010
1000
0010
0100
0001
0100
0001
1000
0100
0010
0001
1000
0001
0100
0010
,
1000
0001
0100
0001
1000
0100
0010
0001
1000
0000
0010
0000
0100
0010
0100
0000
,
0001
1000
0001
0000
0010
0000
0100
0000
1100
0000
1000
0000
0010
0000
0110
0000
,
0100
0001
1001
2000
0000
3001
0010
0100
,
0010
0001
0100
0010
1010
1000
0001
0011
,
0010
0100
1100
1000
0001
0010
0100
1000
,
0010
1000
0010
0000
0100
0001
0100
0001
1000
0000
0100
0000
1000
0000
1001
0000
,
0001
0010
0110
0200
0000
1300
0010
0100
,
0010
0000
1000
0000
0001
0000
0010
0000
0011
0000
0001
0000
1000
0100
1000
0100
,
0010
0001
0010
0001
1000
0010
1000
0010
0100
0000
4MM4
0000
0000
0000
00M0
0000
,
0000
0M00
0000
3013
0200
0000
0000
0000
,
0000
0000
0000
0000
0300
0100
0100
0100
,
0020
1030
0100
0010
0002
1003
0001
1000
,
0010
0000
0000
0020
0000
0000
0030
0000
0000
1000
0000
0000
0001
0000
0010
0000
0100
0000
1000
0000
0000
0020
0000
0000
,
0000
0000
0000
0030
0100
0100
0001
0010
,
0002
0000
0000
0000
0000
1003
0010
0100
,
0001
1000
0100
0000
0010
0000
0001
0000
2000
0000
3020
0000
0230
0000
0302
0000
,
2003
0000
3200
0000
2300
0000
3002
0000
0203
0000
0320
0000
1030
0100
1000
0000
,
0001
0010
0001
0010
0100
1000
0100
1000
0001
0100
0010
1000
0100
0010
0001
1000
,
0100
1000
0001
0100
0020
0000
0000
0000
0000
0000
0000
0000
0030
0000
1000
0010
,
0100
0001
1000
0100
1000
0001
0010
0100
1000
0100
1000
0001
,
0010
0001
1000
0010
0100
0010
1000
0001
0010
0100
1000
0010
,
0100
0010
1000
0100
0010
0001
0010
0001
2000
0000
0000
0000
3010
0000
0100
0000
,
0001
0010
0001
1000
0100
0010
0001
0200
0000
0000
0000
0000
,
0310
0000
1000
0000
0100
0000
1000
0000
0001
0000
0010
0000
0200
0000
0000
0000
0000
0000
0000
0000
0300
0100
0000
0000
,
0100
0000
0100
0000
1000
0000
0010
0000
1000
0010
1000
0001
0100
0001
1000
0100
,
0010
0001
0010
0001
1000
0100
1000
0100
1001
0000
0100
0000
0100
0000
1010
0000
,
0001
0000
0001
0000
0110
0000
1000
0000
1000
0000
0001
0010
0001
0000
0100
0000
,
0100
0000
0001
1000
0001
1000
0010
0100
0010
0100
0001
1000
0001
0000
1100
0000
,
0010
0100
0010
0000
0101
0000
1000
0100
1000
0000
1010
0000
0010
0100
0010
0100
,
0001
0000
0011
0000
0010
0100
0010
0000
1001
0000
0100
0000
0100
0000
0011
0000
,
1000
0000
1000
0000
0101
0000
0010
0000
1000
0000
0100
1000
0100
0000
0010
0000
,
0001
0000
1000
0010
1000
0010
0100
0001
0100
0000
0001
0010
0001
0000
1100
0000
,
0100
1000
0100
0000
0011
0000
1000
0010
1000
0000
0010
0000
1000
0010
1000
0010
,
0100
0001
0100
0001
1000
0100
1000
0100
0010
0001
1000
0010
0100
0001
1000
0100
,
1000
0001
0100
0001
1000
0100
0010
0001
0010
0001
1000
0100
1000
0001
0010
0001
,
1000
0001
1000
0010
0100
0001
1000
0010
0100
0001
1000
0100
0010
0100
0010
0001
,
0100
0010
1000
0100
1000
0010
0100
0001
0010
0100
1000
0010
1000
0010
0100
0001
,
0010
0001
1000
0100
1000
0001
0010
0100
0010
0001
0100
0010
1000
0010
1000
0001
,
0010
0100
1000
0010
0100
0010
1000
0001
0010
0001
1000
0100
1000
0001
0100
0010
,
0100
0001
1000
0001
0010
0100
1000
0001
0200
0000
0320
0000
2030
0000
3002
0000
,
0023
0000
0032
0000
2003
0000
3020
0000
0230
0000
0302
0000
1003
0100
1000
0000
,
0001
0100
0001
0000
1000
0000
0010
1000
1001
0000
0000
0000
0001
0000
0010
0000
,
0201
0000
0000
0310
2010
0000
3001
0201
,
0000
0000
0300
0000
0000
0000
1000
0000
1001
0000
0000
0001
0000
0000
0010
0000
,
0100
0000
0000
4000
0000
0000
3010
0000
0100
0000
0001
0000
1000
0000
0001
0000
,
1000
0010
1000
0000
0001
0100
0001
1000
0100
0010
0001
0100
0010
1000
0001
0010
,
0001
1000
0010
1000
0001
0010
0100
1000
0100
1000
0010
0100
0001
1000
0100
1000
,
0001
0010
0100
0010
0001
0000
1000
0001
1001
0000
0000
0000
0001
0000
0101
0000
,
0000
1000
1100
0000
0001
0011
0000
0001
,
1000
0001
1000
0001
0100
0010
0100
0010
1000
0000
1000
0000
1000
0000
1MM1
0000
,
0000
0000
1MM1
0000
0000
0000
2M02
0000
00M0
0000
0M00
0000
30M3
0000
0001
0100
,
0010
1000
0100
0010
0001
0000
0001
0000
1001
0000
1000
0000
0100
0000
0010
0000
,
0110
0100
1000
0010
1010
1000
0010
0100
,
0101
0001
1001
1001
1100
0100
0010
0001
,
0011
0010
0001
1000
1010
0010
0100
0001
,
0011
0010
0110
0110
1100
1000
0001
0100
,
0101
0001
1000
0100
1100
1000
0010
0100
,
0110
0010
1010
1010
0011
0001
1000
0100
,
1100
0000
1000
0000
0010
0000
0100
0000
0101
0000
0001
0000
0010
0000
0001
0010
,
0001
0010
0100
1000
0100
1000
0001
0100
0010
0000
1000
0000
0010
1000
0010
0000
,
0100
0000
0001
0000
0010
0001
0010
0000
0100
0000
1000
0000
0100
1000
0100
0000
,
0010
0000
0001
0000
0100
0001
0100
0000
0010
0000
1000
0000
0001
1000
0001
0000
,
0010
0000
0100
0000
0010
0100
0010
0000
0100
0000
1000
0000
0100
1000
0100
0000
,
0010
0000
0001
0000
1000
0010
1000
0000
0001
0000
0010
0000
0100
0010
0100
0000
,
1000
0000
0010
0000
0100
0001
0100
0000
0010
0000
1000
0000
0100
1000
0100
0000
,
0010
0000
0001
0000
1000
0001
1000
0000
0010
0000
0100
0000
0001
0010
0001
0000
,
0100
0000
0010
0000
1000
0100
1000
0000
0010
0000
0100
0000
0001
0010
0001
0000
,
1000
0100
1000
0000
0001
0000
0100
0001
1000
0000
0100
0000
0010
0100
1000
0000
,
0001
0000
0010
0000
0100
0010
0001
0000
1000
0000
0001
0000
0100
0010
1000
0000
,
0100
0000
0010
0000
0001
1000
0100
0000
0010
0000
0001
0000
1000
0010
0100
0000
,
0001
0000
0010
0000
0001
0010
0100
0000
1000
0000
0001
0000
0100
0001
1000
0000
,
0001
0100
0010
1000
0100
0010
0001
1000
0001
0100
0001
0100
0010
1000
0010
1000
,
0001
0010
0001
0010
0100
1000
0100
1000
0010
0100
0010
0100
0001
1000
0001
1000
,
0100
0010
0100
0010
0001
0010
0001
0010
0100
1000
0010
0100
0001
1000
0100
1000
,
0001
0100
0001
1000
0010
0100
0001
0010
0100
0000
1000
0000
0010
0000
1000
0000
,
0001
0100
0001
0000
1000
0010
1000
0000
0001
0000
0010
0000
0100
0010
0100
0000
,
1000
0000
0010
0000
0100
0001
0100
0000
0001
0000
1000
0000
0100
1000
0100
0000
,
0010
0000
0001
0000
1000
0001
1000
0000
0010
0000
0100
0000
0001
0010
0001
0000
,
1000
0000
0100
0000
0010
0100
0010
0000
0100
0000
1000
0000
0001
0100
0001
0000
,
1000
0000
0100
0000
1000
0100
1000
0000
0010
0000
0100
0000
0001
0100
0001
0000
,
1000
0000
0100
0000
0010
0100
0010
0000
0100
0000
0010
0000
0001
1000
0001
0000
,
0100
0000
0010
0000
1000
0010
1000
0000
0001
0000
0100
0000
0001
0010
0001
0000
,
1000
0000
0010
0000
1000
0100
1000
0000
0001
0000
1000
0000
0010
1000
0010
0000
,
0100
0001
0100
0000
0001
0000
0010
0001
0100
0000
0010
0000
1000
0100
0010
0000
,
0001
0000
0100
0000
0010
0100
0001
0000
1000
0000
0100
0000
0010
0100
1000
0000
,
0001
0000
0010
0000
0001
1000
0010
0000
0100
0000
0001
0000
0010
0001
1000
0000
,
0100
0000
0010
0000
0100
1000
0001
0000
0100
0000
0010
0000
1000
0100
0010
0000
,
0001
0010
0001
1000
0100
1000
0001
0100
0010
1000
0010
1000
0001
0100
0001
0100
,
0010
1000
0010
1000
0001
0010
0001
0010
0100
1000
0100
1000
0010
1000
0010
1000
,
0001
0010
0001
0010
0100
1000
0100
1000
1001
0000
0001
0000
0010
0000
0110
0000
,
0100
1000
1001
0002
0000
0103
0010
1000
,
0100
1000
0001
0010
0011
0001
1000
1010
,
0010
0100
0101
0001
0010
0001
0100
0010
,
1000
0001
1000
0000
0001
0010
0001
0010
0110
0000
0100
0000
1000
0000
1001
0000
,
0001
0100
0110
0020
0000
0130
0010
1000
,
0001
0010
0001
1000
1001
0010
0100
1001
,
0100
0000
0010
0000
2102
0000
0000
0000
0000
0000
0000
3MM3
0000
0000
0000
0000
;
