#TITLE:Where Dragons Fly;
#SUBTITLE:;
#ARTIST:Rhapsody;
#TITLETRANSLIT:;
#SUBTITLETRANSLIT:;
#ARTISTTRANSLIT:;
#CREDIT:;
#BANNER:wheredragonsfly.jpg;
#BACKGROUND:wheredragonsfly-bg.jpg;
#LYRICSPATH:;
#CDTITLE:maticolottotitle.png;
#MUSIC:wheredragonsfly.mp3;
#OFFSET:0.250;
#SAMPLESTART:79.606;
#SAMPLELENGTH:17.280;
#SELECTABLE:YES;
#BPMS:0.000=160.000,706.000=140.000,709.000=122.500,712.000=105.000;
#STOPS:;
#BGCHANGES:;
// cache tags:
#FIRSTBEAT:1.000;
#LASTBEAT:715.000;
#SONGFILENAME:Songs/mongol/Where Dragons Fly/where dragons fly.sm;
#HASMUSIC:1;
#HASBANNER:1;
#MUSICLENGTH:274.607;
// end cache tags

//---------------dance-single - ----------------
#NOTES:
     dance-single:
     :
     Hard:
     9:
     0.437,0.586,0.324,0.087,0.004,727.000,89.000,24.000,0.000,0.000:
0000
1000
0000
0010
,
1000
0000
0010
0001
,
0000
0010
0100
0000
,
1000
0001
0000
0001
,
0010
0000
0010
0100
,
0000
0100
1000
0000
,
0100
0001
0000
0010
,
1000
0000
0100
1000
,
0000
0010
0001
0000
,
1000
0001
0000
0010
,
0100
0000
0010
0001
,
0000
1000
0001
0000
,
1000
0010
0000
0001
,
0100
0000
0010
1000
,
0000
1000
0100
0000
,
1000
0010
0100
0010
,
0001
0010
0100
0001
,
0000
1000
1000
0000
,
0001
0010
0001
1000
,
0010
0100
0001
0010
,
0000
0100
0100
0000
,
0001
0010
0001
0100
,
1000
0010
1000
0100
,
0000
0001
0001
0000
,
0010
0001
1000
0010
,
0100
0001
1000
0010
,
0000
0100
0110
0000
,
0100
0000
0001
0000
0000
1000
0100
0000
,
0010
0000
0010
0001
,
0000
0001
0010
0000
0100
0000
1000
0000
,
0010
0000
0001
0000
0000
1000
0100
0000
,
0010
0001
1000
0100
,
0010
1000
0001
0000
,
0010
0000
0100
0000
0000
0001
1000
0000
,
0010
0000
0100
0010
,
0000
0100
0010
0000
1000
0000
0001
0000
,
0010
0000
0100
0000
0000
0010
0001
0000
,
0010
0100
1000
0010
,
0001
0100
1000
0000
,
0000
0000
0000
0100
,
0120
1000
0100
0001
,
0100
1000
0200
0000
,
0000
0000
0000
0330
,
2002
0000
0000
0000
0000
0003
0020
0000
,
0000
0030
0100
0000
0002
0000
0000
0000
,
0000
0000
3003
0010
,
2001
0010
0001
0100
,
0001
0010
0002
0000
,
0000
0000
0000
3003
,
0220
0000
0000
0000
0000
0300
2000
0000
,
0000
3000
0001
0000
0200
0000
0000
0000
,
0000
0000
0330
0001
,
1000
0000
0000
0000
,
0000
0000
1001
0100
,
0110
0000
1000
0001
1000
0000
0000
0000
,
0010
0100
1001
0110
,
1000
0100
0001
0000
0010
0000
0000
0100
,
1000
0000
0010
0000
0000
0100
0001
0000
,
0010
0001
0100
0010
,
1000
0010
0100
0000
1001
0000
0010
0000
,
0110
0000
0001
0010
1000
0000
0000
0000
,
0011
0100
1010
0101
,
1000
0100
0001
0000
0010
0000
0000
0100
,
0001
0000
0010
0000
0000
0100
1000
0000
,
0010
0000
1000
0110
,
0000
0000
0000
0000
,
0010
0000
0100
0000
0000
1000
0100
0000
,
0010
0100
1000
0100
,
0000
0001
0010
0000
1000
0000
0001
0000
,
0100
0000
0010
0000
0000
0100
0001
0000
,
0010
0100
1000
0010
,
0100
0000
0001
0000
1000
0000
0010
0100
,
0001
0100
0010
0000
0000
0100
0001
0000
,
0010
0001
0100
0001
,
0000
1000
0010
0000
0100
0000
1000
0000
,
0001
0000
0010
0000
0000
0001
1000
0000
,
0010
0001
0100
0010
,
0001
1000
0200
0000
,
0000
0000
0300
0001
,
0100
0000
0010
0001
1000
0000
0010
0000
,
1000
0100
0010
0000
1000
0000
0001
0010
,
0001
0000
0010
0000
1000
0100
0001
0000
,
0010
0000
0000
1000
,
0000
0001
0010
0000
,
0010
0001
1000
0000
1000
0000
0100
0000
,
0110
0000
0001
0010
1000
0000
0001
0000
,
0010
0100
0010
0000
1000
0000
0001
0010
,
1000
0000
0100
0000
0010
0100
0001
0000
,
0010
0000
0000
0100
,
1000
0000
0010
0100
0001
0000
0010
0000
,
1000
0010
0100
1000
,
0100
0000
0000
0000
,
0000
0000
0000
0000
1001
0100
0010
0001
,
0110
0001
1000
0100
0001
0000
0000
0000
,
0010
0001
0100
1000
0011
0000
1100
0000
,
0001
0010
1000
0000
0200
0000
0000
0001
,
0310
0000
0020
0000
0000
1000
0130
0000
,
2002
0000
0000
3003
0010
0000
0202
0000
,
0000
0303
1000
0100
1001
0010
0001
0010
,
1100
0001
0010
0100
1000
0000
0000
0000
,
0011
0100
1000
0001
1100
0000
0101
0000
,
0001
0010
1000
0000
2100
0000
0000
0010
,
3001
0000
0102
0000
0000
0010
1003
0000
,
0010
0100
0001
1100
,
0000
0001
1000
0000
0010
0000
0000
0000
,
0010
0101
0000
0010
,
1001
0000
0010
1100
,
0000
1000
0011
0000
,
1000
0110
0000
0100
,
1010
0000
0100
0011
,
0000
1000
0011
0100
,
0010
0001
1000
0000
0010
0000
0010
0001
,
0010
0000
0010
0000
0100
1000
0100
0000
,
0001
0000
0001
0010
0100
0000
0100
0000
,
0001
0010
1000
0000
0010
0000
0100
0001
,
0010
0000
0001
0000
1000
0100
1000
0000
,
0001
0000
0010
0100
0110
1000
0100
0001
,
0010
0010
0000
1000
,
1100
0100
0010
0001
0010
0000
0011
0010
,
0100
1000
0100
0000
0110
0001
1000
0001
,
0010
0000
1001
0000
0010
0000
0100
0001
,
1010
0000
0100
0001
1000
0000
0011
0000
,
0100
0010
0001
0000
1100
0000
0010
0000
,
0001
0101
0000
1010
,
0001
0010
0001
0100
1000
0010
0001
1000
,
0001
1000
0100
0010
0001
0010
0001
0100
,
0010
1000
0010
0001
0100
0010
0001
1000
,
0100
0010
0001
1000
0100
1000
0010
0001
,
1000
0010
0001
0010
0100
0001
0010
1000
,
0100
0000
0000
0000
0110
0000
0000
0000
0010
0000
0000
0000
0001
1000
0001
1000
,
0001
0000
0010
0000
0100
0000
0010
0100
,
1000
0100
0001
0010
0001
0010
1000
0100
,
0010
0100
0001
0010
1000
0001
1000
0010
,
1000
0001
1000
0100
0010
0000
1010
0100
,
0001
0010
0001
0100
0010
1000
0100
0001
,
0010
0001
1000
0100
0001
0010
0100
0000
,
0101
0000
0000
0000
0010
0000
0011
1000
,
0001
0010
0100
0001
0010
1000
0001
0100
,
0010
0001
0010
1000
0100
1000
0010
0001
,
0100
0001
0010
0100
0001
0000
1100
0010
,
0001
0100
0010
1000
0100
0010
0001
0010
,
0100
0202
0000
0000
,
0000
0000
0000
0000
,
0000
0000
0303
0000
,
0000
1001
0110
1001
,
0001
0010
1100
0000
0000
0000
0110
0000
,
1001
0000
0110
0000
1001
0000
1000
0010
,
0001
0000
1010
0000
0001
0100
0010
1000
,
0001
0010
0001
1000
0100
0010
0002
0000
,
0000
0000
0103
0000
0110
0000
0010
0001
,
0100
1000
0011
0000
1100
0000
1001
0000
,
0110
0001
1000
0000
0000
0000
0011
0000
,
1010
0000
0101
0000
1100
0000
0001
0100
,
1000
0000
0110
1000
0001
0010
0001
0010
,
0100
0010
0001
1000
0100
0010
0100
1000
,
0010
0001
0100
0000
1100
0000
0000
0000
,
0010
1000
0000
0001
,
0100
0000
0010
0001
,
0000
0100
1000
0000
,
0010
0100
0000
0010
,
0001
0000
0010
1000
,
0000
0100
1000
0000
,
0010
0100
0000
1000
,
0001
0000
0010
0001
,
0000
0001
0100
0000
,
0010
1000
0000
0100
,
0010
0000
0001
0010
,
0000
0000
0100
0000
0010
0000
1000
0100
,
1000
0000
0011
0000
0010
0100
0010
0000
,
1100
0000
0001
1000
0001
0000
0110
0000
,
0100
1000
0100
0000
0011
0000
0010
1000
,
0010
0000
0101
0000
0010
0001
0010
0000
,
1100
0000
0001
0100
0001
0000
1010
0000
,
0100
1000
0100
0000
0011
0000
0010
0100
,
0010
0000
1001
0000
0100
1000
0100
0000
,
0011
0000
0001
1000
0001
0000
0110
0000
,
0001
0010
0001
0000
1100
0000
0010
1000
,
0010
0000
0101
0000
1000
0100
1000
0000
,
0011
0000
1000
0001
1000
0000
0110
0000
;
