#TITLE:Bloodstorm;
#SUBTITLE:;
#ARTIST:Gabba Front Berlin;
#TITLETRANSLIT:;
#SUBTITLETRANSLIT:;
#ARTISTTRANSLIT:;
#CREDIT:;
#BANNER:Bn-Blood.png;
#BACKGROUND:Bg-Blood.png;
#LYRICSPATH:;
#CDTITLE:;
#MUSIC:Bloodstorm (Infared Remix).ogg;
#OFFSET:0.034;
#SAMPLESTART:41.908;
#SAMPLELENGTH:11.980;
#SELECTABLE:YES;
#DISPLAYBPM:245.000;
#BPMS:0.000=122.020,0.000=122.000,32.000=244.700,76.000=244.650,224.000=244.800,288.000=119.700,296.000=124.990,304.000=244.604,336.000=244.640,398.000=240.000,400.000=244.640,492.000=237.000,493.000=244.650,529.000=122.461;
#STOPS:;
#BGCHANGES:;
// cache tags:
#FIRSTBEAT:16.000;
#LASTBEAT:546.000;
#SONGFILENAME:Songs/SPEEEDCOOOORE/Bloodstorm - [Aoreo]/Bloodstorm.sm;
#HASMUSIC:1;
#HASBANNER:1;
#MUSICLENGTH:157.013;
// end cache tags

//---------------dance-single - ----------------
#NOTES:
     dance-single:
     :
     Challenge:
     14:
     0.939,1.000,0.631,0.325,0.446,868.000,99.000,51.000,136.000,7.000:

0000
0000
0000
0000
,
0000
0000
0000
0000
,
0000
0000
0000
0000
,
0000
0000
0000
0000
,
0001
0100
0101
1001
1000
0100
1100
1001
,
0001
0100
0110
1010
1000
0100
0011
0001
,
0100
0010
1010
0110
0100
0001
0011
0110
,
0100
0000
1000
0000
1001
0000
0101
0000
0100
0001
1000
0100
4000
0000
0000
0000
,
3001
0100
0001
0010
0100
0010
0001
1000
,
0010
0000
1000
0000
0010
0000
0100
0001
0100
0000
0001
1000
0001
0000
1000
0100
,
1000
0100
0010
0100
1000
0001
0100
0010
,
0100
0000
0001
0000
1000
0000
0100
0000
1000
0000
0010
0000
0100
0000
0001
1000
,
0100
1000
0001
0100
0010
0100
0001
1000
,
0010
0000
0100
0000
0000
0000
0000
0000
0000
0001
0100
0001
0100
0001
0100
0001
,
0100
0000
0001
0000
1000
0100
1000
0100
1000
0000
0100
0000
1000
0001
1000
0001
,
1000
0000
0001
0000
0100
0001
0100
0001
0100
0000
0001
0000
0010
0000
0100
0000
,
0010
0001
1000
0100
1000
0010
0100
0001
,
1000
0000
0010
0000
0100
0000
0001
0000
0100
0000
0010
0000
1000
0001
1000
0001
,
1000
0001
0010
0100
0010
0001
1000
0100
,
1000
0000
0010
0000
0100
0000
0001
0000
1000
0001
1000
0000
0001
0100
0001
0100
,
0010
0100
0001
0010
0100
1000
0100
0010
,
0001
0100
0220
0330
0202
0303
2002
3003
,
1000
0100
1000
0001
0010
0100
1000
0010
,
0100
0001
0010
0100
1000
0000
0000
0000
0100
1000
0100
1000
0001
0100
0001
0100
,
0010
0100
0001
0010
0100
0010
0001
1000
,
0100
1000
0010
0100
0001
0100
0010
1000
,
0100
0010
0100
1000
0001
0100
0001
1000
,
0010
0000
0100
0000
0010
0000
1000
0010
1000
0000
0010
0000
0100
0000
0001
0010
,
0001
0010
0100
1000
0001
1000
0020
0000
,
0130
0000
0010
0000
1000
0001
1000
0001
1000
0000
0001
0000
0100
0001
0100
0001
,
0100
0010
1000
0100
0010
0100
1000
0001
,
0100
0000
0010
0000
0100
0001
0100
0001
1000
0000
0100
0000
1000
0100
1000
0100
,
0010
0001
0100
0010
0100
0001
0010
0100
,
0010
0000
0001
0000
1000
0000
0100
0000
1000
0000
0001
0000
0100
0001
0100
0001
,
0100
0000
0001
0000
1000
0000
0100
1000
0100
0000
1000
0000
0001
1000
0001
1000
,
0010
0000
0100
0000
0001
1000
0001
1000
0100
0000
1000
0000
0100
1000
0100
1000
,
0001
0000
0100
0000
0010
0100
0010
0100
0001
0000
1000
0000
0100
0010
0100
0010
,
0001
0000
1000
0000
0001
1000
0001
1000
0010
0100
0010
1000
0001
1000
0100
0010
,
0001
0010
0004
0003
0101
0000
0400
0300
,
0110
0000
0000
0000
0000
0000
0000
0000
0010
1000
0010
1000
0001
0100
0010
0100
,
0001
0101
0100
0110
,
0010
0000
1001
0000
1000
0000
2200
3300
,
0100
0110
0010
0011
,
0001
0000
0101
0000
0100
0100
0010
0010
,
1000
1100
0100
1001
,
0001
0000
0010
0001
0010
0000
0110
0000
,
0100
1100
1000
1001
,
0001
0000
0010
0001
1000
0000
0010
0100
,
0001
1000
0000
1000
0100
0000
0110
0000
,
0010
0011
0001
1001
,
1000
1010
0010
0110
,
0100
0000
0101
0000
0001
0000
0010
0001
,
0100
0000
0110
0000
0010
0000
1000
0010
,
0100
0000
0000
0000
0001
0000
0010
0000
0100
0000
0000
0000
1000
0100
1000
0100
,
1000
0001
0100
0000
0001
1000
0010
0000
,
0100
0001
0100
0001
1000
0000
0100
0000
1000
0100
1000
0100
0010
0000
0001
0000
,
0100
0001
1000
0100
0010
0100
1000
0001
,
0100
0010
0100
0001
1000
0100
0010
0100
,
1000
0001
0100
0010
0100
0001
1000
0100
,
1000
0000
0010
0000
0100
0000
0001
0000
0010
0000
0100
0000
1000
0100
1000
0100
,
1000
0100
0010
0100
1000
0001
0100
0010
,
0110
0100
0001
0010
0100
1000
0001
1000
,
1001
0000
0001
0000
0100
0000
0010
0000
1010
0000
1000
0000
0010
1000
0010
1000
,
0001
0100
0001
0100
0010
0000
0000
0000
1000
0001
1000
0001
0100
0010
0100
0001
,
1000
0100
0010
0100
1000
0001
0100
0010
,
0100
0001
1000
0100
0010
0100
1000
0010
,
0100
0001
0100
0010
1000
0001
0010
0100
,
1000
0100
1000
0100
0010
0000
0001
0000
0010
0000
0000
0000
0010
0000
0000
0000
,
0001
0100
0010
0000
1000
0100
0010
0000
,
0100
1000
0010
0000
0100
0001
0010
0000
,
1100
0000
1001
0000
,
0101
0000
0000
0000
0001
1000
0100
1000
,
0020
0000
0000
0000
,
0000
0000
0000
0000
,
0230
0000
0000
0000
,
0000
0000
0000
0000
,
M3MM
0000
0000
0000
,
MMM0
M00M
MMMM
M00M
MMM0
0000
0000
0000
M000
M000
M000
M000
MMMM
0000
0000
0000
,
MMMM
M00M
M00M
M00M
MMMM
0000
0000
0000
MMMM
M00M
M00M
M00M
MMMM
0000
0000
0000
,
MMM0
M00M
M00M
M00M
MMM0
0000
0000
0000
0000
0000
0000
0000
0000
0000
0000
0000
,
0MMM
M000
0MM0
000M
MMM0
0000
0000
0000
MMMM
0MM0
0MM0
0MM0
0MM0
0000
0000
0000
,
MMMM
M00M
M00M
M00M
MMMM
0000
0000
0000
MMM0
M00M
MMM0
M0M0
M00M
0000
0000
0000
,
M00M
MMMM
MMMM
M00M
M00M
0000
0000
0000
0000
0000
0000
0000
0000
0000
0000
0000
,
0000
0000
0000
0000
,
1101
0000
1101
0000
0000
1011
0000
0000
,
1101
0000
0000
0000
2002
3003
0101
0000
,
1001
0000
0000
0000
1100
0000
0000
0000
0100
1000
0100
1000
0001
0000
0000
0000
,
0101
0000
0000
0000
2002
3003
1100
0000
,
0100
0010
0000
0010
0000
0001
0100
0000
,
0101
0000
0000
0000
2002
3003
1100
0000
,
0110
0000
0000
0010
0001
0000
0000
0000
,
0100
0001
0100
0001
1000
0000
0000
0000
2200
0000
3300
0000
0000
0000
0000
0000
,
0100
1100
1000
1001
,
0001
0101
0400
0300
,
0101
0001
1001
1000
,
0100
1000
0010
0000
0440
0330
0000
0000
,
0110
0100
0101
0001
,
1001
0000
1000
0000
4400
3300
0100
0000
,
1101
0000
1011
0000
,
1101
0000
0000
0000
2002
3003
0000
0000
,
1000
0001
0100
0001
0010
0100
1000
0010
,
0100
0000
0001
0000
0100
0001
0100
0001
1000
0000
0100
0000
1100
0000
1000
0000
,
1001
0001
0010
0100
1000
0001
0100
0010
,
0100
0001
1000
0100
1000
0010
0110
0100
,
0101
0001
1000
0100
0010
0100
1000
0001
,
0101
0000
0000
0000
0100
0000
0110
0000
0000
0000
0010
1000
0010
0000
1000
0000
,
0100
0010
0100
1000
0001
0100
0010
0100
,
0001
0100
0001
0100
0001
0000
0000
0000
0404
0000
0303
0000
0220
0000
0330
0000
,
0010
0100
0010
1000
0100
0010
0200
1300
,
0002
1003
0020
0130
0020
1030
0001
0010
,
0100
0010
0001
1000
0100
1000
0020
0130
,
0002
0013
0200
1300
0002
0103
0040
1030
,
0040
0130
0040
1030
0040
0130
0002
0013
,
0200
1300
0004
0103
0020
1030
0400
0310
,
0001
1000
0100
0100
1000
0010
0000
0010
,
0100
0000
0000
0000
0001
0100
0001
0100
0001
0000
0000
0000
2002
0000
3003
0000
,
1000
0100
0010
0100
1000
0001
0400
0310
,
0400
0301
0400
0310
0400
0301
1000
0100
,
0010
0100
1000
0010
0100
0001
4000
3100
,
0010
0100
1000
0001
1000
0010
0400
0301
,
0020
0130
2000
3010
0200
0301
2000
3100
,
0020
0031
0020
0130
0020
0031
0020
0130
,
4000
3010
4000
3100
4000
3010
4000
3001
,
0400
0000
0300
0000
0001
0100
0001
0100
0001
1000
0100
1000
0001
0100
0001
1000
,
0001
1000
0100
0010
0001
0000
0010
0000
0100
0000
0010
0000
0001
0000
1000
0000
,
0010
0100
0001
1000
0010
0100
0001
1000
,
0100
M0M0
0100
0000
0001
0000
0010
0000
0100
0000
0010
0000
0001
0000
1000
0000
,
0100
0000
1000
0000
0010
0000
0100
0000
0001
0000
1000
0000
0100
M0M0
0100
0000
,
0010
0M0M
0010
0000
0001
0000
0100
0000
0010
0000
1000
0000
0100
0000
1000
0000
,
0010
0000
0100
0000
0001
0100
0001
0100
0010
1000
0010
1000
0100
1000
0100
0010
,
0001
0010
0100
1000
0010
0100
0001
0100
0010
1000
0010
0100
0001
0100
0001
1000
,
0100
0010
0001
1000
0001
1000
0100
0010
0001
1000
0100
1000
0001
0000
0000
0000
,
0000
2MMM
0000
3020
,
0000
0000
0230
0000
0000
0302
2003
0000
,
0000
3200
0000
0000
,
0000
0020
0000
0000
,
0000
0000
0330
0000
;
