#TITLE:3y3s;
#SUBTITLE:C-Mod = Ok;
#ARTIST:Seiryu;
#TITLETRANSLIT:;
#SUBTITLETRANSLIT:;
#ARTISTTRANSLIT:;
#CREDIT:;
#BANNER:3y3s bn.png;
#BACKGROUND:3y3s bg.png;
#LYRICSPATH:;
#CDTITLE:zim cdtitle.png;
#MUSIC:3y3s.ogg;
#OFFSET:-0.016;
#SAMPLESTART:100.020;
#SAMPLELENGTH:12.000;
#SELECTABLE:YES;
#BPMS:0.000=95.500,22.000=47.750,23.000=191.000,118.000=382.000,119.000=191.000,150.000=382.000,151.000=191.000,166.000=382.000,170.000=764.000,171.000=382.000,174.000=764.000,175.000=191.000,180.000=382.000,181.000=191.000,181.500=382.000,182.500=191.000,183.000=382.000,184.000=191.000,184.500=364.000,185.500=191.000,186.000=382.000,187.000=191.000,187.500=382.000,188.500=191.000,189.000=382.000,190.000=191.000,191.000=47.750,192.500=95.500,193.500=191.000,196.000=382.000,198.000=95.500,238.000=47.750,240.000=191.000,304.000=95.500;
#STOPS:118.000=0.039
,118.250=0.039
,118.500=0.039
,118.750=0.039
,150.000=0.039
,150.250=0.039
,150.500=0.039
,150.750=0.039
,166.000=0.039
,166.250=0.039
,166.500=0.039
,166.750=0.039
,167.000=0.039
,167.250=0.079
,167.750=0.039
,168.000=0.079
,168.500=0.039
,168.750=0.079
,169.250=0.039
,169.500=0.079
,170.000=0.118
,170.500=0.118
,171.000=0.039
,171.250=0.079
,171.750=0.039
,172.000=0.079
,172.500=0.039
,172.750=0.079
,173.250=0.039
,173.500=0.079
,174.000=0.118
,174.500=0.118
;
#BGCHANGES:;
// cache tags:
#FIRSTBEAT:6.000;
#LASTBEAT:304.000;
#SONGFILENAME:Songs/SSSC PACK/[Zimlord] - 3y3s/3y3s.sm;
#HASMUSIC:1;
#HASBANNER:1;
#MUSICLENGTH:125.701;
// end cache tags

//---------------dance-single - zimlord----------------
#NOTES:
     dance-single:
     zimlord:
     Challenge:
     14:
     1.000,1.000,0.358,0.493,1.000,858.000,45.000,62.000,113.000,0.000:

0000
0000
0000
0000
,
0000
0000
0000
0000
0000
0000
0000
0000
0001
1000
0001
02M0
0000
0310
1000
0100
,
0010
0000
0001
0000
0100
0000
0010
0000
1000
0001
1000
02M0
0000
0310
0001
0100
,
0010
0000
1000
0000
0100
0000
0010
M002
0000
1003
0001
02M0
0000
0310
1000
0001
,
1000
0000
0100
0000
0010
0000
M001
0001
0000
0000
0000
01M0
0100
0000
0000
001M
,
0010
0000
0000
0000
0000
1000
0100
0010
M000
000M
0M00
00M0
0001
0010
0001
0010
,
0001
0100
0001
0100
0010
1000
0010
1000
0010
0100
0010
0100
0001
0010
0001
0010
,
0001
0100
0001
0100
0010
1000
0010
1000
0010
0100
0010
0100
0001
1000
0001
1000
,
0001
0010
0001
0010
0100
1000
0100
1000
0100
0010
0100
0010
0001
1000
0001
1000
,
0001
0010
0001
0010
0100
1000
0100
1000
0100
0010
0100
0010
0001
1000
0100
0010
,
0100
1000
0001
0100
0001
1000
0010
1000
0001
0010
0100
0010
0100
1000
0001
0100
,
0001
0100
0010
1000
0010
0100
0001
1000
0100
0010
0001
1000
0100
1000
0001
0100
,
0010
1000
0001
0100
0001
1000
0100
0010
0001
1000
0100
1000
0001
0100
0001
1000
,
0000
0001
1000
0100
0000
0010
0001
1000
0000
0001
0100
0010
1000
0100
1000
0100
,
0010
0001
0010
0001
1000
0010
0100
0001
1000
0010
1000
0010
0100
0001
1000
0100
,
0010
0001
1000
0100
0010
0001
1000
0010
1000
0001
0100
0010
1000
0010
1000
0001
,
0010
0100
1000
0100
0010
0001
1000
0010
1000
0001
1000
0001
0010
0100
0010
0100
,
1000
0100
0010
0001
0010
0100
1000
0100
0010
0001
0010
0001
1000
0001
0100
0010
,
1000
0001
0100
0001
1000
0010
1000
0100
0010
0001
1000
0100
1000
0001
0010
0001
,
1000
0010
0100
0001
1000
0100
0010
0001
0010
0100
1000
0100
0010
0001
1000
0001
,
1000
0001
0100
0010
0100
0001
0010
0100
0010
0001
1000
0010
1000
0100
0010
0001
,
0000
1000
0010
1000
0000
0001
0100
0001
0000
1000
0100
0010
0001
0100
0000
0001
,
0100
0000
0010
1000
0000
0010
1000
0000
0100
0000
0010
0000
0001
0010
0000
0001
,
0010
0000
0100
1000
0000
0100
1000
0000
0001
0000
0100
0000
001M
1000
0000
0010
,
1000
0000
0001
0100
0000
0001
0100
0000
0010
0000
1000
0000
0100
1000
0000
0100
,
1000
0000
0001
0010
0000
0001
0010
0000
0100
0000
1000
0000
00M1
1000
0000
0100
,
0010
0000
0001
1000
0010
1000
0000
0001
0100
0000
0010
1000
010M
0010
0000
0001
,
1000
0000
0001
1000
0010
0100
0000
0001
1000
0000
0001
1000
010M
0010
0000
0001
,
M100
0010
0000
1000
00M1
0100
0000
0010
1M00
0001
0000
1000
010M
0000
0010
0001
,
10M0
0000
0100
1000
0M01
0000
1000
0000
00M1
1000
0001
1000
0001
0010
0001
0010
,
0100
1000
0100
1000
0002
0103
0002
0103
0020
1030
0200
0310
0001
1000
0100
1000
,
0001
0100
0010
1000
0100
0010
0001
1000
0100
0010
0100
1000
0001
0100
0001
0100
,
0010
1000
0100
0010
0002
0013
0200
1300
0200
0310
0200
1300
0001
0100
0001
1000
,
0010
0100
0001
1000
0100
0010
0001
1000
0010
1000
0001
0010
0001
1000
0100
0010
,
0001
0100
0010
1000
0002
0013
0200
0310
0002
1003
0020
1030
0001
0100
0001
1000
,
0100
0010
0100
0010
0001
1000
0001
0100
0010
1000
0010
0100
0001
1000
0100
0010
,
0001
1000
0100
1000
0002
0013
0002
0103
0020
1030
0002
0103
0010
0000
1000
0100
,
0010
0000
0001
1000
0100
0000
0010
0000
0001
1000
0001
1000
0002
0103
0002
0103
,
0020
1030
0002
1003
0100
0010
0200
0310
0002
1003
0002
0103
0010
0000
1000
0100
,
1000
0000
0001
0100
0010
0000
1000
0000
11MM
0000
0100
0000
0020
0031
0020
0031
,
2000
3100
0020
0031
1000
0010
2000
3010
0200
0301
2000
3100
0010
0000
0001
0100
,
0010
0000
1000
0100
1000
0000
0001
0000
1MM0
0100
0010
0001
1000
0100
0000
0010
,
0001
0000
1000
0010
0000
0100
0001
0000
1000
0000
0100
0000
0010
0001
0000
1000
,
0010
0000
0100
0001
0000
1000
0100
0000
0010
0000
0010
0000
0001
0100
0010
1000
,
0010
0100
0001
1000
0100
0010
0001
0010
0100
1000
0001
0100
0001
0000
1000
0100
,
0020
0000
0000
0000
0031
0100
0020
0000
0000
0000
1030
0001
0200
0000
0000
0000
,
0310
1000
0002
0000
0000
0000
1003
0100
2000
0000
0000
0000
3001
0100
0002
0000
,
0000
0000
0103
0010
0200
0000
0000
0000
0301
1000
0100
0000
000M
M000
0000
00MM
,
0000
0000
0M00
00M0
0000
0000
M010
0000
0000
0000
0001
0000
1000
0000
0001
0000
,
020M
0000
0000
0000
0000
0000
0000
0000
0301
1000
0001
02M0
0000
0310
1000
0100
,
0010
0000
0001
0000
0100
0000
0010
0000
1000
0001
1000
02M0
0000
0310
0001
0100
,
0010
0000
1000
0000
0100
0000
0010
M002
0000
1003
0001
02M0
0000
0310
1000
0001
,
0100
0000
0001
0000
1000
0000
010M
0100
0000
0000
0000
10M0
1000
0000
0000
0M01
,
0001
0000
0000
0000
0000
0100
0010
1000
0100
0010
0001
02M0
0000
0310
1000
0001
,
M101
0000
0011
0000
110M
0000
1010
0000
0010
1000
0001
02M0
0000
0310
1000
0100
,
110M
0000
1010
0000
M101
0000
0011
M002
0000
1003
0001
0200
0000
0310
1000
0001
,
0M11
0000
1010
0000
110M
0000
M011
0010
0M00
0000
00M0
0001
M101
0000
000M
0100
,
M110
0000
00M0
0000
0M00
0010
100M
0100
M000
0000
000M
0010
0M10
0000
00M0
0001
,
M000
0000
0000
0000
0M00
0000
1000
0000
00M0
0000
1000
0000
000M
0000
1000
0000
0001
0100
0001
0100
0010
1000
0010
1000
0100
0010
0100
0010
0001
1000
0001
1000
,
0100
0000
0000
0000
0000
0000
0010
0000
0000
0000
0000
0000
0001
0000
0000
0000
0000
0000
1000
0000
0000
0000
0000
0000
0100
0000
0000
0000
0000
0000
0010
0000
0000
0000
0000
0000
0001
0000
0000
0000
0000
0000
1000
0000
0000
0000
0000
0000
0100
0000
0000
0000
0000
0000
0010
0000
0000
0000
0000
0000
0100
0000
0000
0000
0000
0000
0010
0000
0000
0000
0000
0000
0100
0000
0000
0000
0000
0000
0010
0000
0000
0000
0000
0000
0100
0000
0000
0000
0000
0000
0010
0000
0000
0000
0000
0000
0000
0000
0000
0000
0000
0000
MM00
0000
0000
0000
0000
0000
00M0
0000
0000
0000
00M0
0000
0000
0000
000M
0000
0000
0000
000M
0000
0000
0000
000M
0000
0000
0000
000M
0000
0000
0000
MMMM
0000
0000
0000
0000
0000
0000
0000
000M
0000
0000
0000
000M
0000
0000
0000
000M
0000
0000
0000
00M0
0000
0000
0000
00M0
0000
0000
0000
0M00
0000
0000
0000
M000
0000
0000
0000
0000
0000
0000
0000
0000
0000
0000
0000
0000
0000
0000
0000
0000
0000
0000
0000
0000
0000
0000
0000
0000
0000
0000
0000
,
0011
0001
0100
0110
0000
0010
1000
0100
,
110M
1M10
01M1
M011
,
1100
1000
0010
0110
0000
0100
0001
0010
,
M011
0000
01M1
0000
1M10
0000
110M
0010
,
0000
0001
0100
0010
0000
1000
0100
0010
,
M011
0000
110M
0000
1M10
0000
01M1
0001
,
0000
0000
0000
1M00
1010
0000
0000
10M0
,
1100
0000
0000
0000
0000
0100
0010
0001
,
1001
1000
0010
0110
0100
0001
1000
0100
,
M011
0001
01M1
0100
011M
0010
1M10
1000
,
1100
0100
0010
0110
0100
1000
0001
0100
,
01M1
0001
M011
0010
011M
0100
11M0
1000
,
0000
0001
0100
0010
0000
1000
0100
0010
,
0M02
1003
0100
0010
0002
1003
0010
1000
0002
0103
0001
1000
0200
0310
0200
1300
,
0001
0100
0001
0100
0010
1000
0020
1030
0002
0013
0001
1000
0010
0100
0002
1003
,
0200
0000
0000
0000
03M0
0000
0000
0000
M000
0000
0020
0030
0002
0003
0200
0000
,
M3M0
0000
0000
0000
;
