#TITLE:Party People;
#SUBTITLE:Sexuality Violation;
#ARTIST:Nelly (feat. Fergie);
#TITLETRANSLIT:;
#SUBTITLETRANSLIT:;
#ARTISTTRANSLIT:;
#CREDIT:;
#BANNER:Party People-bn.png;
#BACKGROUND:Party People-bg.png;
#LYRICSPATH:;
#CDTITLE:;
#MUSIC:Party People.ogg;
#OFFSET:-0.026;
#SAMPLESTART:30.736;
#SAMPLELENGTH:26.300;
#SELECTABLE:YES;
#BPMS:0.000=164.000;
#STOPS:;
#BGCHANGES:;
// cache tags:
#FIRSTBEAT:14.500;
#LASTBEAT:484.000;
#SONGFILENAME:Songs/Sexuality Violation 2/Party People - [teejusb]/Party People.sm;
#HASMUSIC:1;
#HASBANNER:1;
#MUSICLENGTH:179.853;
// end cache tags

//---------------dance-single - teejusb----------------
#NOTES:
     dance-single:
     teejusb:
     Challenge:
     16:
     1.000,1.000,0.072,0.189,1.000,1249.000,13.000,34.000,17.000,1.000:
0000
0000
0000
0000
,
0000
0000
0000
0000
,
0000
0000
0000
0000
,
0000
0000
0000
0000
0000
00M0
0M00
00M0
,
0000
1000
0001
0100
0000
0010
0100
0001
,
1000
0000
1100
0001
,
0000
0100
0010
1010
,
0000
0001
0000
0200
,
0020
0000
2000
0000
0000
3330
0001
0000
,
0000
0000
1100
0000
,
0000
0000
1001
0000
,
0000
0000
0101
0000
,
0000
0000
0000
0000
0011
0000
0000
2000
,
3100
0000
1100
0000
,
0000
0020
0031
0000
1001
0000
0000
0200
,
0301
0000
0101
0000
,
0000
2000
3010
0000
1001
0000
0000
0200
,
0310
0000
1010
0000
,
0000
0200
0301
0000
1100
0000
0000
2000
,
3001
0000
0000
0100
0100
0010
1000
0001
,
2000
0000
0000
3000
0200
0000
0000
0300
0020
0000
0000
0030
0002
0000
0000
0003
,
1000
0100
0010
0001
1000
0100
0010
0100
1000
0001
0100
0001
0010
0001
1000
0010
,
0100
0010
1000
0001
0100
0010
0100
0001
0010
0100
1000
0100
1000
0001
0010
0001
,
0100
0010
0100
0010
1000
0001
0100
0010
0100
0001
1000
0010
1000
0100
0010
0100
,
1000
0100
0010
0001
1000
0100
1000
0001
0010
0001
1000
0100
1000
0001
0010
0100
,
1000
1000
0001
1000
0010
0010
1000
0100
,
0100
1000
0001
0001
0100
0010
1000
0001
,
1000
0001
0010
0010
0001
1000
1000
0100
,
0100
0010
0100
1000
0001
0100
0010
1000
,
0001
0100
0010
1000
0001
0010
0100
1000
0100
1000
0001
0010
0001
1000
0100
0010
,
0001
0100
0010
0100
0001
1000
0010
0100
0010
1000
0001
0100
0001
1000
0100
0010
,
0100
1000
0001
0010
0001
1000
0001
0010
0100
1000
0001
1000
0010
0100
0001
1000
,
0010
0100
0001
0010
0100
1000
0100
0010
0100
1000
0001
1000
0001
0100
0010
0100
,
0001
0001
1000
0001
0010
0010
0001
0100
,
0100
0001
1000
1000
0100
0010
0001
1000
,
0001
1000
0010
0010
1000
0001
0001
0100
,
0100
0010
0100
0001
1000
0100
0010
0001
,
1000
1000
0M00
00M0
0M00
0M00
0001
0010
,
0100
1000
0001
1000
0010
0000
0100
0000
,
0001
0100
0001
1000
0010
1000
0001
1000
0100
0010
0100
1000
0001
1000
0100
1000
0000
0000
0000
0000
0000
0000
0000
0000
,
0001
0010
0100
1000
0001
0010
0001
1000
0100
0010
0100
1000
0001
1000
0001
0100
0010
1000
0001
0000
0000
0000
0000
0000
,
1000
0100
1000
0001
0010
0100
1000
0001
0010
0001
1000
0001
1000
0010
0100
0010
1000
0001
1000
0000
0000
0000
0000
0000
,
0010
1000
0010
1000
0001
0100
0001
1000
0001
1000
0100
0010
0100
1000
0001
0010
0100
1000
0001
0000
0000
0000
0000
0000
,
1000
0000
0000
0000
0000
0000
0001
0100
0010
0100
0001
1000
0001
0000
0000
0000
0000
0000
1000
0100
0010
0100
1000
0001
,
1000
0000
0000
0000
0000
0000
0000
0000
0000
0000
0000
0000
0001
0000
0010
0000
0100
0000
0010
0000
0001
0000
1000
0000
0001
0000
0000
0000
0000
0000
0000
0000
0000
1000
0000
0000
0100
0000
0000
0000
0000
0000
1000
0000
0000
0000
0000
0000
,
0001
0001
1000
0100
0010
0000
0100
1000
,
0001
0100
0010
0100
0001
0000
2000
3000
,
0001
1000
0100
0010
0100
0100
0000
0000
,
0010
0001
0010
0100
1000
0001
2000
3000
,
0010
0100
0010
0100
0001
1000
0200
0300
,
0010
0100
1000
0001
0100
0010
2000
3000
,
0001
0000
0000
0000
0000
0000
0100
0010
0100
0001
1000
0010
0100
0000
0000
0000
0000
0000
0001
0010
0100
1000
0001
1000
,
0100
0000
0000
0000
0000
0000
0000
0000
0000
0000
0000
0000
1000
0000
0001
0000
0100
0000
0001
0000
1000
0000
0010
0000
0100
0000
0000
0000
0000
0000
0000
0000
0000
0010
0000
0000
0100
0000
0000
0000
0000
0000
0001
0000
0000
0000
0000
0000
,
1000
0010
0100
0001
1000
0010
0100
0010
1000
0001
0010
0001
0100
0001
1000
0100
,
0010
0100
1000
0001
0010
0100
0010
0001
0100
0010
1000
0010
1000
0001
0100
0001
,
0010
0100
0010
0100
1000
0001
0010
0100
0010
0001
1000
0100
1000
0010
0100
0010
,
1000
0010
0100
0001
1000
0010
1000
0001
0100
0001
1000
0010
1000
0001
0100
0010
,
1000
1000
0001
1000
0100
0100
1000
0010
,
0010
1000
0001
0001
0010
0100
1000
0001
,
1000
0001
0100
0100
0001
1000
1000
0010
,
0010
0100
0010
1000
0001
0010
0100
1000
,
0001
0010
0100
1000
0001
0100
0010
1000
0010
1000
0001
0100
0001
1000
0010
0100
,
0001
0010
0100
0010
0001
1000
0100
0010
0100
1000
0001
0010
0001
1000
0010
0100
,
0010
1000
0001
0100
0001
1000
0001
0100
0010
1000
0001
1000
0100
0010
0001
1000
,
0100
0010
0001
0100
0010
1000
0010
0100
0010
1000
0001
1000
0001
0010
0100
0010
,
0001
0001
1000
0001
0100
0100
0001
0010
,
0010
0001
1000
1000
0010
0100
0001
1000
,
0001
1000
0100
0100
1000
0001
0001
0010
,
0010
0000
0100
0000
0010
0000
0001
0000
1000
0000
0010
0000
0200
0300
0002
0003
,
1000
1000
0100
0010
0100
0100
0010
0001
,
1000
0001
0100
0010
0100
0001
1000
0000
,
0001
1000
0100
1000
0001
0010
0001
1000
0100
0010
0100
1000
0001
0000
0000
0000
0000
0000
0001
0000
0000
0000
0000
0000
,
0001
1000
0010
0100
0001
1000
0001
1000
0100
0010
0100
1000
0001
0010
0100
1000
0001
1000
0100
0000
0000
0000
0000
0000
,
1000
0010
0100
0001
1000
0001
1000
0001
0100
0001
1000
0100
0010
0100
1000
0001
0010
0001
1000
0000
0000
0000
0000
0000
,
0010
1000
0010
1000
0001
0100
0001
1000
0001
1000
0100
0010
0001
0000
0000
0000
0000
0000
0001
0000
0000
0000
0000
0000
,
1000
0100
0010
0100
1000
0010
0100
0010
,
1000
0001
0100
0001
1000
0000
1000
0001
,
0100
0001
1000
0100
0010
0001
1000
0100
,
1000
0001
0100
0010
0100
0001
1000
0000
,
0100
0010
0100
0010
0001
0000
0001
0000
,
1000
0100
1000
0001
1000
0010
0100
0000
,
0010
0100
0010
0100
0010
1000
0001
0000
,
0010
0100
1000
0001
1000
0000
1000
0000
,
0001
0100
0010
0100
0001
0010
0100
0010
,
0001
1000
0001
0100
0010
0000
1000
0000
,
0001
0100
0010
1000
0001
0100
0010
0100
0001
1000
0100
1000
0010
1000
0001
0010
,
0100
0010
0001
1000
0100
0010
0100
1000
0010
0100
0001
0100
0001
1000
0010
1000
,
0100
0010
0100
0010
0001
1000
0100
0010
0100
1000
0001
0010
0001
0100
0010
0100
,
0001
0100
0010
1000
0001
0100
0001
1000
0010
1000
0001
0100
0001
1000
0010
0100
,
0001
0001
1000
0001
0010
0010
0001
0100
,
0100
0001
1000
1000
0100
0010
0001
1000
,
0001
1000
0010
0010
1000
0001
0001
0100
,
0100
0010
0100
0001
1000
0100
0010
0001
,
1000
0100
0010
0001
1000
0010
0100
0001
0100
0001
1000
0010
1000
0001
0100
0010
,
1000
0100
0010
0100
1000
0001
0010
0100
0010
0001
1000
0100
1000
0001
0100
0010
,
0100
0001
1000
0010
1000
0001
1000
0010
0100
0001
1000
0001
0010
0100
1000
0001
,
0010
0100
1000
0010
0100
0001
0100
0010
0100
0001
1000
0001
1000
0100
0010
0100
,
1000
1000
0001
1000
0010
0010
1000
0100
,
0100
1000
0001
0001
0100
0010
1000
0001
,
1000
0001
0010
0010
0001
1000
1000
0100
,
0100
0010
0100
1000
0001
0100
0010
1000
,
0001
0100
0001
0100
0010
1000
0010
0100
0010
0100
0001
1000
0100
1000
0001
0010
0100
1000
0001
0000
0000
0000
0000
0000
,
1000
0100
1000
0100
0010
0001
0010
0100
1000
0100
1000
0001
0100
0001
1000
0010
0100
0001
1000
0000
0000
0000
0000
0000
,
0001
1000
0001
0100
0010
1000
0010
0100
0001
0100
0001
1000
0100
1000
0100
1000
0001
0010
0001
1000
0001
1000
0010
0100
,
0001
0100
0001
0100
0010
1000
0010
0100
0010
0100
0001
1000
0100
1000
0001
0010
0100
1000
0001
0000
0000
0000
0000
0000
,
1000
0100
1000
0001
0010
0001
1000
0001
0100
0010
0100
0001
1000
0010
0100
0001
1000
0001
0100
0000
0000
0000
0000
0000
,
0010
1000
0001
1000
0010
0100
0001
1000
0100
0010
0100
1000
0001
0010
0001
1000
0001
1000
0100
0000
0000
0000
0000
0000
,
0010
0001
1000
0001
1000
0010
1000
0001
0100
0010
0100
0001
1000
0001
0100
0010
0100
0001
1000
0000
0000
0000
0010
0000
,
0100
0000
0001
0000
0010
0000
0100
0000
1000
0000
0001
0000
0100
0000
0010
0000
1000
0000
0002
0000
0000
0003
0000
0000
,
1000
0100
1000
0100
0010
0001
0010
0100
0010
0100
1000
0001
0100
0001
1000
0010
0100
0001
1000
0000
0000
0000
0000
0000
,
0001
0100
0001
0100
0010
1000
0010
0100
0001
0100
0001
1000
0100
1000
0001
0010
0100
1000
0001
0000
0000
0000
0000
0000
,
1000
0001
1000
0100
0010
0001
0010
0100
1000
0100
1000
0001
0100
0001
0100
0001
1000
0010
1000
0000
0000
0000
0000
0000
,
0001
0010
0001
0010
0100
1000
0100
0010
0100
0010
0001
1000
0010
1000
0001
0100
0010
1000
0001
0000
0000
0000
0000
0000
,
1000
0010
1000
0001
0100
0001
1000
0001
0010
0100
0010
0001
1000
0100
0010
0001
1000
0001
0010
0000
0000
0000
0000
0000
,
0100
1000
0001
1000
0100
0010
0001
1000
0010
0100
0010
1000
0001
0100
0001
1000
0001
1000
0010
0000
1000
0000
0001
0000
,
0200
0000
0300
0001
0100
0001
1000
0001
0010
0100
0010
0001
1000
0010
0100
0010
1000
0001
0000
0000
0000
0000
0020
0030
,
0002
0003
2000
3000
0002
0003
2000
3000
0002
0003
2000
3000
0002
0000
0003
0000
2000
0000
0000
3000
0002
0000
0000
0000
,
00M3
0M00
00M0
0M00
M000
0000
0000
0000
,
0000
0000
0000
0000
,
000M
00M0
0M00
00M0
000M
0000
1000
0100
,
0010
0100
1000
0001
1000
0000
2002
0000
,
3003
0000
0000
0000
;

//---------------dance-single - teejusb----------------
#NOTES:
     dance-single:
     teejusb:
     Hard:
     11:
     0.848,1.000,0.072,0.195,0.856,1019.000,13.000,35.000,17.000,1.000:
0000
0000
0000
0000
,
0000
0000
0000
0000
,
0000
0000
0000
0000
,
0000
0000
0000
0000
0000
00M0
0M00
00M0
,
0000
1000
0001
0100
0000
0010
0100
0001
,
1000
0000
1100
0001
,
0000
0100
0010
1010
,
0000
0001
0000
0200
,
0020
0000
2000
0000
0000
3330
0001
0000
,
0000
0000
1100
0000
,
0000
0000
1001
0000
,
0000
0000
0101
0000
,
0000
0000
0000
0000
0011
0000
0000
2000
,
3100
0000
1100
0000
,
0000
0020
0031
0000
1001
0000
0000
0200
,
0301
0000
0101
0000
,
0000
2000
3010
0000
1001
0000
0000
0200
,
0310
0000
1010
0000
,
0000
0200
0301
0000
1100
0000
0000
2000
,
3001
0000
0000
0100
0100
0010
1000
0001
,
2000
0000
0000
3000
0200
0000
0000
0300
0020
0000
0000
0030
0002
0000
0000
0003
,
1000
0100
0010
0001
1000
0100
0010
0100
1000
0001
0100
0001
0010
0001
1000
0010
,
0100
0010
1000
0001
0100
0010
0100
0001
0010
0100
1000
0100
1000
0001
0010
0001
,
0100
0010
0100
0010
1000
0001
0100
0010
0100
0001
1000
0010
1000
0100
0010
0100
,
1000
0100
0010
0001
1000
0100
1000
0001
0010
0001
1000
0100
1000
0001
0010
0100
,
1000
1000
0001
1000
0010
0010
1000
0100
,
0100
1000
0001
0001
0100
0010
1000
0001
,
1000
0001
0010
0010
0001
1000
1000
0100
,
0100
0010
0100
1000
0001
0100
0010
1000
,
0001
0100
0010
1000
0001
0010
0100
1000
0100
1000
0001
0010
0001
1000
0100
0010
,
0001
0100
0010
0100
0001
1000
0010
0100
0010
1000
0001
0100
0001
1000
0100
0010
,
0100
1000
0001
0010
0001
1000
0001
0010
0100
1000
0001
1000
0010
0100
0001
1000
,
0010
0100
0001
0010
0100
1000
0100
0010
0100
1000
0001
1000
0001
0100
0010
0100
,
0001
0001
1000
0001
0010
0010
0001
0100
,
0100
0001
1000
1000
0100
0010
0001
1000
,
0001
1000
0010
0010
1000
0001
0001
0100
,
0100
0010
0100
0001
1000
0100
0010
0001
,
1000
1000
0M00
00M0
0M00
0M00
0001
0010
,
0100
1000
0001
1000
0010
0000
0100
0000
,
0001
1000
0010
0100
0001
1000
0000
0000
,
0001
0010
0100
1000
0010
0100
0001
0000
,
1000
0010
0100
0001
1000
0100
1000
0000
,
0001
1000
0100
0010
0100
1000
0001
0000
,
1000
0000
0000
0001
1000
0010
0100
0000
0000
0001
0010
0100
,
1000
0000
0000
0000
0000
0000
0000
0000
0000
0000
0000
0000
0100
0000
0000
0000
0010
0000
0000
0000
0001
0000
0000
0000
1000
0000
0000
0000
0000
0000
0000
0000
0000
1000
0000
0000
0100
0000
0000
0000
0000
0000
1000
0000
0000
0000
0000
0000
,
0001
0001
1000
0100
0010
0000
0100
1000
,
0001
0100
0010
0100
0001
0000
2000
3000
,
0001
1000
0100
0010
0100
0100
0000
0000
,
0010
0001
0010
0100
1000
0001
2000
3000
,
0010
0100
0010
0100
0001
1000
0200
0300
,
0010
0100
1000
0001
0100
0010
2000
3000
,
0001
0000
0000
0100
0010
1000
0100
0000
0000
0010
0001
1000
,
0100
0000
0000
0000
0000
0000
0000
0000
0000
0000
0000
0000
1000
0000
0000
0000
0001
0000
0000
0000
1000
0000
0000
0000
0010
0000
0000
0000
0000
0000
0000
0000
0000
0010
0000
0000
0100
0000
0000
0000
0000
0000
0001
0000
0000
0000
0000
0000
,
1000
0010
0100
0001
1000
0010
0100
0010
1000
0001
0010
0001
0100
0001
1000
0100
,
0010
0100
1000
0001
0010
0100
0010
0001
0100
0010
1000
0010
1000
0001
0100
0001
,
0010
0100
0010
0100
1000
0001
0010
0100
0010
0001
1000
0100
1000
0010
0100
0010
,
1000
0010
0100
0001
1000
0010
1000
0001
0100
0001
1000
0010
1000
0001
0100
0010
,
1000
1000
0001
1000
0100
0100
1000
0010
,
0010
1000
0001
0001
0010
0100
1000
0001
,
1000
0001
0100
0100
0001
1000
1000
0010
,
0010
0100
0010
1000
0001
0010
0100
1000
,
0001
0010
0100
1000
0001
0100
0010
1000
0010
1000
0001
0100
0001
1000
0010
0100
,
0001
0010
0100
0010
0001
1000
0100
0010
0100
1000
0001
0010
0001
1000
0010
0100
,
0010
1000
0001
0100
0001
1000
0001
0100
0010
1000
0001
1000
0100
0010
0001
1000
,
0100
0010
0001
0100
0010
1000
0010
0100
0010
1000
0001
1000
0001
0010
0100
0010
,
0001
0001
1000
0001
0100
0100
0001
0010
,
0010
0001
1000
1000
0010
0100
0001
1000
,
0001
1000
0100
0100
1000
0001
0001
0010
,
0010
0000
0100
0000
0010
0000
0001
0000
1000
0000
0010
0000
0200
0300
0002
0003
,
1000
1000
0100
0010
0100
0100
0010
0001
,
1000
0001
0100
0010
0100
0001
1000
0000
,
0001
0010
0100
1000
0001
0000
0001
0000
,
0001
0100
0010
0100
0001
1000
0100
0000
,
0010
0100
1000
0001
0100
0010
1000
0000
,
0001
0010
0100
1000
0001
0000
0001
0000
,
1000
0100
0010
0100
1000
0010
0100
0010
,
1000
0001
0100
0001
1000
0000
1000
0001
,
0100
0001
1000
0100
0010
0001
1000
0100
,
1000
0001
0100
0010
0100
0001
1000
0000
,
0100
0010
0100
0010
0001
0000
0001
0000
,
1000
0100
1000
0001
1000
0010
0100
0000
,
0010
0100
0010
0100
0010
1000
0001
0000
,
0010
0100
1000
0001
1000
0000
1000
0000
,
0001
0100
0010
0100
0001
0010
0100
0010
,
0001
1000
0001
0100
0010
0000
1000
0000
,
0001
0100
0010
1000
0001
0100
0010
0100
0001
1000
0100
1000
0010
1000
0001
0010
,
0100
0010
0001
1000
0100
0010
0100
1000
0010
0100
0001
0100
0001
1000
0010
1000
,
0100
0010
0100
0010
0001
1000
0100
0010
0100
1000
0001
0010
0001
0100
0010
0100
,
0001
0100
0010
1000
0001
0100
0001
1000
0010
1000
0001
0100
0001
1000
0010
0100
,
0001
0001
1000
0001
0010
0010
0001
0100
,
0100
0001
1000
1000
0100
0010
0001
1000
,
0001
1000
0010
0010
1000
0001
0001
0100
,
0100
0010
0100
0001
1000
0100
0010
0001
,
1000
0100
0010
0001
1000
0010
0100
0001
0100
0001
1000
0010
1000
0001
0100
0010
,
1000
0100
0010
0100
1000
0001
0010
0100
0010
0001
1000
0100
1000
0001
0100
0010
,
0100
0001
1000
0010
1000
0001
1000
0010
0100
0001
1000
0001
0010
0100
1000
0001
,
0010
0100
1000
0010
0100
0001
0100
0010
0100
0001
1000
0001
1000
0100
0010
0100
,
1000
1000
0001
1000
0010
0010
1000
0100
,
0100
1000
0001
0001
0100
0010
1000
0001
,
1000
0001
0010
0010
0001
1000
1000
0100
,
0100
0010
0100
1000
0001
0100
0010
1000
,
0001
0100
0010
1000
0001
0010
0100
0010
0001
1000
0000
0000
,
0010
0100
0010
1000
0001
0010
0100
1000
0001
1000
0000
0000
,
0001
0010
0100
1000
0001
0100
0010
0100
0001
0010
0100
0010
,
0001
1000
0001
0100
0010
0100
0001
0010
0100
1000
0000
0000
,
0010
0100
0001
0010
0001
1000
0010
0100
0001
1000
0000
0001
,
1000
0100
0010
0100
1000
0001
1000
0001
0010
0100
0000
0000
,
0020
0030
0001
0100
0010
0100
0001
1000
0100
0010
0000
0001
,
0100
0000
0001
0000
0010
0000
0100
0000
1000
0000
0001
0000
0100
0000
0010
0000
1000
0000
0002
0000
0000
0003
0000
0000
,
1000
0100
0010
0100
1000
0001
0100
0010
0100
0001
0000
0000
,
1000
0010
0100
0010
1000
0001
0010
0100
0010
0001
0000
0000
,
1000
0100
1000
0001
0010
0001
1000
0010
0100
0001
0000
1000
,
0010
0100
0010
1000
0001
0010
0100
0010
0001
1000
0000
0001
,
0100
0010
0100
0001
1000
0100
0010
0100
1000
0010
0000
0100
,
0001
1000
0001
0100
0010
0100
0001
0010
0100
0010
0000
0000
,
0200
0000
0300
0000
1000
0000
0100
0000
0010
0000
0100
0000
1000
0000
0001
0000
0100
0000
0010
0000
0000
0000
0200
0300
,
0002
0003
2000
3000
0002
0003
2000
3000
0002
0003
2000
3000
0002
0000
0003
0000
2000
0000
0000
3000
0002
0000
0000
0000
,
00M3
0M00
00M0
0M00
M000
0000
0000
0000
,
0000
0000
0000
0000
,
000M
00M0
0M00
00M0
000M
0000
1000
0100
,
0010
0100
1000
0001
1000
0000
2002
0000
,
3003
0000
0000
0000
;
