#TITLE:Revolution Deathsquad;
#SUBTITLE:Inhuman Rampage (2006);
#ARTIST:DragonForce;
#TITLETRANSLIT:;
#SUBTITLETRANSLIT:;
#ARTISTTRANSLIT:;
#CREDIT:;
#BANNER:revolutiondeathsquad-bn.png;
#BACKGROUND:revolutiondeathsquad-bg.png;
#LYRICSPATH:;
#CDTITLE:!cdtitle.png;
#MUSIC:DragonForce - 02 - Revolution Detahsquad.mp3;
#OFFSET:-0.280;
#SAMPLESTART:294.777;
#SAMPLELENGTH:12.000;
#SELECTABLE:YES;
#BPMS:0.000=250.000,32.000=200.000;
#STOPS:;
#BGCHANGES:;
// cache tags:
#FIRSTBEAT:0.000;
#LASTBEAT:1571.750;
#SONGFILENAME:Songs/Astronomic Metal Collection/Revolution Deathsquad (Puppet)/deathsquad.sm;
#HASMUSIC:1;
#HASBANNER:1;
#MUSICLENGTH:473.004;
// end cache tags

//---------------dance-single - ----------------
#NOTES:
     dance-single:
     :
     Hard:
     14:
     1.000,1.000,1.000,0.507,1.000,4264.000,1122.000,240.000,0.000,39.000:
1001
0001
0010
0010
0100
0100
1000
1000
,
0001
0001
0100
0100
0010
0010
1001
2002
,
0000
0000
3003
0100
0000
0000
0010
0000
0000
0010
0000
0000
1000
0000
0000
1000
0000
0000
0001
0000
0000
0001
0000
0000
,
1000
0000
0100
0000
0010
0000
0001
0000
1000
0000
0100
0000
0010
0000
0001
0000
1000
0000
0100
0000
0010
0000
0001
0000
1100
0000
0000
0000
0000
2200
0000
0000
,
0000
0000
0000
3300
0001
0000
0000
0000
0001
0000
0000
0000
1000
0000
0000
0000
1000
0000
0000
0000
0010
0000
0000
0000
0010
0000
0000
0000
0100
0000
0000
0000
,
0100
0001
0001
1000
1000
0010
0010
0202
,
0000
0000
0303
0000
1001
0000
0000
0000
0101
0000
0000
0000
0011
0000
0000
0000
0110
0000
0000
0000
1010
0000
0000
0000
1100
0000
0000
0000
0000
0101
0000
0000
,
0000
0000
0000
0000
0101
0000
0000
0000
0000
0000
0000
0000
0000
0202
0000
0000
0000
0000
0000
0000
0000
0000
0000
0000
0000
0000
0000
0000
0000
0000
0000
0000
,
0000
0000
0000
0000
0000
0000
0000
0000
0000
0000
0000
0000
0000
0000
0000
0000
0000
0000
0000
0000
0000
0000
0000
0000
0000
0000
0000
0000
0000
0000
0000
0303
,
0010
1000
0100
0010
1000
0010
1000
0010
0001
1000
0001
0010
0001
0010
0100
1000
,
0010
0100
0001
1000
0001
1000
0001
0100
0001
1000
0100
0010
0001
0010
1000
0001
,
1100
0000
1001
0000
0010
0001
1100
0000
0101
0000
1001
0000
0010
0100
1010
0000
,
0110
0000
0000
0000
0000
0000
1001
0000
0000
0000
0000
0000
0010
0000
0000
0100
0000
0000
0011
0000
0000
0000
0000
0000
1001
0000
0000
0000
0000
0000
1010
0000
0000
0000
0000
0000
0100
0000
0010
0000
0001
0000
0100
0000
0010
0000
0001
0000
,
1100
0010
1000
0010
0100
0001
1000
0010
0001
0100
0010
1000
0001
0100
0001
1000
,
0100
0010
0001
0100
0010
0100
0001
0010
1000
0001
1000
0010
1000
0001
1000
0100
,
1001
0000
0101
0000
1000
0010
1001
0000
0110
0000
0011
0000
1000
0100
1010
0000
,
0001
0000
0100
0000
0010
0000
1000
0000
0100
0000
0010
0000
0001
0000
0000
1000
0000
0000
0001
0000
0100
0000
0010
0000
1000
0000
0001
0000
0010
0000
0100
0000
0000
0001
0000
0000
0100
0000
0010
0000
1000
0000
0100
0000
0000
0010
0000
0000
,
0001
1000
0010
0100
0001
0100
0001
0100
0010
1000
0010
1000
0100
0001
0010
0100
,
1000
0100
0010
0100
0010
0001
1000
0010
0100
0001
1000
0100
0010
0001
1000
0001
,
1010
0000
1100
0000
0010
0001
0110
0000
1001
0000
0011
0000
0100
0010
1100
0000
,
0010
0000
0100
0000
0001
0000
1000
0000
0010
0000
0100
0000
0001
0000
0000
1000
0000
0000
0001
0000
0000
1000
0000
0000
0001
0000
1000
0000
0100
0000
0010
0000
0001
0000
1000
0000
0010
0000
0000
0100
0000
0000
0010
0000
0000
0100
0000
0000
,
1000
0100
0001
0100
0010
1000
0010
1000
0100
0001
1000
0010
0100
1000
0001
0100
,
0001
1000
0100
0010
0001
1000
0100
0010
0001
1000
0010
0100
0001
1000
0001
0100
,
0001
1000
0001
1000
0001
1000
0001
1000
0001
1000
0001
1000
0001
1000
0001
1000
,
0010
1000
0010
1000
0010
1000
0010
0100
0010
0100
0010
0100
0010
0001
0010
0001
,
0220
0000
0000
0000
,
2332
0000
0000
0000
0000
0000
0000
0000
0000
0000
0000
0000
0000
0000
0000
0000
0000
0000
0000
0000
0000
0000
0000
0000
0000
0000
0000
0000
0000
0000
0000
0000
0000
0000
0000
0000
0000
0000
0000
0000
3003
0000
0000
0000
0000
0000
0000
0000
0000
0000
0000
0000
0000
0000
0202
0000
0000
0000
0000
0000
0000
0000
0000
0000
0000
0000
0000
0000
0000
0000
0000
0000
0303
0000
0000
0000
0000
0000
0000
0000
0000
0000
0000
0000
0000
0000
0000
0000
0000
0000
0000
0000
0000
0000
0000
0000
0000
0000
0000
0000
0000
0000
0000
0000
0000
0000
0000
0000
0000
0000
0000
0000
0000
0000
0000
0000
0000
0000
0000
0000
0000
0000
0000
0000
0000
0000
0000
0000
0000
0000
0000
0000
0000
0000
0000
0000
0000
0000
0000
0000
0000
0000
0000
0000
0000
0000
0000
0000
0000
0000
0000
0000
0000
0000
0000
0000
0000
0000
0000
0000
0000
0000
0000
0000
0000
0000
0000
0000
0000
0000
0000
0000
0000
0000
0000
0000
0000
0000
0000
0000
0000
0000
0000
0000
0000
0000
0000
0000
0000
0000
0000
0000
,
0011
0000
0000
0011
0000
0000
0000
0000
0000
1100
0000
0000
1100
0000
0000
0000
0000
0000
1000
0001
1000
0001
0100
0000
,
1010
0000
0000
1010
0000
0000
0000
0000
0000
0101
0000
0000
0101
0000
0000
0000
0000
0000
1000
0010
1000
0010
0100
0000
,
1001
0010
1000
0010
1000
0010
0100
0001
0100
0001
0100
0001
0010
0100
0010
0001
,
2000
0000
0000
0000
0000
0000
0000
0000
0000
0000
0000
0000
0000
0000
0000
3000
,
1001
0000
0101
0000
0010
1000
0010
0000
1010
0000
1001
0000
0010
0001
0010
0000
,
0101
0000
1100
0000
0010
0100
0001
0000
1001
0000
1100
0000
0010
0100
0010
0000
,
1010
0000
0110
0000
1000
0001
1000
0000
0011
0000
1001
0000
0001
0010
0100
0000
,
1010
0000
0011
0000
1000
0100
0010
0000
1000
0010
1000
0000
0002
0103
0010
0000
,
1001
0000
0110
0000
1000
0100
0010
0000
1010
0000
0011
0000
0100
0010
1000
0000
,
0101
0000
0011
0000
0001
1000
0100
0000
0010
0100
0010
0000
1100
0000
1010
0000
,
0001
0100
0001
0000
1010
0000
1001
0000
0001
0100
0001
0000
1001
0000
0011
0000
,
0100
1000
0100
1000
0001
0010
0001
0010
1000
0100
0010
0100
0010
0100
0010
0100
,
1001
0010
1000
0010
1000
0010
0001
1000
0010
0001
1000
0001
1000
0010
0001
0100
,
0001
1000
0010
0100
1000
0010
1000
0001
1000
0100
0010
0001
1000
0100
0010
0001
,
0010
0100
1000
0010
0100
0001
1000
0100
1000
0010
0100
0001
1000
0001
0100
0010
,
1000
0000
0000
0010
0000
0000
0100
0000
0000
0001
0000
0000
2000
0000
3000
0010
0000
0000
0001
0000
0000
1000
0000
0000
0001
0000
0000
1000
0000
0000
0001
0000
0000
0010
0000
0000
0100
0000
0000
1000
0000
0000
0010
0000
0000
0000
0000
0000
,
1001
0000
0101
0000
0010
1000
0010
0000
1100
0000
0110
0000
0001
1000
0001
0000
,
0101
0000
1001
0000
0010
0100
0010
0000
1010
0000
1100
0000
0100
0001
0100
0000
,
1010
0100
0001
0100
0001
0100
0001
0100
0001
0100
0001
0100
0001
0010
0100
1000
,
0101
0000
0000
0000
0000
0000
0100
0000
0000
0000
0000
0000
0101
0000
0000
0000
0000
0000
0100
0000
0000
0000
0000
0000
0101
0000
0000
0010
0000
0000
0001
0000
0000
0100
0000
0000
2000
0000
3000
0010
0000
0000
0001
0000
0000
0100
0000
0000
,
1010
0000
1001
0000
0010
0001
0100
0000
1001
0000
0011
0000
0100
0010
1000
0000
,
0110
0000
1001
0000
0100
1000
0100
0000
0110
0000
0101
0000
0001
1000
0001
0000
,
0101
0000
0110
0000
0001
0010
0001
0000
1010
0000
0011
0000
0100
1000
0010
0000
,
0101
0000
1001
0000
0010
1000
0001
0000
0010
1000
0010
1000
0100
0010
0001
1000
,
0110
0000
0101
0000
0001
0010
0100
0000
1010
0000
1001
0000
0010
0100
0010
0000
,
1100
0000
1001
0000
0010
0001
0100
0000
1001
0000
0011
0000
0100
0010
1000
0000
,
0011
0000
0101
0000
0010
1000
0010
0000
0110
0000
1100
0000
0010
0001
0010
0000
,
0001
0010
0100
1000
0001
0010
0100
1000
0001
0010
0100
1000
0101
0000
0101
0000
,
1001
0000
0011
0000
0010
1000
0100
0000
1010
0000
1001
0000
0100
1000
0100
0000
,
0110
0000
0011
0000
1000
0001
0010
0000
1100
0000
0110
0000
1000
0100
0010
0001
,
1100
0000
1100
0000
0001
1100
0000
1100
,
0000
0000
0010
0001
0010
0001
0010
0001
0010
0100
1000
0001
0110
0000
1000
0000
,
0101
0000
0001
0000
1001
0000
1000
0000
1010
0000
0010
0000
0110
0000
0100
0010
,
1001
0000
0001
0000
0011
0000
0010
0000
1010
0000
1000
0000
1001
0000
0001
0100
,
0010
0000
0001
0000
0100
0000
0010
0000
1000
0000
0001
0000
0100
0000
0000
0010
0000
0000
0001
0000
0100
0000
0010
0000
1000
0000
0100
0000
0010
0000
0001
0000
1000
0000
0010
0000
0100
0000
0001
0000
1000
0000
0010
0000
0000
0001
0000
0000
,
1000
0100
0010
0001
1000
0010
0100
0001
1000
0100
0010
0001
1000
0010
0100
0001
,
2200
0000
3300
0000
0000
0000
0000
0000
0000
0000
0000
0000
0000
0000
0000
0000
0000
0000
0000
0000
0000
0000
0000
0000
0000
0000
0000
0000
0000
0000
0000
0202
,
0000
0303
0000
0000
0000
0000
0000
0000
,
1001
0010
0100
0001
1100
0010
0001
0010
1100
0000
0010
0000
0101
0000
0010
0001
,
1100
0000
0000
0010
0000
0000
0101
0000
0000
0010
0000
0000
1100
0000
0000
0010
0000
0000
0101
0000
0000
1000
0100
0010
,
1001
0000
0000
0100
0000
0000
0100
0000
0000
1001
0000
0000
0010
0000
0000
0010
0000
0000
1001
0000
0000
0100
0010
0100
,
1001
0010
0010
1001
0100
0100
1001
0010
,
0100
1000
0100
1000
0010
0001
0010
0001
0100
0010
0100
0010
1000
0001
1000
0001
,
1100
1100
1100
1100
,
0110
0000
0101
0000
0010
0001
0100
0000
1001
0000
1100
0000
0100
0001
0100
0000
,
0011
0000
1010
0000
0100
0001
0100
0000
1001
0000
1100
0000
1000
0001
0010
0000
,
1100
0010
0001
0010
0001
0010
1001
0010
0100
0010
0100
0010
1100
0010
0001
0010
,
1001
0010
0100
0010
1100
0010
0001
0010
1001
0010
0100
0010
1100
0010
0001
0010
,
1001
0100
0001
0000
1100
0000
0101
0000
0001
1000
0010
0000
1000
0100
0001
0010
,
0100
1000
0001
1000
0001
1000
0001
1000
0001
1000
0001
1000
0001
1000
0001
1000
,
0001
0010
0100
0000
1010
0000
1001
0000
0010
0100
0010
0000
0011
0000
0101
0000
,
0010
0001
0010
0001
0100
1000
0010
0001
0010
0001
0100
0010
1000
0100
0010
0001
,
1100
0000
1001
0000
0010
0001
0100
0000
1001
0000
0110
0000
0001
1000
0001
0000
,
0100
0010
1000
0000
0011
0000
0101
0000
0010
1000
0100
0000
0011
0000
1010
0000
,
0100
0010
0100
0000
1000
0001
0100
0000
1010
0000
0110
0000
0010
1000
0001
0000
,
1100
0000
1001
0000
0001
0010
0100
0000
0011
0000
1100
0000
0010
0100
0010
0100
,
1001
0010
0100
0010
0100
0010
1001
0100
0010
0100
0010
0100
1001
0010
0100
0010
,
1001
0100
0010
0100
0010
0100
1001
0010
0100
0010
0100
0010
1001
0010
0100
0010
,
1001
0100
0001
0100
0010
1000
0100
0010
1000
0010
0100
0001
0100
0010
1000
0010
,
0001
0010
0100
1000
0010
0100
0001
1000
0100
0010
0001
1000
0010
0100
0001
1000
,
0011
0101
1001
0011
0101
1001
1100
1010
,
0110
0000
1010
0000
1001
0000
0101
0000
0220
0330
0011
0000
1001
0000
1100
0000
,
0110
1010
0011
1001
0101
0110
1010
1001
,
0101
0000
1000
0010
1000
0001
0100
0001
0100
0010
1000
0010
0200
0301
0100
0010
,
1100
0000
0000
1001
0000
0000
1000
0010
0100
0001
0000
0000
0011
0000
0000
0110
0000
0000
0001
0010
0100
1000
0000
0000
,
0101
0000
0000
0000
0000
0000
1100
0000
0000
0000
0000
0000
0001
0000
0100
0000
0010
0000
1000
0000
0000
0000
0000
0000
0110
0000
0000
0001
0000
0000
1000
0000
0000
0001
0000
0000
1000
0000
0000
0001
0000
0000
1000
0000
0000
0001
0000
0000
,
2000
0000
0000
0000
0000
0000
0000
3000
0200
0000
0000
0300
0002
0000
0000
0000
0000
0000
0003
0000
0200
0000
0000
0300
0020
0000
0000
0030
2000
0000
0000
3000
,
0002
0000
0000
0000
0000
0003
0000
0002
0000
0000
0000
0003
0000
0002
0000
0000
0000
0000
0000
0003
0200
0000
0000
0300
0020
0000
0000
0030
2000
0000
0000
3000
,
0022
0000
0033
0000
,
0000
0000
0000
0000
0101
0000
0000
0000
0101
0000
0000
0000
1001
0000
0000
0000
1001
0000
0000
0000
1010
0000
0000
0000
2020
0000
0000
0000
0000
0000
0000
3030
,
2002
0000
0000
0000
0000
0000
0000
0000
0000
0000
0000
0000
0000
0000
0000
0000
0000
0000
0000
0000
0000
0000
0000
0000
0000
0000
0000
0000
0000
0000
0000
3003
,
0101
0000
1001
0000
0010
1000
0100
0000
0011
0000
0110
0000
1000
0100
1000
0000
,
0011
0000
1001
0000
0100
0001
0100
0000
1100
0000
0110
0000
1000
0010
0100
0000
,
0011
0000
0101
0000
1000
0100
0010
0000
1001
0000
1010
0000
0100
0001
1000
0000
,
0110
0000
0011
0000
0100
1000
0010
0000
0101
0000
1100
0000
0002
1003
0010
0000
,
1100
0000
1010
0000
0100
0001
0100
0000
1001
0000
0101
0000
0010
0100
0001
0000
,
0011
0000
0110
0000
0010
1000
0001
0000
1001
0000
1100
0000
0001
0100
0010
0000
,
0101
0000
0011
0000
0100
0010
0100
0000
1010
0000
0110
0000
1000
0100
0010
0000
,
0001
0100
0001
1000
0001
1000
0010
0100
0001
1000
0010
0100
0001
1000
0010
0100
,
1010
0001
0100
0001
0010
1000
0010
0100
0001
1000
0100
0010
0001
1000
0010
0100
,
0001
1000
0001
1000
0010
0100
0001
1000
0100
0010
0100
1000
0010
0100
0001
1000
,
0001
1000
0001
0010
0100
1000
0010
0001
0100
0010
1000
0100
0010
0100
1000
0010
,
0100
0001
1000
0010
0100
0010
0100
0010
1000
0010
0100
0001
1000
0100
0010
0001
,
1100
0000
0101
0000
0010
0001
0100
0000
1010
0000
1001
0000
0100
0010
0100
0000
,
1100
0000
1010
0000
0001
0010
0001
0000
1010
0000
0011
0000
0001
0010
0100
0000
,
0001
0010
0100
1000
0100
0010
0001
0010
0100
0010
0001
0010
0100
0010
0001
0010
,
0100
0010
0100
0010
0100
0010
0100
0010
0100
0001
0100
0010
1000
0010
0100
0001
,
1100
0000
0101
0000
0010
0001
1000
0000
0110
0000
0011
0000
1000
0100
0010
0000
,
1001
0000
1010
0000
0100
0001
0100
0000
0011
0000
0101
0000
0001
1000
0100
0000
,
1010
0000
0110
0000
1000
0100
1000
0000
0101
0000
1001
0000
0100
0010
0100
0000
,
0001
0000
1000
0000
0001
0000
0000
0000
0101
0000
0000
0000
1010
0000
0000
0000
0001
0000
0100
0000
0001
0000
0100
0000
0010
0000
1000
0000
0202
0000
0000
0303
,
1001
0000
0110
0000
1000
0100
0001
0000
0110
0000
0011
0000
0001
1000
0010
0000
,
1100
0000
0101
0000
0001
1000
0001
0000
1010
0000
0110
0000
0001
0100
0001
0000
,
1010
0000
1001
0000
0100
0010
0001
0000
0110
0000
1001
0000
1000
0010
1000
0000
,
0001
0100
0001
0100
0010
1000
0010
1000
0001
1000
0001
1000
0010
0100
0010
0100
,
0011
0100
1000
0100
0010
0001
0010
0100
1000
0100
0010
0100
1000
0001
0010
0001
,
0100
0010
1000
0100
0010
0001
0010
0100
1000
0100
0010
0100
0010
0001
1000
0100
,
0011
0000
0011
0000
1000
0011
0000
0011
,
0000
0000
0101
0010
1001
0100
0001
0100
0010
1000
0010
0100
0001
1000
0010
0100
,
0001
0010
0100
1000
0010
0100
0001
0010
0001
0010
0100
1000
0010
0100
0001
1000
,
0100
0010
0100
1000
0010
0100
0001
1000
0100
0010
0001
0010
0100
1000
0010
0100
,
0001
1000
0001
1000
0001
1000
0001
1000
0001
0010
0100
1000
0100
0010
0001
0010
,
0100
1000
0100
1000
0100
0010
0001
0010
0100
1000
0100
0010
0001
0010
0100
1000
,
0202
0000
0303
0000
0000
0000
0000
0000
0000
0000
0000
0000
0000
0000
0000
0000
0000
0000
0000
0000
0000
0000
0000
0000
0000
0000
0000
0000
0000
0202
0000
0000
,
0000
0000
0000
0000
0000
0000
0000
0303
0000
0000
0000
0000
0000
0000
0000
0000
0000
0000
0000
0000
0000
0000
0000
0000
0000
0000
0000
0000
0000
0000
0000
0000
,
1001
0011
0101
0110
1010
1100
1001
0101
,
0110
1100
1010
0011
1001
1010
1100
0101
,
1010
0001
0100
0001
1000
0010
1000
0010
0100
0010
0100
0010
0100
0001
1000
0001
,
1000
0010
1000
0010
1000
0010
1000
0010
1000
0010
1000
0010
1000
0010
1000
0010
,
2002
0000
0000
0000
,
0000
0000
0000
0000
0000
0000
0000
0000
0000
0000
0000
0000
0000
0000
0000
0000
0000
0000
0000
0000
0000
0000
0000
0000
0000
0000
0000
0000
0000
0000
0000
3003
,
0110
0000
0101
0000
0010
1000
0010
0000
1100
0000
1001
0000
0010
0001
0100
0000
,
1001
0000
1010
0000
1000
0100
0010
0000
0101
0000
0011
0000
1000
0010
1000
0000
,
0101
0010
1000
0010
1000
0010
1001
0010
0100
0010
0100
0010
0101
0010
1000
0010
,
1001
0010
0100
0010
0101
0010
1000
0010
1001
0100
0001
1000
0011
1000
0100
0010
,
1001
0000
0011
0000
1000
0100
0010
0000
1100
0000
1010
0000
0100
0001
0100
0000
,
0110
0000
1010
0000
1000
0001
0100
0000
1001
0000
1100
0000
0010
0100
0001
0000
,
0110
0000
0011
0000
0100
0001
0010
0000
1100
0000
0101
0000
0010
0100
1000
0000
,
1010
0000
0000
0000
0000
0000
0001
0000
0000
1000
0000
0000
0001
0000
0000
1000
0000
0000
0001
0100
0000
1000
0000
0000
0010
0000
0000
0100
0000
0000
0010
0001
0000
0100
0000
0000
0001
0000
0000
1000
0000
0000
0010
0000
0000
0100
0000
0000
,
1001
0000
0011
0000
0100
1000
0010
0000
1010
0000
1100
0000
0010
0001
0010
0000
,
1001
0000
0110
0000
1000
0100
0010
0000
1001
0000
0100
0001
0010
0100
1000
0000
,
0101
0000
0011
0000
1000
0010
0100
0000
1001
0000
0100
0010
1000
0001
1000
0000
,
0110
0000
0011
0000
1000
0001
0100
0000
1010
0000
0011
0000
0100
0001
1000
0010
,
1001
0100
0010
0100
0010
0100
0010
0100
0001
0100
0010
0100
0010
0100
0010
0100
,
0001
0100
0010
0100
0010
0100
0010
0100
0001
0100
0010
0100
0010
0100
0010
0100
,
1001
0010
1000
0010
0001
1000
0100
0010
0100
0010
1000
0001
0100
0010
0001
0100
,
0010
1000
0010
1000
0010
0100
0010
0100
0010
1000
0010
1000
0010
0100
0010
0100
,
0011
0101
1001
1010
0110
1100
0101
0011
,
1001
1010
0110
0101
0011
1001
0101
0110
,
1010
1100
0101
0011
1001
1010
1100
0110
,
0001
0000
1000
0000
0010
0000
0100
0000
0001
0000
0010
0000
0100
0000
0000
1000
0000
0000
0100
0000
0000
1000
0000
0000
0100
0000
0010
0000
0001
0000
1000
0000
0010
0000
0100
0000
0001
0000
0000
0010
0000
0000
0100
0000
0000
1000
0000
0000
,
0101
0000
0000
0101
0000
0000
1000
0100
0010
0001
0000
0000
1001
0000
0000
1001
0000
0000
0100
0010
1000
0001
0000
0000
,
0110
0000
0000
0000
0000
0000
0110
0000
0000
0000
0000
0000
0001
0000
0100
0000
0010
0000
1000
0000
0000
0000
0000
0000
0001
0000
0000
1000
0000
0000
0001
0000
0000
1000
0000
0000
0001
0000
0000
1000
0000
0000
0001
0000
0000
1000
0000
0000
,
0200
0000
0000
0000
0000
0000
0000
0300
0002
0000
0000
0003
0020
0000
0000
0000
0000
0000
0000
0030
0200
0000
0000
0300
2000
0000
0000
3000
0020
0000
0000
0030
,
0200
0000
0000
0000
0000
0300
0000
0200
0000
0000
0000
0300
0000
0200
0000
0000
0000
0000
0000
0300
0002
0000
0000
0003
0200
0000
0000
0300
2000
0000
0000
3000
,
0202
0000
0000
0000
0000
0000
0000
0000
0000
0000
0000
0000
0000
0000
0000
0303
,
1000
0100
0010
0001
1000
0010
0100
0001
1000
0100
0010
0001
1000
0010
0100
0001
1000
0100
0010
0001
1000
0010
0100
0001
,
1010
0000
1001
1001
1001
1001
1001
1001
,
1001
0000
1001
0000
1001
0000
1001
0000
1001
0000
1000
0010
1001
0000
0000
0000
,
0101
0000
0101
1000
0110
0000
0101
0000
0000
0000
0101
0010
1001
0000
0000
0000
,
0101
0000
0101
0010
1001
0000
0101
0000
0000
0000
0101
0010
1001
0000
0100
0000
,
0012
0000
0000
0000
1100
0000
0000
0000
0100
0000
0100
0000
1100
0003
1020
0000
,
0000
0000
0001
0000
0101
0000
0000
0000
0001
0000
0001
0000
0101
0000
0000
0030
,
0110
0000
0110
0001
1010
0000
0110
0000
0000
0000
0110
0001
1010
0000
0000
0000
,
0110
0000
0110
0001
1010
0000
0110
0000
0000
0000
0110
0001
1010
0100
0001
0100
,
1002
0000
0000
0000
1010
0000
0000
0000
0100
0000
0100
0000
1010
0103
2001
0100
,
0001
0100
0010
0100
0001
3100
0021
1000
0100
0001
0100
0001
1000
0001
1000
0031
,
1100
0000
1100
0010
0101
0000
1100
0000
0000
0000
1100
0010
0101
0000
0000
0000
,
1100
0000
1100
0010
0101
0000
1100
0000
0000
0000
1100
0010
0101
0000
0000
0000
,
0012
0000
0000
0000
1010
0000
0000
0000
0100
0000
0100
0000
1010
0003
0210
0000
,
0000
0000
0001
0000
1001
0000
0000
0000
0001
0000
0001
0000
1001
0000
0000
0300
,
1010
0000
1010
0100
1001
0000
1010
0000
0000
0000
1010
0100
1001
0000
0000
0000
,
1010
0000
1010
0100
1001
0000
1010
0000
0000
0000
1010
0100
1001
0000
0000
0000
,
0102
0000
0000
0000
1010
0000
0000
0000
0100
0000
0100
0000
1010
0003
2100
0000
,
0011
0100
0001
0100
0010
3100
0012
0100
0010
1000
0100
0010
0100
1000
0010
0103
,
1001
0000
0000
0000
,
0000
0000
0000
0000
,
0101
0000
0000
0000
,
0000
0000
0000
0000
1000
0101
0000
1100
,
1001
0000
0000
0000
,
0000
0000
0000
0000
0000
0000
1000
0120
,
0000
0000
0100
0000
1001
0000
0100
0000
1001
0000
0100
0001
0100
0031
2100
0000
,
0000
0000
0000
0000
0000
0000
0001
0000
0000
0000
0000
0000
0110
0000
0000
0000
0000
0000
0001
0000
0000
0000
0000
0000
0100
0000
0000
0001
0000
0000
0010
0000
0000
0100
0000
0000
0011
0000
0000
0000
0000
0000
0000
0000
0011
3000
0000
0000
,
0000
0110
1010
0101
0011
1001
1100
2020
,
0000
0000
0000
3030
0101
0000
0000
0000
0110
0000
0000
0000
0011
0000
0000
0000
1001
0000
0000
0000
1010
0000
0000
0000
1100
0000
0000
0000
1010
0000
0000
0000
,
1001
0011
0101
0110
1010
1001
0101
2002
,
0000
0000
0000
3003
1010
0000
0000
0000
0011
0000
0000
0000
1001
0000
0000
0000
0101
0000
0000
0000
1000
0000
0000
0000
1001
0000
0000
0000
0001
0000
0000
0000
,
0101
0011
1001
1010
0110
0011
0101
2002
,
0000
0000
0000
3003
1010
0000
0000
0000
1100
0000
0000
0000
0110
0000
0000
0000
0101
0000
0000
0000
1001
0000
0000
0000
0011
0000
0000
0000
1010
0000
0000
0000
,
0101
0110
1010
1100
0101
1001
0011
1010
,
1000
0100
0010
0001
1000
0100
0010
0001
1000
0100
0010
0001
1000
0100
0010
0001
1000
0100
0010
0001
1000
0100
0010
0001
1000
0100
0010
0001
1000
0100
0010
0001
,
1100
0110
0101
1001
0011
1001
0101
2200
,
0000
0000
0000
3300
0110
0000
0000
0000
0101
0000
0000
0000
0011
0000
0000
0000
1010
0000
0000
0000
0110
0000
0000
0000
1100
0000
0000
0000
1001
0000
0000
0000
,
0101
0011
0110
1010
1001
1100
1010
0110
,
0101
0000
0000
0000
0011
0000
0000
0000
1001
0000
0000
0000
0202
0000
0000
0000
0000
0000
0000
0000
0000
0000
0000
0000
0000
0000
0000
0000
0000
0000
0000
0303
,
1001
1001
0011
0101
1001
1010
0110
2200
,
0000
0000
0000
3300
1010
0000
0000
0000
0110
0000
0000
0000
0011
0000
0000
0000
0101
0000
0000
0000
1001
0000
0000
0000
1010
0000
0000
0000
1100
0000
0000
0000
,
0110
0110
0011
0101
1001
1010
1100
1010
,
0110
0001
1000
0001
0100
0010
0100
0010
1000
0001
1000
0001
0100
0010
0100
0010
,
1001
0001
0001
0100
0010
1000
0001
0200
,
0000
0310
1000
0001
0100
0010
0002
0003
,
2200
3310
2020
3130
2002
3013
0022
1033
,
2001
0000
3000
0000
0001
0000
0000
0000
0010
0000
0000
0000
0100
0000
0000
0000
0000
0000
0000
0000
0100
0000
0000
0000
0020
0000
0000
0000
0000
0000
0000
0030
,
2000
0000
0000
3000
0200
0000
0000
0300
0020
0000
0000
0030
0000
0000
0000
0000
0002
0000
0000
0003
0200
0000
0000
0300
0020
0000
0000
0030
0000
0000
0000
0000
,
0020
0000
0000
0030
0200
0000
0000
0300
2000
0000
0000
3000
0002
0000
0000
0003
0000
0000
0000
0000
0002
0000
0000
0000
0000
0000
0000
0000
0000
0000
0003
0000
,
1000
0000
0100
0010
1001
0000
0010
0000
0001
0000
0100
0000
1010
0000
0100
0000
,
0020
0001
0100
0001
1000
0031
0020
0100
0001
1000
0001
0130
0020
0001
1000
0130
,
1001
0101
0101
0101
1001
0000
0010
0000
,
0110
1010
1010
1010
0110
0000
1000
0000
,
0011
0110
0110
0110
0011
0000
1000
0000
,
1001
0101
0011
0000
0011
0000
0011
0000
,
1010
0011
0011
0011
1010
0000
0001
0000
,
0101
1100
1100
1100
0101
0000
1000
0000
,
1100
1001
1001
1001
1100
0000
0010
0000
,
1001
0100
0010
0001
0010
0100
1000
0100
0010
0001
0010
0100
1001
0000
0000
0000
,
0101
0011
1001
1010
0110
1100
0101
0011
,
0000
1001
1010
1100
0110
0011
0101
1001
,
1010
0110
1100
1001
0101
0110
0011
1010
,
0000
1001
0011
0110
0000
0110
1010
1001
,
0101
0011
1001
1010
1100
0110
0011
0101
,
0000
1001
0011
0101
0110
1010
1100
1010
,
1001
0101
0011
0101
0110
1100
0101
1001
,
0001
0100
0010
1000
0001
0010
0100
1000
0001
0100
0010
1000
0001
0010
0100
1000
,
0011
0101
1001
0011
0110
1010
1100
0110
,
0000
0011
0101
1001
1010
1100
0110
0011
,
0110
1001
0110
1001
0011
1100
0011
1100
,
0101
1010
0101
1010
0000
0000
0000
0000
,
0101
0101
1001
1010
1100
0110
0011
0101
,
0000
1010
1100
0110
0011
1001
0101
0110
,
1010
1010
0110
0011
0101
1001
1010
1100
,
0001
1000
0001
1000
0100
0001
0010
0100
0010
0100
1000
0010
0001
0100
0001
0100
,
1001
0000
0010
0100
0010
0000
0010
0000
0010
0100
0010
0000
0010
0000
1001
0100
,
0010
0000
0010
0000
0010
0100
0010
0000
0010
0100
0010
0000
0010
0100
0010
0000
,
1001
0000
0010
0100
0010
0000
0010
0000
0010
0100
0010
0000
0010
0100
0010
0000
,
2002
0000
0000
0000
0000
3003
0000
2002
0000
0000
0000
3003
0000
2002
0000
0000
0000
0000
0000
0000
0000
0000
0000
0000
0000
0000
0000
3003
0000
0000
0000
0000
,
1001
0000
0010
0100
0010
0000
0010
0000
0010
0100
0010
0000
0010
0000
1001
0100
,
0010
0000
0010
0000
0010
0100
0010
0000
0010
0100
0010
0000
0010
0100
0010
0000
,
1001
0000
0010
0100
0010
0000
0010
0000
0010
0100
0010
0000
0010
0100
0010
0000
,
2002
0000
0000
0000
0000
3003
0000
2002
0000
0000
0000
3003
0000
2002
0000
0000
0000
0000
0000
3003
0100
0000
0010
0000
0101
0000
1000
0000
0010
0000
0100
0000
,
0011
0000
0011
0000
,
0011
0100
1000
0010
0100
0001
1000
0100
0010
0001
0010
0100
1000
0100
1000
0010
,
0100
0001
1000
0010
0001
0010
0100
0010
0100
0010
1000
0010
0100
0001
0010
0100
,
1000
0010
0001
0100
0010
1000
0100
1000
0010
0100
0001
1000
0001
1000
0010
0100
,
0010
0001
1000
0001
1000
0010
1000
0010
0100
0010
0001
0100
0001
0100
0010
1000
,
0100
0010
0100
1000
0010
0100
0001
1000
0001
0010
0100
1000
0010
0100
0001
1000
,
0100
0010
0001
1000
0001
1000
0010
0100
0010
1000
0010
1000
0010
0000
0000
0000
,
0001
0010
0100
1000
0010
0100
0001
1000
0100
1000
0010
0100
0001
1000
0010
0001
,
0010
0000
0100
0000
1000
0000
0010
0000
0100
0000
0001
0000
1000
0000
0000
0100
0000
0000
0010
0000
0000
0001
0000
0000
0010
0000
0100
0000
0001
0000
1000
0000
0010
0000
0100
0000
0001
0000
0000
1000
0000
0000
0001
0000
0000
1000
0000
0000
,
0101
0000
0001
0000
0001
0010
0100
0000
0001
0000
0001
0000
0001
0010
0100
0000
,
0001
0000
0000
0000
0001
0000
0000
0000
0001
0000
0010
0000
0100
0000
0000
0000
0001
0000
0010
0000
0100
0000
1000
0000
0200
0000
0000
0000
0000
0000
0000
0300
,
0001
0000
0001
0000
0001
0010
0100
0000
0001
0000
0001
0000
0001
0010
0100
0000
,
0001
0000
0000
0010
0000
0000
0100
0000
0000
1000
0000
0000
0100
0000
0000
0010
0000
0000
0001
0000
0000
0010
0000
0000
0100
0000
0010
0000
0001
0000
1000
0000
0100
0000
0010
0000
0001
0000
0000
1000
0000
0000
0001
0000
0000
0000
0000
0000
,
0001
0000
0001
0000
0001
0010
0100
0000
0001
0000
0001
0000
0001
0010
0100
0000
,
0001
0000
0000
0000
0001
0000
0000
0000
0001
0000
0010
0000
0100
0000
0000
0000
0001
0000
0010
0000
0100
0000
1000
0000
0200
0000
0000
0000
0000
0000
0000
0300
,
0001
0000
0001
0000
0001
0010
0100
0000
0001
0000
0001
0000
0001
0010
0100
0000
,
0001
0010
0100
1000
0010
0100
0001
1000
0100
0010
0001
1000
0020
0000
0000
0030
,
1001
0101
0011
0101
1001
1010
0110
1100
,
0110
0011
0101
1001
1010
1100
0110
0011
,
0101
1001
1010
1100
1010
0110
0011
0101
,
1000
0100
0010
0001
0100
0010
1000
0000
0000
0110
0000
0000
0001
0010
1000
0100
0010
0100
0001
0000
0000
1100
0000
0000
,
1010
0011
1001
0101
1100
1010
0011
1001
,
0101
0110
1100
0101
0011
1001
1010
1100
,
1001
0011
0101
1001
1010
1100
0110
0101
,
0001
0000
0010
0000
0100
0000
1000
0000
0000
0100
0000
0000
0010
0000
0000
0001
0000
0000
1000
0000
0000
0100
0000
0000
0010
0000
0000
0001
0000
0000
1000
0000
0000
0100
0000
0000
0010
0000
0000
0001
0000
0000
1000
0000
0000
0100
0000
0000
,
0022
0000
0000
0033
1000
0000
2002
0000
0000
0000
0010
0000
0110
0000
0000
3003
,
0022
0000
0000
0033
0100
0000
2020
0000
0000
0000
0001
0100
0101
0000
0000
3030
,
0202
0000
0000
0303
1000
0000
2200
0000
0000
0000
0000
3300
2002
0000
0000
3003
,
2002
0000
0000
0000
0000
0000
0010
0100
0110
0000
0000
3003
0000
0000
0000
0000
,
1100
0000
0110
0000
0001
1000
0001
0000
0110
0000
0101
0000
0010
1000
0100
0000
,
1010
0000
1001
0000
0100
0001
0100
0000
0011
0000
1001
0000
1000
0100
0010
0000
,
1100
0000
1010
0000
0100
0001
1000
0000
0011
0000
0110
0000
1000
0100
1000
0000
,
0101
0000
1100
0000
0001
0100
0001
0000
0110
0000
1010
0000
0100
0001
1000
0000
,
0101
0000
1001
0000
0010
0100
1000
0000
0011
0000
1100
0000
0010
0100
0010
0000
,
0101
0000
0110
0000
0001
0010
0100
0000
1010
0000
1001
0000
0100
0001
0100
0000
,
1010
0000
1100
0000
0001
1000
0001
0000
1001
0000
0011
0000
0100
0001
0010
0000
,
0001
1000
0001
1000
0001
0010
0100
1000
0100
0010
0001
1000
0010
0001
0010
0001
,
1100
0010
0001
0010
0001
0100
0010
0100
0010
1000
0010
1000
0010
0100
0010
0100
,
0010
0001
0010
0001
1000
0001
1000
0001
1000
0010
0100
0001
2000
0000
0000
3000
,
0010
0100
1000
0010
0200
0300
2000
3100
0002
0003
0200
0310
0002
0003
0020
0130
,
1000
0001
1000
0001
1000
0010
1000
0010
1000
0100
1000
0100
0002
0000
0000
0003
,
1000
0100
0001
1000
0100
0001
1000
0100
0001
1000
0100
0001
0020
0000
0000
1030
0000
0000
0002
0000
0000
0013
0000
0000
,
0100
0010
0001
0100
0010
0001
0100
0010
0001
0100
0010
0001
2000
0000
0000
3010
0000
0000
2000
0000
0000
3001
0000
0000
,
1010
0001
0100
0001
0100
0001
1010
0001
0100
0001
0100
0001
1010
0100
0001
0100
,
1010
0001
0100
0001
1010
0100
0001
0100
1010
0001
0100
0001
1010
0100
0001
0100
,
1001
0000
0011
0000
0100
0010
0001
0000
1100
0000
1010
0000
0100
0001
1000
0000
,
0110
0000
1010
0000
1000
0001
1000
0000
0011
0000
1010
0000
0001
1000
0100
0000
,
1001
0000
0011
0000
0001
1000
0100
0000
1010
0000
1100
0000
1000
0001
0010
0000
,
0110
0000
1100
0000
0010
0001
1000
0000
0101
0000
0011
0000
0010
1000
0010
1000
,
0101
0000
1001
0000
0010
0100
0001
0000
1100
0000
0101
0000
0001
1000
0100
0000
,
1010
0000
1001
0000
0100
0010
1000
0000
0101
0000
0011
0000
1000
0001
0010
0000
,
1001
0000
0110
0000
1000
0100
0010
0000
0011
0000
0101
0000
1000
0100
1000
0000
,
0100
0001
0100
0001
1000
0100
0001
0010
0100
1000
0100
1000
0100
0010
0001
0010
,
2200
0000
0000
0000
0000
0000
0000
0000
0000
0000
0000
3300
2200
0000
0000
3300
,
2200
3300
2200
0000
0000
3300
2200
0000
0000
0000
0000
3300
2200
0000
0000
3300
,
0001
0010
0001
0010
0100
0010
0100
0010
0100
1000
0100
1000
0100
0010
1000
0001
,
1100
0000
0010
0000
0000
0000
1100
0000
0010
0000
0000
0000
1100
0000
0010
0000
0000
0000
0100
0000
0000
0001
0000
0000
1000
0000
0000
0100
0000
0000
0010
0000
0000
0001
0000
0000
0020
0000
0000
0000
0000
0000
0000
0000
0000
0030
0000
0000
,
0001
0100
0001
0100
0010
1000
0010
1000
0100
0010
0001
0010
0100
1000
0010
0100
,
0001
1000
0010
0001
0100
1000
0010
0100
0001
0010
1000
0100
0010
0001
0100
0010
,
1000
0100
1000
0100
0001
0010
0100
0001
0100
0001
1000
0100
0001
0010
0001
0010
,
2002
3003
0000
0000
0000
0000
2002
3003
0000
0000
0000
0000
2002
3003
0000
0000
0000
0000
2002
3003
0000
0000
0000
0000
2002
0000
0000
0000
3003
0000
0000
0000
0000
0000
0000
0000
2002
0000
0000
0000
0000
3003
0000
0000
0000
0000
0000
0000
,
1010
0110
0011
0101
1001
1001
1001
0101
,
0110
0000
0110
0000
0110
0000
0011
0000
0101
0000
2002
3003
2020
3030
0220
0330
,
0012
0000
0000
0000
0000
0003
0000
0002
0000
0000
0003
0000
0002
0000
0003
0000
0002
0000
0000
0000
0003
0000
0002
0000
0000
0000
0003
0000
0002
0000
0003
0000
,
0002
0000
0000
0000
0000
0003
0000
0002
0000
0000
0003
0000
0002
0000
0003
0000
0002
0000
0003
0000
2200
0000
3300
0000
0220
0000
0330
0000
0022
0000
0033
0000
,
2002
3013
1000
0010
0100
0001
1000
0010
0100
0001
1000
0001
1000
0010
0100
0001
,
1000
0001
0100
0010
1000
0001
1000
0010
1000
0010
2002
3003
0220
0330
2020
3030
,
2200
3301
0010
0001
1000
0100
1000
0100
0010
0000
0001
0000
0200
0000
0000
0300
,
0010
1000
0010
1000
0100
0001
0010
0100
0010
0100
0001
0010
1000
0010
1000
0010
,
1001
0000
0100
0000
0001
0000
1000
0000
0010
0000
0010
0000
0100
1000
0001
0000
,
1000
0000
0100
0000
1000
0000
0010
0000
0200
0000
0000
0300
2020
0000
0000
3030
,
2002
0000
0010
3003
0001
0000
1000
0000
0100
0000
0010
0000
0001
0000
1000
0000
0010
0000
0100
0000
0001
0000
1000
0000
0010
0000
0000
0001
0000
0000
1000
0000
0000
0001
0000
0000
0100
0000
0010
0000
0001
0000
1000
0000
0000
0010
0000
0000
,
0100
0000
0010
0000
0001
0000
0100
0000
0000
0010
0000
0100
0000
0001
0000
0010
0000
1000
0000
0100
0000
0001
0000
0000
1000
0000
0010
0000
0100
0000
0001
0000
1000
0000
0010
0000
0001
0000
0000
0010
0000
0000
0001
0000
0000
1000
0000
0000
,
0110
0000
0001
0000
0000
0000
0100
0000
0001
0000
0000
0000
0100
0000
0001
0000
0000
0000
0100
0000
0001
0000
0000
0000
0200
0000
0000
0300
0000
0000
0001
0000
0000
0010
0000
0000
0100
0000
0000
1000
0000
0000
0100
0000
0000
0010
0000
0000
,
1001
0010
1000
0010
0100
0001
1000
0100
1000
0100
0010
0001
0010
0100
1000
0010
,
2200
3310
1000
0001
0220
0331
1000
0000
0022
1033
0010
0100
2002
3103
0001
0010
,
2200
3310
0001
0010
1100
0000
0000
0000
1100
0010
0001
0010
1100
0000
0000
0000
,
1001
0000
0101
0000
0010
1000
0100
0000
1010
0000
0110
0000
1000
0001
0010
0000
,
0101
0000
0011
0000
1000
0100
0010
0000
1100
0000
0110
0000
1000
0001
0010
0000
,
0011
0000
0101
0000
1000
0001
1000
0000
1100
0000
1010
0000
0100
0001
0100
0000
,
0011
0000
1001
0000
1000
0001
0100
0000
1010
0000
0110
0000
1000
0001
0100
0000
,
0011
0000
1001
0000
0100
0001
0010
0000
1001
0000
1100
0000
0010
0100
0001
0000
,
1100
0000
0101
0000
0001
0010
0100
0000
0011
0000
1010
0000
0100
0001
0100
0000
,
0110
0000
1001
0000
0100
0001
0100
0000
1010
0000
1100
0000
0011
0000
0110
0000
,
1000
0100
0010
0001
1000
0010
0100
0001
0010
0100
1000
0010
0100
0001
0100
0010
,
1001
0000
0011
0000
0100
0001
0100
0000
1010
0000
0101
0000
0100
0010
1000
0000
,
0101
0000
0011
0000
1000
0100
0010
0000
1100
0000
0110
0000
1000
0001
0010
0000
,
1001
0000
0011
0000
0100
0001
0100
0000
1010
0000
0110
0000
1000
0001
1000
0000
,
1001
0000
0110
0000
0001
0010
0100
0000
1100
0000
0110
0000
0010
0001
0100
0000
,
1001
0000
1100
0000
0100
0010
0001
0000
1100
0000
0101
0000
0010
1000
0100
0000
,
1001
0000
0011
0000
0100
0001
0100
0000
0110
0000
1100
0000
1000
0100
1000
0000
,
0110
0001
1000
0001
1000
0001
0110
1000
0001
1000
0001
1000
0110
0001
1000
0001
,
0110
0001
0100
0001
1010
0001
0100
1000
0110
0001
0100
0001
1010
0100
0001
0010
,
1001
0100
0010
0001
0100
0010
1000
0010
0100
0001
0010
0100
1000
0010
0100
0001
,
1000
0100
0010
0001
1000
0010
1000
0010
0100
0010
0100
0010
0001
0010
0001
0010
,
0100
1000
0010
0100
0001
1000
0100
1000
0010
0100
0010
1000
0100
1000
0100
0010
,
0001
0010
0100
1000
0010
0100
0001
0010
0001
0100
0010
0100
0010
0100
1000
0010
,
0100
0001
1000
0010
1000
0010
0100
0001
0100
0001
0010
0100
1000
0010
0100
0001
,
1000
0100
0010
0001
0010
0100
1000
0010
0100
0001
1000
0010
0100
0001
0010
0100
,
1000
0010
1000
0010
0001
0100
0010
0001
0010
0001
0100
0010
1000
0001
1000
0001
,
1000
0010
1000
0010
1000
0010
1000
0010
1000
0010
1000
0010
1000
0010
1000
0010
,
1000
0001
1000
0010
0001
0100
0010
1000
0100
0001
0010
0100
1000
0010
0100
0001
,
1000
0100
0010
0001
0010
0100
1000
0010
0100
0001
1000
0001
1000
0001
0100
0010
,
1000
0010
0100
0001
1000
0001
0010
0100
1000
0010
0100
0001
1000
0100
1000
0010
,
0100
0010
0001
0010
0100
0010
0001
1000
0010
0100
0001
1000
0100
0010
0100
1000
,
0010
0100
0001
1000
0100
0001
0100
1000
0010
0001
0100
1000
0010
0001
0100
0010
,
1000
0010
0001
0100
0010
1000
0001
1000
0010
0100
0010
0001
1000
0010
0100
0010
,
1000
0010
1000
0100
0010
0001
1000
0010
0100
0001
0010
0100
1000
0001
1000
0001
,
0100
0001
0100
0001
0010
0100
1000
0100
0010
0001
0010
0001
0100
0010
1000
0001
,
1010
0000
0110
0000
0001
1000
0001
0000
0101
0000
0011
0000
1000
0100
0010
0000
,
1001
0000
1010
0000
0100
0001
0100
0000
1100
0000
0011
0000
0100
0001
0010
0000
,
1001
0000
1100
0000
0100
0010
0001
0000
1100
0000
0101
0000
0010
0001
1000
0000
,
0100
0010
0001
0000
0010
1000
0100
0000
0010
1000
0100
0000
0001
1000
0100
0000
,
0101
0010
1000
0010
1000
0010
0101
0010
1000
0010
1000
0010
0101
0010
1000
0010
,
0101
0010
1000
0010
0101
0010
1000
0010
0101
0010
1000
0010
0101
0010
1000
0010
,
2002
0000
0000
0000
,
0000
0000
0000
0000
0000
0000
0000
0000
0000
0000
0000
0000
0000
0000
0000
3003
,
1100
0000
0101
0000
0010
0001
0100
0000
1001
0000
1100
0000
0010
0100
0010
0000
,
0101
0000
0110
0000
1000
0001
1000
0000
1010
0000
0011
0000
0100
0001
0010
0000
,
1001
0010
0100
0010
0100
0010
1100
0010
0001
0010
0001
0010
1001
0010
0100
0010
,
1100
0010
0001
0010
1001
0010
0100
0010
1100
0010
0001
0010
1001
0010
0100
0010
,
1100
0000
0101
0000
0010
0001
0100
0000
1001
0000
0011
0000
0100
0010
0100
0000
,
0110
0000
1010
0000
1000
0100
1000
0000
0101
0000
0011
0000
0100
0001
0100
0000
,
1010
0000
0110
0000
0001
0010
0100
0000
1001
0000
0011
0000
0100
0001
0010
0000
,
0011
0100
1000
0100
0001
0100
0010
1000
0100
0010
0001
0010
0100
1000
0010
0100
,
1001
0000
0011
0000
0100
0010
1000
0000
0110
0000
0101
0000
1000
0100
0010
0000
,
1001
0000
0011
0000
0100
0010
0001
0000
1010
0000
1100
0000
0010
0100
1000
0000
,
0110
0000
0011
0000
0100
0001
0010
0000
0100
0010
1000
0000
0001
0010
1000
0000
,
0010
0100
0001
0000
1000
0001
1000
0000
0001
1000
0100
0000
0010
0001
0100
0000
,
1001
0100
0010
0100
0010
0100
0010
0100
0001
0100
0010
0100
0010
0100
0010
0100
,
0001
0100
0010
0100
0010
0100
0010
0100
0001
0100
0010
0100
0010
0100
0010
0100
,
1001
0000
0000
0000
0000
0000
0000
0000
0000
0000
0000
0000
0000
0000
0000
0000
0000
0000
0000
0000
0000
0010
0100
0010
,
1001
0000
0000
0000
,
1100
0010
0001
0010
0101
0010
0100
1000
0011
0100
0001
1000
0101
0010
0001
1000
,
0110
0001
0010
0100
1001
0010
1000
0100
0011
0100
0001
0100
1001
0010
1000
0010
,
1100
0001
1000
0100
1001
0010
0100
1000
0011
0100
0001
1000
0101
1000
0010
1000
,
0011
0100
0001
0100
1001
0010
0100
1000
0011
1000
0100
1000
0101
0010
0100
0010
,
1001
0010
0001
0010
0101
1000
0010
0100
0011
1000
0010
0100
1001
0100
0010
0001
,
1100
0000
0010
0000
0001
0000
1000
0000
0000
0010
0000
0000
0100
0000
0000
0001
0000
0000
0100
0000
1000
0000
0001
0000
0010
0000
0000
0100
0000
0000
0010
0000
0000
1000
0000
0000
0001
0000
1000
0000
0100
0000
0010
0000
0000
0001
0000
0000
,
1010
0100
0001
0100
1001
0000
0000
0000
0110
0001
1000
0001
1100
0000
0000
0000
,
0011
0100
1000
0100
1010
0000
0000
0000
0101
0010
1000
0010
1100
0000
0000
0000
,
2001
0000
0000
0000
0000
0000
0000
0000
0000
0000
0000
0000
0000
0000
0000
0000
0000
0000
0000
0000
0000
0000
0000
0000
0000
0000
0000
0000
0000
0000
0000
3000
,
0101
0010
1000
0100
0011
0100
1000
0010
1001
0100
0001
1000
0110
0001
1000
0010
,
0101
1000
0110
0001
1010
0100
1001
0010
0101
1000
0110
0001
1100
0010
0101
1000
,
0011
0100
1001
0010
0101
1000
0110
0001
1100
0010
1001
0100
0011
1000
0101
0010
,
2200
0000
0000
0000
0000
0000
0000
0000
0000
0000
0000
0000
0000
0000
0000
3300
,
2002
0000
0000
0000
0000
0000
0000
0000
0000
0000
0000
0000
0000
0000
0000
3003
;
