#TITLE:Archmage and Dark0wl Hammer of Thor UltraHyperMegaPack theme;
#SUBTITLE:(Requiem for a Tower);
#ARTIST:Clint Mansell;
#TITLETRANSLIT:;
#SUBTITLETRANSLIT:;
#ARTISTTRANSLIT:;
#CREDIT:Arch0wl;
#BANNER:adhotuhmp-bn.png;
#BACKGROUND:adhotuhmp-bg.png;
#LYRICSPATH:;
#CDTITLE:!arch0wltitle.png;
#MUSIC:adhotuhmp.ogg;
#OFFSET:-0.258;
#SAMPLESTART:37.553;
#SAMPLELENGTH:12.000;
#SELECTABLE:YES;
#BPMS:0.000=154.600,8.000=155.200,10.000=155.240,12.000=154.200,14.000=155.800,32.000=157.400,35.000=157.100,39.500=156.600,43.000=154.600,48.000=152.400,59.000=153.800,64.000=152.700,75.000=156.000,80.000=155.000,83.000=155.400,88.000=153.600,91.000=153.800,126.500=266.001,128.000=152.300,147.000=153.800,148.000=154.400,160.000=152.000,163.000=153.200,171.000=155.201,176.000=153.400,179.000=154.800,192.000=153.600,208.000=154.000,218.000=153.000,220.000=155.200,222.000=158.200,223.500=158.600;
#STOPS:;
#BGCHANGES:0.000=adhotuhmp-bg.png=1.000=0=0=1,
99999=-nosongbg-=1.000=0=0=0 // don't automatically add -songbackground-
;
// cache tags:
#FIRSTBEAT:0.000;
#LASTBEAT:223.750;
#SONGFILENAME:Songs/Archmage and Dark0wl Hammer of Thor UltraHyperMegaPack/Archmage and Dark0wl Hammer of Thor UltraHyperMegaPack theme/adhotuhmp.sm;
#HASMUSIC:1;
#HASBANNER:1;
#MUSICLENGTH:105.000;
// end cache tags

//---------------dance-single - Arch0wl----------------
#NOTES:
     dance-single:
     Arch0wl:
     Challenge:
     23:
     1.000,1.000,1.000,0.448,1.000,1031.000,208.000,47.000,0.000,0.000:
1000
0100
1000
0100
1000
0100
1000
0100
1000
0100
1000
0100
1000
0100
1000
0100
,
1000
0100
1000
0100
1000
0100
1000
0100
1000
0100
1000
0100
1000
0100
1000
0100
,
0010
0001
0010
0001
0010
0001
0010
0001
0010
0001
0010
0001
0010
0001
0010
0001
,
0100
0010
0100
0010
0100
0010
0100
0010
0100
0010
0100
0010
0100
0010
0100
0010
,
1000
0100
1000
0100
1000
0100
1000
0100
1000
0100
1000
0100
1000
0100
1000
0100
,
1000
0100
1000
0100
1000
0100
1000
0100
1000
0100
1000
0100
1000
0100
1000
0100
,
0010
0001
0010
0001
0010
0001
0010
0001
0010
0001
0010
0001
0010
0001
0010
0001
,
0100
0010
0100
0010
0100
0010
0100
0010
0100
0010
0100
0010
0100
0010
0100
0010
,
1000
0001
1000
0001
0100
0010
0100
0010
0100
0010
0100
0010
1000
0100
0010
0100
,
1000
0100
0010
0100
0010
0100
0010
0100
0010
0100
0010
0001
0100
0010
1000
0010
,
0100
0010
1000
0001
1000
0001
1000
0001
1000
0001
1000
0001
0010
0100
1000
0100
,
0010
0100
1000
0100
0010
0100
1000
0100
0010
0100
1000
0100
0010
0100
1000
0100
,
0010
0001
0100
0010
0100
0010
0100
0010
0100
0010
0100
0010
1000
0001
0100
0001
,
1000
0001
0100
0001
0100
0001
0100
0001
0100
0001
0100
0001
1000
0010
0001
0010
,
1000
0010
0001
0010
0001
0010
0001
0010
0001
0010
0001
0010
0100
0001
0010
0001
,
0100
0001
0010
0001
0100
0001
0010
0001
0100
0001
0010
0001
0100
0001
0010
0001
,
0100
0010
0100
0010
0100
0010
1000
0100
1000
0100
1000
0100
1000
0100
1000
0100
1000
0100
0010
0001
0010
0100
1000
0100
,
0010
0001
0010
0100
1000
0100
1000
0100
1000
0100
1000
0100
1000
0100
1000
0100
1000
0100
1000
0010
1000
0001
0100
0001
,
1000
0010
1000
0001
0100
0001
0100
0001
0100
0001
0100
0001
0100
0001
0100
0001
0100
0001
0010
0100
0010
0001
0100
0001
,
0010
0100
0010
0001
0100
0001
0010
0100
0010
0001
0100
0001
0010
0100
0010
0001
0100
0001
0010
0100
0010
0001
0100
0001
,
1000
0010
1000
0001
0100
0001
0100
0001
0100
0001
0100
0001
0100
0001
0100
0001
0100
0001
1000
0010
1000
0100
0010
0100
,
1000
0010
1000
0100
0010
0100
0010
0100
0010
0100
0010
0100
0010
0100
0010
0100
0010
0100
1000
0001
1000
0100
0010
0100
,
1000
0001
1000
0100
0010
0100
0010
0100
0010
0100
0010
0100
0010
0100
0010
0100
0010
0100
1000
0010
1000
0001
0010
0001
,
1000
0010
1000
0001
0010
0001
1000
0010
1000
0001
0010
0001
1000
0010
1000
0001
0010
0001
1000
0010
1000
0001
0010
0001
,
1000
0100
1000
0100
0010
0001
0010
0001
1000
0100
1000
0100
0010
0001
0010
0001
0100
0010
0100
0010
0100
0010
0100
0010
1000
0001
1000
0001
0100
0010
0100
0010
,
1000
0001
1000
0001
0100
0010
0100
0010
1000
0001
1000
0001
0100
0010
0100
0010
1000
0100
1000
0100
1000
0100
1000
0100
0010
0001
0010
0001
1000
0100
1000
0100
,
0010
0001
0010
0001
1000
0100
1000
0100
0010
0001
0010
0001
1000
0100
1000
0100
0010
0001
0010
0001
0010
0001
0010
0001
1000
0010
1000
0010
0100
0001
0100
0001
,
1000
0010
1000
0010
0100
0001
0100
0001
1000
0010
1000
0010
0100
0001
0100
0001
1000
0010
1000
0010
0100
0001
0100
0001
1000
0010
1000
0010
0100
0001
0100
0001
,
1000
0100
1000
0100
0010
0001
0010
0001
1000
0100
1000
0100
0010
0001
0010
0001
0100
0010
0100
0010
0100
0010
0100
0010
1000
0001
1000
0001
0100
0010
0100
0010
,
1000
0001
1000
0001
0100
0010
0100
0010
1000
0001
1000
0001
0100
0010
0100
0010
1000
0100
1000
0100
1000
0100
1000
0100
0010
0001
0010
0001
1000
0100
1000
0100
,
0010
0001
0010
0001
1000
0100
1000
0100
0010
0001
0010
0001
1000
0100
1000
0100
0010
0001
0010
0001
0010
0001
0010
0001
1000
0010
1000
0010
0100
0001
0100
0001
,
1000
0010
1000
0010
0100
0001
0100
0001
1000
0010
1000
0010
0100
0001
0100
0001
1000
0010
1000
0010
0100
0000
0000
0000
0000
0000
0000
0000
0000
0000
0000
0000
,
1002
0000
1000
0000
1003
0000
2100
0000
0100
0000
0100
0000
0100
0000
0100
0000
3100
0000
0110
0000
0000
0011
0000
0000
,
0101
0000
0000
0210
0010
0000
0010
0000
0010
0000
0010
0000
0010
0000
0010
0000
0310
0000
1010
0000
0000
1100
0000
0000
,
0110
0000
0000
0021
0001
0000
0001
0000
0001
0000
0001
0000
0001
0000
0001
0000
0031
0000
0101
0000
0000
0011
0000
0000
,
0110
0110
0011
0011
0110
0110
0011
0101
,
1010
0000
0000
0210
0010
0000
0010
0000
0010
0000
0010
0000
0010
0000
0010
0000
0310
0000
1010
0000
0000
1100
0000
0000
,
0110
0000
0000
0021
0001
0000
0001
0000
0001
0000
0001
0000
0001
0000
0001
0000
0031
0000
0101
0000
0000
1001
0000
0000
,
1100
0000
0000
0120
0100
0000
0100
0000
0100
0000
0100
0000
0100
0000
0100
0000
0130
0000
1100
0000
0000
1010
0000
0000
,
0110
0101
0110
1010
0110
0101
0110
1010
,
0120
0100
0100
0130
0201
0001
0001
0001
0001
0001
0001
0301
1002
1003
2010
3010
,
0120
0130
0201
0001
0001
0001
0001
0001
0001
0001
0001
0301
0102
0103
0210
0310
,
1020
1030
2100
0100
0100
0100
0100
0100
0100
0100
0100
3100
0210
0310
0021
0031
,
0102
0103
0210
0310
1020
1030
2100
3100
0210
0310
0021
0031
0102
0103
0210
0310
,
1020
1030
2100
0100
0100
0100
0100
0100
0100
0100
0100
3100
1200
1300
2010
3010
,
0120
0130
0201
0001
0001
0001
0001
0001
0001
0001
0001
0301
0012
0013
0021
0031
,
0102
0103
0210
0010
0010
0010
0010
0010
0010
0010
0010
0310
1020
1030
2100
3100
,
0210
0310
0021
0031
0102
0103
0210
0310
1020
1030
2100
3100
0210
0310
0120
0130
,
1100
1100
1010
1010
0110
0110
0101
0101
1001
1001
1001
1001
1010
1010
0110
0110
,
1010
1010
1100
1100
0110
0110
0011
0011
0101
0101
0101
0101
0011
0011
1001
1001
,
1010
1010
0110
0110
1010
1010
1100
1100
0110
0110
0110
0110
0011
0011
0101
0101
,
0110
0110
1010
1010
1100
1100
0110
0110
0011
0011
0101
0101
0110
0110
1010
1010
,
1100
1100
0110
0110
1100
1100
1001
1001
0101
0101
0101
0101
0011
0011
0110
0110
,
0011
0011
0110
0110
0011
0011
0110
0110
0011
0011
0011
0011
0101
0101
0110
0110
,
1010
1010
0110
0110
0101
0101
0110
0110
1010
1010
1010
1010
1100
1100
0110
0110
,
0011
0011
0101
0101
0110
0110
1010
1010
1100
1100
0110
0110
0011
0011
0101
0101
;
