#TITLE:Ice Brain(Megaman Zero2);
#SUBTITLE:(Polar Kamrous Stage);
#ARTIST:Capcom Sound Team;
#TITLETRANSLIT:;
#SUBTITLETRANSLIT:;
#ARTISTTRANSLIT:;
#CREDIT:Megaman Zero2(Capcom);
#BANNER:;
#BACKGROUND:Ice Brain-bg.png.PNG;
#LYRICSPATH:;
#CDTITLE:;
#MUSIC:1-35 - Zero 2 - Ice Brain.mp3;
#OFFSET:-0.834;
#SAMPLESTART:43.859;
#SAMPLELENGTH:12.000;
#SELECTABLE:YES;
#BPMS:0.000=139.388;
#STOPS:;
#BGCHANGES:0.000=Ice Brain-bg.png.PNG=1.000=0=0=1,
99999=-nosongbg-=1.000=0=0=0 // don't automatically add -songbackground-
;
// cache tags:
#FIRSTBEAT:2.000;
#LASTBEAT:267.500;
#SONGFILENAME:Songs/dragon force/1-35 - Zero 2 - Ice Brain/1-35 - Zero 2 - Ice Brain.sm;
#HASMUSIC:1;
#HASBANNER:0;
#MUSICLENGTH:123.749;
// end cache tags

//---------------dance-single - ----------------
#NOTES:
     dance-single:
     :
     Hard:
     8:
     0.528,0.567,0.065,0.275,0.994,415.000,8.000,34.000,0.000,2.000:
0000
0000
0000
0000
0000
0000
0000
0000
0000
1000
0001
1000
0000
0001
0000
0010
,
0000
0000
0100
1000
0000
1000
0001
1000
0000
0001
0010
0001
0000
1000
0000
0010
,
0000
0000
0100
0010
0000
0010
0100
0010
0000
1000
0100
1000
0000
0001
0000
0100
,
0000
0000
0010
0100
0000
0100
0010
0100
0000
0001
0100
0001
0000
1000
0000
0100
,
0000
0000
0010
0100
0000
0100
1000
0100
0000
1000
0010
1000
0000
0001
0000
0010
,
0000
0000
0100
0010
0000
0010
0001
0010
0000
0001
1000
0001
0000
0100
0000
0010
,
0000
0000
1000
0100
0000
0100
0010
0100
0000
1000
0001
1000
0000
1000
0100
0000
,
1000
0000
0010
0000
0000
0000
1000
0000
0100
0000
0000
0000
0000
0000
1000
0001
1000
0001
2000
0000
0000
0000
0000
0000
0000
0000
0000
0000
3000
0000
0000
0000
,
0000
0000
0100
0001
0000
1000
0001
1000
0000
0010
1000
0010
0000
0100
0000
0010
,
0000
0000
1000
0010
0000
1000
0001
1000
0000
0001
0010
0100
0000
0100
0000
1000
,
0000
0000
0001
0100
0000
0010
1000
0010
0000
0100
0010
1000
0000
1000
0000
0100
,
0000
0000
1000
0010
0000
0100
0010
0100
0000
0010
0100
0010
0000
1000
0000
0001
,
0000
0000
0010
0001
0000
1000
0010
1000
0000
0100
1000
0001
0000
0001
0000
0100
,
0000
0000
0010
0100
0000
1000
0001
1000
0000
0010
0100
0001
0000
0100
0000
0001
,
0000
0000
1000
0100
0000
0100
1000
0100
0000
0100
1000
0010
0000
0100
0000
0010
,
0000
0000
1000
0001
0000
0001
0100
0001
0000
1000
0001
1000
0000
0200
0000
0000
,
0000
0320
0000
0032
,
0000
0000
0000
0000
2003
0000
0000
0000
0000
0000
3001
0010
0200
0000
0000
0000
,
0000
0000
0000
0000
0000
0000
0000
0000
0000
0000
0000
1300
0020
0000
0000
0000
,
0000
2030
3200
0320
,
0000
0032
0000
0203
,
0000
0320
0000
2031
,
0000
0000
0000
0000
0000
0000
0000
0000
0000
0000
3100
0010
0002
0000
0000
0000
,
2003
0000
0020
0000
3000
0000
0000
0000
2030
0000
0000
0000
0000
3002
0000
0000
,
0000
0203
0000
0320
,
0000
0000
0000
0000
2030
0000
0000
0000
0000
0000
3010
0100
0002
0000
0000
0000
,
0000
0000
0000
0000
0000
0000
0000
0000
0000
0000
0000
1003
0200
0000
0000
0000
,
0000
2300
3020
0032
,
0000
0023
0000
2030
,
0000
3002
0000
0213
,
0000
0000
0000
0000
,
0000
0000
0000
0000
0000
0000
0000
0000
0000
0000
0000
0000
0000
0000
0000
0000
0000
0300
1000
0001
1000
0001
1000
0000
0000
0000
0000
0000
0000
0000
0000
0000
,
1000
0000
0010
0000
0100
0000
0000
1001
0000
0000
0000
0000
0001
0000
0100
0000
,
0010
1000
0000
0100
0000
0000
0000
0000
0000
0000
0000
0000
0000
0000
0000
0000
,
0001
0000
0100
0000
0010
0000
0000
1001
0000
0000
0000
0000
1000
0000
0010
0000
,
0100
0001
0000
0010
0000
0000
0000
0000
0000
0000
0000
0000
0000
0000
0000
0000
,
1000
0000
0010
0000
1000
0000
0000
0011
0000
0000
0000
0000
1000
0000
0001
0000
,
1000
0100
0000
0010
0000
0000
0000
0000
0000
0000
0000
0000
0000
0000
0000
0000
,
0001
0000
0100
0000
0001
0000
0000
1100
0000
0000
0000
0000
0001
0000
1000
0000
,
0001
0010
0000
0100
0000
0000
0010
0000
0001
0100
0000
0000
0001
0000
0000
0000
,
1000
0100
0000
0010
0000
0000
0000
0000
0000
0000
0000
0000
0100
1000
0000
0001
,
0100
0010
0000
0000
0100
0000
0000
0001
0010
0100
0000
0010
0000
0000
0000
0000
,
0000
0000
0000
0000
0000
0000
0000
0000
0001
1000
0000
0010
0000
0000
0000
0000
,
0000
0000
0000
0000
0000
0000
0000
0100
0010
0000
0000
0000
0100
0000
0000
0000
,
0000
0001
0100
0010
0000
0000
0000
0000
0000
0000
0000
0000
1000
0100
0000
0010
,
0001
1000
0000
0010
0000
0100
0000
0001
1000
0100
0000
0000
0010
0000
0000
0000
,
0000
0000
0000
0000
0000
0000
0000
1000
0100
0000
0000
1000
0000
0001
0010
0001
,
0010
0001
0010
0001
0000
1000
0000
0100
0000
0010
0000
0001
0000
1000
0000
0001
,
0010
0000
0100
0000
1000
0000
0000
0110
0000
0000
0000
0000
1000
0000
0100
0000
,
0010
0001
0000
1000
0000
0000
0000
0000
0000
0000
0000
0000
0000
0000
0010
0000
,
0100
0000
0001
1000
0010
0000
0100
0001
0000
0001
0010
0000
0100
1000
0000
0001
,
0100
0010
0000
1000
0000
0001
0000
0010
0000
0100
0000
1000
0000
1000
0000
0001
,
0010
0000
0100
0000
1000
0000
0000
0110
0000
0000
0000
0000
1000
0000
0100
0000
,
0010
0001
0000
1000
0000
0000
0000
0000
0000
0000
0000
0000
0000
0000
0010
0000
,
0100
0000
0001
1000
0010
0000
0100
0001
0000
0001
0010
0000
0100
1000
0000
0000
,
0100
1000
0000
0010
0001
0000
0000
0000
0010
0001
0000
0000
0000
1000
0100
1000
,
0000
0010
0000
0100
0000
0000
0000
0001
0000
0010
0000
0100
0000
1000
0000
0100
,
0000
1000
0000
0010
0000
0100
0000
0001
0000
0020
0000
0000
0000
0030
0000
0000
,
0000
0000
0000
0000
0000
0000
0000
1000
0000
0100
0000
0010
0000
0001
0000
0010
,
0000
0001
0000
0100
0000
0010
0000
1000
0000
0200
0000
0000
0000
0300
0000
0000
,
0000
0000
0000
0000
0000
0000
0000
1000
0000
0100
0000
0010
0000
0001
0000
1000
,
0000
0100
0000
0001
0000
0100
0000
1000
0000
0020
0000
0000
0000
0030
0000
0000
,
0000
0000
0000
0000
0000
0000
0000
1000
0100
1000
0001
0010
0001
1000
0100
1000
,
0100
0010
0001
1000
0001
1000
0010
0100
0001
0000
0000
0000
0000
0100
0000
0001
,
1000
0001
0000
0000
0000
0000
0000
0000
0000
1000
0100
1000
0000
0100
0000
0010
,
0001
0010
0000
0000
0000
0000
0000
0000
0000
0001
0100
0001
0000
0010
0000
0100
,
1000
0100
0000
0000
0000
0000
0000
0000
0000
0100
0010
0100
0000
1000
0000
0000
;

//---------------dance-single - ----------------
#NOTES:
     dance-single:
     :
     Medium:
     7:
     0.487,0.540,0.048,0.291,0.816,380.000,6.000,36.000,0.000,2.000:
0000
0000
0000
0000
0000
0000
0000
0000
0000
1000
0001
1000
0000
0001
0000
0010
,
0000
0000
0100
1000
0000
1000
0000
1000
0000
0001
0010
0001
0000
1000
0000
0010
,
0000
0000
0100
0010
0000
0010
0000
0010
0000
1000
0100
1000
0000
0001
0000
0100
,
0000
0000
0010
0100
0000
0100
0000
0100
0000
0001
0100
0001
0000
1000
0000
0100
,
0000
0000
0010
0100
0000
0100
0000
0100
0000
1000
0010
1000
0000
0001
0000
0010
,
0000
0000
0100
0010
0000
0010
0000
0010
0000
0001
1000
0001
0000
0100
0000
0010
,
0000
0000
1000
0100
0000
0100
0000
0100
0000
1000
0001
1000
0000
1000
0100
0000
,
1000
0000
0000
1000
0100
0000
0000
1000
0001
2000
0000
0000
0000
0000
3000
0000
,
0000
0000
0100
0001
0000
1000
0001
1000
0000
0010
1000
0010
0000
0100
0000
0010
,
0000
0000
1000
0010
0000
1000
0001
1000
0000
0001
0010
0100
0000
0100
0000
1000
,
0000
0000
0001
0100
0000
0010
1000
0010
0000
0100
0010
1000
0000
1000
0000
0100
,
0000
0000
1000
0010
0000
0100
0010
0100
0000
0010
0100
0010
0000
1000
0000
0001
,
0000
0000
0010
0001
0000
1000
0010
1000
0000
0100
1000
0001
0000
0001
0000
0100
,
0000
0000
0010
0100
0000
1000
0001
1000
0000
0010
0100
0001
0000
0100
0000
0001
,
0000
0000
1000
0100
0000
0100
1000
0100
0000
0100
1000
0010
0000
0100
0000
0010
,
0000
0000
1000
0001
0000
0001
0100
0001
0000
1000
0001
1000
0000
0200
0000
0000
,
0000
0320
0000
0032
,
0000
0000
0000
0000
2003
0000
0000
0000
0000
0000
3001
0010
0200
0000
0000
0000
,
0000
0000
0000
0000
0000
0000
0000
0000
0000
0000
0000
1300
0020
0000
0000
0000
,
0000
2030
3200
0320
,
0000
0032
0000
0203
,
0000
0320
0000
2031
,
0000
0000
0000
0000
0000
0000
0000
0000
0000
0000
3100
0010
0002
0000
0000
0000
,
2003
0000
0020
0000
3000
0000
0000
0000
2030
0000
0000
0000
0000
3002
0000
0000
,
0000
0203
0000
0320
,
0000
0000
0000
0000
2030
0000
0000
0000
0000
0000
3010
0100
0002
0000
0000
0000
,
0000
0000
0000
0000
0000
0000
0000
0000
0000
0000
0000
1003
0200
0000
0000
0000
,
0000
2300
3020
0032
,
0000
0023
0000
2030
,
0000
3002
0000
0213
,
0000
0000
0000
0000
,
0000
0000
0000
0000
0000
0000
0000
0000
0000
0000
0000
0000
0000
0000
0000
0000
0000
0300
1000
0000
0001
0000
1000
0000
0000
0000
0000
0000
0000
0000
0000
0000
,
1000
0000
0010
0000
0100
0000
0000
1001
0000
0000
0000
0000
0001
0000
0100
0000
,
0010
1000
0000
0100
0000
0000
0000
0000
0000
0000
0000
0000
0000
0000
0000
0000
,
0001
0000
0100
0000
0010
0000
0000
1001
0000
0000
0000
0000
1000
0000
0010
0000
,
0100
0001
0000
0010
0000
0000
0000
0000
0000
0000
0000
0000
0000
0000
0000
0000
,
1000
0000
0010
0000
1000
0000
0000
0011
0000
0000
0000
0000
1000
0000
0001
0000
,
1000
0100
0000
0010
0000
0000
0000
0000
0000
0000
0000
0000
0000
0000
0000
0000
,
0001
0000
0100
0000
0001
0000
0000
1100
0000
0000
0000
0000
0001
0000
1000
0000
,
0001
0010
0000
0100
0000
0000
1000
0000
0100
0000
0010
0000
0000
0000
0001
0000
,
0010
0001
0000
0100
0000
0100
0000
0010
,
0100
0010
1000
0100
1000
0010
0000
0100
,
0000
0100
0000
0001
0000
0001
1000
0100
,
0000
1000
0000
1000
0000
0001
1000
0001
,
0100
0010
1000
0100
0000
0100
0000
0100
,
0010
0001
0000
0100
0010
1000
0000
1000
,
0000
0000
0001
0000
0000
0000
0010
0000
0100
0000
0000
1000
0000
0001
0010
0001
,
0010
0001
0010
0001
0000
1000
0000
0100
0000
0010
0000
0001
0000
2000
0000
0000
,
0010
0000
0000
0000
0000
0000
0000
0100
0000
0000
0000
0000
3001
0000
0100
0000
,
0010
1000
0000
0001
0000
0000
0000
0000
0000
0000
0000
0000
0000
0000
0010
0000
,
0100
1000
0010
0001
0010
1000
0100
1000
,
0100
0000
1000
0000
0000
0001
0000
0010
0000
0100
0000
1000
0000
0002
0000
0000
,
0010
0000
0000
0000
0000
0000
0000
0010
0000
0000
0000
0000
1003
0000
0100
0000
,
0010
0001
0000
1000
0000
0000
0000
0000
0000
0000
0000
0000
0000
0000
0100
0000
,
0010
0000
1000
0000
0001
0000
0100
0001
0000
0001
0010
0000
0100
1000
0000
0000
,
0100
1000
0000
0010
0001
0000
0000
0000
0010
0001
0000
0000
0000
0000
0000
0000
,
0000
0000
0000
0000
0000
0000
0000
0001
0000
0010
0000
0100
0000
1000
0000
0100
,
0000
1000
0000
0010
0000
0100
0000
0001
0000
0020
0000
0000
0000
0030
0000
0000
,
0000
0000
0000
0000
0000
0000
0000
1000
0000
0100
0000
0010
0000
0001
0000
0010
,
0000
0001
0000
0100
0000
0010
0000
1000
0000
0200
0000
0000
0000
0300
0000
0000
,
0000
0000
0000
0000
0000
0000
0000
1000
0000
0100
0000
0010
0000
0001
0000
1000
,
0000
0100
0000
0001
0000
0100
0000
1000
0000
0020
0000
0000
0000
0030
0000
0000
,
0000
0000
0000
0000
0000
0000
0000
1000
0100
1000
0000
1000
0010
1000
0000
1000
,
0001
1000
0000
0001
0010
0001
0000
0001
0100
0000
0000
0000
0000
0000
0000
0000
,
0000
0000
0000
0000
0000
0000
0000
0000
0000
1000
0100
1000
0000
0100
0000
0010
,
0000
0010
0000
0000
0000
0000
0000
0000
0000
0001
0100
0001
0000
0010
0000
0100
,
0000
0100
0000
0000
0000
0000
0000
0000
0000
0100
0010
0100
0000
1000
0000
0000
;

//---------------dance-single - ----------------
#NOTES:
     dance-single:
     :
     Easy:
     6:
     0.343,0.351,0.048,0.291,0.275,255.000,6.000,36.000,0.000,2.000:
0000
0000
1000
0000
,
0001
0000
0100
0000
,
0010
0000
1000
0000
,
0001
0000
1000
0000
,
0001
0000
0100
0000
,
0010
0000
0100
0000
,
0001
0000
1000
0000
0001
0000
0010
0100
,
1000
0000
0001
0000
1000
0000
0001
0000
1000
0020
0000
0000
0000
0000
0030
0000
,
1000
0100
0010
0010
,
0100
1000
0001
0001
,
1000
0100
1000
1000
,
0010
0100
0001
1000
,
0100
0010
0001
0010
,
0100
1000
0010
0100
,
0100
0010
1000
0010
,
0010
0000
0000
0000
0100
0000
0000
0000
0001
0000
1000
0000
0000
0200
0000
0000
,
0000
0320
0000
0032
,
0000
0000
0000
0000
2003
0000
0000
0000
0000
0000
3001
0010
0200
0000
0000
0000
,
0000
0000
0000
0000
0000
0000
0000
0000
0000
0000
0000
1300
0020
0000
0000
0000
,
0000
2030
3200
0320
,
0000
0032
0000
0203
,
0000
0320
0000
2031
,
0000
0000
0000
0000
0000
0000
0000
0000
0000
0000
3100
0010
0002
0000
0000
0000
,
2003
0000
0020
0000
3000
0000
0000
0000
2030
0000
0000
0000
0000
3002
0000
0000
,
0000
0203
0000
0320
,
0000
0000
0000
0000
2030
0000
0000
0000
0000
0000
3010
0100
0002
0000
0000
0000
,
0000
0000
0000
0000
0000
0000
0000
0000
0000
0000
0000
1003
0200
0000
0000
0000
,
0000
2300
3020
0032
,
0000
0023
0000
2030
,
0000
3002
0000
0213
,
0000
0000
0000
0000
,
0000
0000
0000
0000
0000
0000
0000
0000
0000
0000
0000
0000
0000
0000
0000
0000
0000
0300
1000
0000
0000
0000
0001
0000
0000
0000
0000
0000
0000
0000
0000
0000
,
1000
0000
0010
0000
0100
0000
0000
1001
0000
0000
0000
0000
0001
0000
0100
0000
,
0010
0000
0000
0100
0000
0000
0000
0000
0000
0000
0000
0000
0000
0000
0000
0000
,
0001
0000
0100
0000
0010
0000
0000
1001
0000
0000
0000
0000
1000
0000
0010
0000
,
0100
0000
0000
0010
0000
0000
0000
0000
0000
0000
0000
0000
0000
0000
0000
0000
,
1000
0000
0010
0000
1000
0000
0000
0011
0000
0000
0000
0000
1000
0000
0001
0000
,
1000
0000
0000
0010
0000
0000
0000
0000
0000
0000
0000
0000
0000
0000
0000
0000
,
0001
0000
0100
0000
0001
0000
0000
1100
0000
0000
0000
0000
0001
0000
1000
0000
,
0001
0000
0000
0100
0000
0000
1000
0000
0000
0000
1000
0000
0000
0000
0001
0000
,
0000
0001
0000
0100
0000
0100
0000
0010
,
0000
0010
0000
0100
0000
0010
0000
0100
,
0000
0100
0000
0001
0000
0001
0000
0100
,
0000
1000
0000
1000
0000
0010
0000
0001
,
0000
0001
0000
0100
0000
0010
0000
0100
,
0000
0001
0000
0100
0000
0010
0000
1000
,
0000
0000
0001
0000
0000
0000
0010
0000
0100
0000
0000
1000
0000
0000
0001
0000
,
0010
0000
0100
0000
0000
1000
0000
0100
0000
0010
0000
0001
0000
2000
0000
0000
,
0010
0000
0000
0000
0000
0000
0000
0100
0000
0000
0000
0000
3001
0000
0100
0000
,
0010
0000
0000
1000
0000
0000
0000
0000
0000
0000
0000
0000
0000
0000
0010
0000
,
0000
1000
0000
0001
0000
1000
0100
1000
,
0100
0000
1000
0000
0000
0001
0000
0010
0000
0100
0000
1000
0000
0002
0000
0000
,
0010
0000
0000
0000
0000
0000
0000
0010
0000
0000
0000
0000
1003
0000
0100
0000
,
0010
0000
0000
0001
0000
0000
0000
0000
0000
0000
0000
0000
0000
0000
0100
0000
,
0010
0000
1000
0000
0001
0000
0000
0001
0000
0001
0000
0000
0000
1000
0000
0000
,
0100
1000
0000
0000
0001
0000
0000
0000
0010
0001
0000
0000
0000
0000
0000
0000
,
0000
0000
0000
0000
0000
0000
0000
0001
0000
1000
0000
0001
0000
1000
0000
0001
,
0000
1000
0000
0001
0000
1000
0000
0001
0000
0020
0000
0000
0000
0030
0000
0000
,
0000
0000
0000
0000
0000
0000
0000
1000
0000
0001
0000
1000
0000
0001
0000
1000
,
0000
0001
0000
1000
0000
0001
0000
1000
0000
0200
0000
0000
0000
0300
0000
0000
,
0000
0000
0000
0000
0000
0000
0000
1000
0000
0100
0000
0010
0000
0001
0000
1000
,
0000
0100
0000
0010
0000
0100
0000
1000
0000
0002
0000
0000
0000
0003
0000
0000
,
0000
0000
0000
1000
0100
0010
0001
1000
,
0001
0010
0100
1000
0001
0000
0000
0100
,
0000
0010
0000
1000
0000
0100
0000
0010
,
0000
0001
0000
1000
0000
0001
0000
0100
,
0000
0001
0000
1000
0000
0010
0000
1000
;
