#TITLE:Marble Madness;
#SUBTITLE:Level 2;
#ARTIST:Marble Madness;
#TITLETRANSLIT:;
#SUBTITLETRANSLIT:;
#ARTISTTRANSLIT:;
#CREDIT:;
#BANNER:Marble Madness-2-bn.PNG;
#BACKGROUND:bg.png;
#LYRICSPATH:;
#CDTITLE:akabane.PNG;
#MUSIC:Marble Madness-2.mp3;
#OFFSET:-0.054;
#SAMPLESTART:31.220;
#SAMPLELENGTH:13.000;
#SELECTABLE:YES;
#DISPLAYBPM:158.000;
#BPMS:0.000=149.000,12.000=295.999,20.500=148.999;
#STOPS:12.000=0.300
,12.500=0.300
,13.000=0.080
,13.500=0.080
,14.000=0.080
,14.500=0.080
,15.000=0.300
,15.500=0.300
,16.000=0.140
,16.500=0.080
,17.000=0.080
,17.500=0.080
,18.000=0.080
,18.500=0.080
,18.750=0.020
,19.000=0.300
,19.500=0.280
,20.000=0.300
,20.500=0.040
,32.500=0.140
,33.500=0.700
,34.500=0.700
,35.000=0.260
,35.500=0.400
,36.000=0.700
,36.500=0.360
,38.000=0.200
,44.000=0.640
,44.500=0.440
,45.000=0.180
,45.500=0.360
,51.500=0.260
,82.500=0.140
,123.500=0.100
;
#BGCHANGES:;
// cache tags:
#FIRSTBEAT:0.000;
#LASTBEAT:135.500;
#SONGFILENAME:Songs/cedric step/MM-2/mm-2.sm;
#HASMUSIC:1;
#HASBANNER:1;
#MUSICLENGTH:62.150;
// end cache tags

//---------------dance-single - Copied from Copied f----------------
#NOTES:
     dance-single:
     Copied from Copied f:
     Beginner:
     1:
     0.218,0.269,0.241,0.000,0.000,80.000,15.000,0.000,0.000,0.000:
0010
0010
0010
0010
,
0010
0010
0010
0000
,
1001
1001
1001
0000
,
0100
0100
0000
0100
,
0100
0000
0100
0000
,
0100
0100
0000
1001
,
0000
0010
0010
0010
,
0010
0010
0010
0010
,
0000
0010
0000
0010
0000
0010
0010
0000
,
0010
0000
0010
0000
,
0100
0000
1001
0000
,
0001
0001
1000
0000
,
0100
0000
0010
0000
,
0000
1001
0000
1001
,
0000
0110
0000
0110
,
0000
1000
0000
0001
,
0000
0100
0100
0100
,
0000
0010
0010
0010
,
0000
0000
0100
0000
,
1001
0000
0010
0010
,
0010
0000
0000
1001
,
0000
0100
0000
0100
,
0000
0010
0000
1000
,
0000
0001
0000
1000
,
0000
0110
0000
1000
,
0000
0001
0000
0110
,
0000
1001
0000
0010
,
0000
0100
0000
0001
,
0000
1000
0000
0010
,
0000
0100
0000
0010
,
0000
0000
1000
0000
0000
0000
0000
1001
,
0000
0000
0000
0000
,
0000
0010
0000
0010
0000
0000
0000
0001
,
0000
0000
0000
1000
0000
0000
0000
0000
;

//---------------dance-single - Copied from Copied f----------------
#NOTES:
     dance-single:
     Copied from Copied f:
     Medium:
     7:
     0.575,0.518,0.193,0.080,0.000,231.000,12.000,5.000,0.000,4.000:
0010
1000
0010
0001
0010
1000
0010
0001
,
1000
0100
0002
0000
2000
0000
3003
0000
,
1000
0100
0010
0100
1000
0100
0001
0100
,
0010
1000
0010
0001
0010
1000
0010
0001
,
0010
1000
0010
0001
0010
1000
0010
0001
,
0010
1000
0010
0001
0010
1000
0010
0001
,
0100
0010
1000
0100
0010
0001
1000
0010
,
0100
0001
1000
0100
0010
0001
1000
0010
,
0100
0001
0000
1000
0001
0001
1000
0001
,
1000
0001
0000
1000
0010
0000
1000
0001
,
0100
0001
0100
0001
0010
0010
0010
0000
,
1000
0001
1000
0001
0010
0000
1000
0010
,
1000
0001
0100
0001
0010
0010
0010
1001
,
0000
0000
1000
1000
0000
0100
0100
0010
,
0001
0001
1000
0001
1000
1000
0100
1000
,
1000
0100
0020
0000
0002
0000
2000
0100
,
3133
1000
0010
0100
0100
0001
0010
0001
,
1000
0100
0001
1000
0010
0001
0000
0000
,
0000
0000
0000
0100
0001
1000
0010
0100
,
0001
1000
0010
0000
0010
0000
0010
0000
,
0010
0010
0010
1001
,
1000
0010
1000
0010
0001
0010
0001
0010
,
1000
0100
1000
0100
0001
0100
0001
0100
,
1000
0001
0010
0000
1001
0000
0100
0000
,
1001
0000
1000
0010
1000
0010
0001
0010
,
0001
0010
1000
0100
1000
0100
0001
0100
,
0001
0100
1000
0001
0010
0000
1001
0000
,
0100
1000
0100
0001
0100
1000
0100
0010
,
0001
0000
1001
0000
0001
0010
0100
0010
,
1000
0010
0100
0010
0001
1000
0110
0000
,
1001
0110
1001
1111
,
1000
0100
1000
0100
0010
0001
0010
0001
,
1000
0100
0010
0001
0000
1001
0000
0100
,
0001
0010
0001
0100
0010
1000
0001
0100
;

//---------------dance-single - ----------------
#NOTES:
     dance-single:
     :
     Easy:
     1:
     0.283,0.406,0.290,0.032,0.000,103.000,18.000,2.000,0.000,0.000:
0010
0100
0010
0100
,
0010
0100
0010
0000
,
1001
0110
1001
0000
,
0100
0100
0100
0100
,
0100
0100
0100
0100
,
0100
0100
0000
1001
,
0000
0010
0010
0010
,
0010
0010
0010
0010
,
0000
0010
0010
0010
0010
0010
0010
0000
,
0220
0330
1001
0000
0010
0000
0010
0000
,
0100
0000
1001
0000
,
0001
1000
0001
1000
0001
0000
0000
0000
,
0100
0000
0000
0000
0010
0000
0000
1001
,
0000
1000
0000
0001
,
0100
0010
0000
0110
,
0000
0001
0000
1000
,
0001
0100
0000
1001
,
0000
0010
0000
0010
,
1000
0100
0100
1001
,
0110
1001
0010
0010
,
0010
0000
0000
1001
,
0000
0100
0001
0100
,
0000
0010
0000
1000
,
0000
0001
0100
1000
,
0000
0110
0000
1000
,
0010
0001
0000
0110
,
0000
1001
0000
0010
,
0100
0100
0000
0001
,
1000
1000
0000
0010
,
0010
0100
0000
0010
,
0001
0000
1000
0000
0000
0000
0000
1001
,
0000
0000
0000
0000
,
0000
0010
0000
0100
0000
0000
0000
0001
,
0000
0100
0000
1000
0000
0100
0000
0000
;

//---------------dance-single - ----------------
#NOTES:
     dance-single:
     :
     Hard:
     9:
     0.719,0.760,0.467,0.322,0.410,264.000,29.000,20.000,265.000,14.000:
1000
M100
0M10
01M0
0M01
010M
0M10
01M0
,
0M01
001M
01M0
1M00
M010
01M0
0M01
001M
,
00M1
0000
100M
0000
M100
0000
0M10
0000
00M1
0000
100M
0000
M001
0000
001M
00M0
,
2100
0M00
3021
M00M
2031
00MM
3100
MM00
0010
00M0
0100
0M00
0201
000M
1320
MM00
,
1230
M0M0
1300
0M00
M001
0000
010M
0000
0M10
0000
10M0
M000
1002
M000
0123
0M0M
,
2130
0MM0
3010
M000
00M1
0000
001M
0000
10M0
0000
M100
0000
0M10
0000
00M1
0000
,
010M
0M10
10M0
M001
001M
01M0
1M00
M001
,
010M
0M10
10M0
M001
001M
01M0
1M00
M001
,
010M
0M00
2001
000M
0000
0000
3120
MM00
0031
00MM
1002
M000
0123
0M0M
2130
0MM0
,
3021
M00M
0231
00MM
0300
0M00
0100
0000
0M10
0000
00M0
0000
1000
0000
M001
0000
,
010M
0M01
010M
0M01
001M
0010
0010
00M0
,
2001
0000
0000
0000
000M
0000
0000
0000
3210
0000
0000
0000
00M0
0000
M000
0000
0312
0000
0M00
0000
00M0
0000
0000
0000
2103
0000
000M
0000
0M00
0000
0000
0000
3100
M000
0000
0000
0000
0000
0000
0000
1M00
0000
0000
0000
0000
0000
0000
0000
M010
0000
0000
0000
0000
0000
0000
0000
01M0
0000
0000
0000
0000
0000
0000
0000
,
0M01
001M
01M0
0M10
00M1
100M
M010
0110
,
0MM0
0000
1000
M001
010M
0M01
100M
M100
,
1M00
M100
1M00
M001
010M
0M01
100M
M100
,
1M00
0000
M001
0000
001M
0001
0010
0001
0010
0001
0010
0001
001M
0000
01M0
0000
,
1M00
0000
M001
0000
010M
0000
0M10
0000
10M0
0000
M001
0000
001M
0001
10M0
010M
,
M010
0M00
00M1
0000
100M
0000
M100
0000
0M01
0000
011M
0000
0MM0
0000
1001
0000
,
M00M
1010
M0M0
0101
010M
0M01
001M
10M0
,
M100
1M00
M010
0010
01M0
0100
0M01
0001
,
100M
1000
M010
0010
01M0
0110
1MM0
M000
,
0001
001M
00M1
010M
0M01
001M
01M0
1M00
,
M001
010M
0M10
10M0
M001
010M
1M00
M001
,
001M
0000
10M0
0000
M100
0000
1M00
0100
M010
0M00
00M0
0000
0100
0000
0M00
0000
,
0010
00M0
0100
0M01
010M
1M00
M100
0M01
,
100M
M010
01M0
1M00
M001
001M
01M0
1M00
,
M010
0000
01M0
0000
0M01
0000
001M
0000
10M0
0000
M010
1000
00M1
M000
000M
0000
,
1000
M100
1M00
M100
0M01
010M
0M01
010M
,
0M01
001M
00M1
001M
10M0
M010
10M0
M010
,
01M0
0M10
10M0
M001
001M
01M0
1M00
M001
,
010M
0000
0000
0000
0000
0000
0000
0000
1M00
0000
0000
0000
0000
0000
0000
0000
M100
0000
0000
0000
0000
0000
0000
0000
0M01
0000
0000
0000
0000
0000
0000
0000
001M
0000
0000
0000
0000
0000
0000
0000
01M0
0000
0000
0000
0000
0000
0000
0000
1M00
0000
0000
0000
0000
0000
0000
0000
1001
0000
0000
0000
0000
0000
0000
M00M
,
0001
0001
010M
0100
1M00
1000
M100
0100
,
0M01
0000
0001
0000
000M
0000
1000
0000
M000
0000
1001
0000
M00M
0000
0100
0001
,
0100
0001
0M10
0001
0010
0001
10M0
000M
M000
0000
1001
0000
M00M
0000
0000
0000
;
